#TITLE:Love Generation;
#SUBTITLE:;
#ARTIST:Suzy Lazy;
#TITLETRANSLIT:;
#SUBTITLETRANSLIT:;
#ARTISTTRANSLIT:;
#CREDIT:;
#BANNER:bn.PNG;
#BACKGROUND:BG.PNG;
#LYRICSPATH:;
#CDTITLE:Beatmania IIDX.png;
#MUSIC:203-love_generation.mp3;
#OFFSET:-2.000;
#SAMPLESTART:57.220;
#SAMPLELENGTH:12.000;
#SELECTABLE:YES;
#BPMS:0.000=152.000;
#STOPS:;
#BGCHANGES:;

//---------------dance-single - ----------------
#NOTES:
     dance-single:
     :
     Hard:
     9:
     0.674,0.697,0.300,0.223,0.247:
0000
0000
0000
0000
,
0000
0000
0000
0000
,
0010
1000
0020
0000
1030
0000
1000
0100
,
0010
0001
0010
0100
1000
0010
0100
0010
,
1000
0001
0100
0010
2000
0000
3010
0100
,
0010
1000
0001
0100
0001
0010
0001
0010
,
0100
1000
0100
0010
2000
0000
3001
0100
,
0010
0100
0010
1000
0010
0100
0001
0010
,
0100
1000
0001
0100
0020
0000
0130
0000
,
1000
0100
1000
0100
1000
0000
0010
0000
0001
0100
0001
0100
0001
0000
0100
0000
,
0010
0100
0010
0001
0010
0100
0010
1000
,
0001
0010
0001
0010
0000
0001
0010
0001
0010
0001
0010
0100
1000
0100
1000
0100
,
1000
0100
1000
0100
0001
0010
0100
1000
,
0001
1000
0001
1000
0000
0010
0100
0001
1000
0010
0100
0001
1000
0010
0100
0001
,
1000
0001
1000
0010
0100
1000
0100
0010
,
0001
1000
0010
1000
0000
0100
1000
0100
0010
0001
0010
0100
0001
0010
0100
1000
,
0001
0100
0001
0100
0010
1000
0010
0100
,
1000
0100
0001
0010
0000
0010
0100
0010
1000
0010
0001
0010
0001
0010
0100
1000
,
0001
0100
0001
0100
0001
0100
0010
0100
,
0010
1000
0010
1000
0010
1000
0100
1000
,
0010
0100
0010
0100
0001
0100
0010
0100
,
0001
0000
1000
0000
0010
0000
0100
0000
0001
1000
0001
1000
0001
0000
0100
0000
,
1000
0100
1000
0100
0010
0100
0010
0100
,
0001
0100
0001
0100
0010
0001
0010
0100
,
0010
1000
0010
0100
0010
1000
0010
0000
,
1001
0000
0000
1001
0000
0000
0000
0000
,
0120
0000
0000
2030
0000
0000
3001
0000
,
0110
0000
0000
0000
1000
0000
0010
0100
0000
0000
0010
0000
2002
0000
3003
0000
,
0010
0100
1000
0100
0010
0001
0010
0000
,
0000
0100
1000
0100
0010
0100
0001
0011
,
0000
1100
0000
0000
1001
1001
1001
0000
,
0110
0000
0000
0000
1000
0000
0100
1000
0000
0000
0010
0000
2100
0000
0000
0000
,
3010
0100
0001
1000
0100
0010
0001
0000
,
0000
0001
1000
0010
0100
0010
0100
1100
,
0000
0011
0000
0000
1100
0101
0110
0000
,
0010
0000
0000
0000
0010
0000
0010
0100
0000
0000
0001
0000
2100
0000
0000
0000
,
3010
0100
0001
1000
0010
0100
0001
0000
,
0000
0001
0100
0010
1000
0010
0100
0010
,
0000
0101
0000
0000
1010
0101
0110
0000
,
1001
0000
0000
0000
0010
0000
1000
0100
0000
0000
0001
0000
0012
0000
0000
0000
,
0013
0001
0010
1000
0001
0100
0010
0000
,
0000
0001
1000
0010
0100
0001
1000
0110
,
0000
1001
0000
0000
0110
1001
0110
0000
,
0010
0000
0010
0100
0010
0000
0010
1000
0010
1000
0010
1000
0010
0000
0001
0100
,
0001
0100
0010
0100
0002
0000
0103
0000
,
0010
1000
0010
0100
0001
1000
0010
0100
,
0010
1000
0010
0100
0002
0000
0103
0000
,
2002
0000
0000
3003
,
0010
0100
0010
1000
0002
0000
0013
0100
,
0010
0100
0010
1000
0010
0100
0001
0100
,
0010
0001
0010
0100
2000
0000
3010
0100
,
0220
0000
0000
0330
,
0001
1000
0001
0100
0002
0000
0103
0010
,
1000
0010
0100
0001
1000
0010
0100
0001
,
0100
0010
0100
0001
0200
0000
0310
0000
,
1000
0100
0010
0001
0010
0100
1000
0100
,
0010
1000
0001
0100
0020
0000
0130
0001
,
1000
0010
0100
0010
0100
0010
0100
1000
,
0010
0100
0010
1000
0002
0000
0103
0010
,
0001
0100
0001
0100
0001
0000
0100
0000
0010
1000
0010
1000
0010
0000
1000
0000
,
0001
0000
0000
0000
;

//---------------dance-single - ----------------
#NOTES:
     dance-single:
     :
     Medium:
     6:
     0.485,0.494,0.416,0.223,0.000:
0000
0000
0000
0000
,
0000
0000
0000
0000
,
0010
0000
0002
0000
0013
0000
0100
1000
,
0200
0310
1000
0001
,
0100
0000
1000
0100
0020
0000
0031
0000
,
1001
1001
0110
0110
,
0001
0010
0200
0000
1300
0000
0010
1000
,
0020
1000
0100
0130
,
0010
0001
0020
0000
0130
0000
1000
0000
,
0001
1000
0001
0000
0100
0010
0100
0000
,
1000
0100
0010
0001
,
0001
1000
0001
0100
0010
1000
0010
0100
,
0001
0010
0100
1000
,
0001
0100
0010
1000
0100
1000
0010
0001
,
0010
0100
0001
1000
,
0010
0100
0001
1000
0100
0010
0001
0010
,
0100
1000
0100
1000
,
0010
0001
0010
0100
0001
1000
0010
0100
,
1001
0000
0110
0000
1000
0100
0010
0001
,
0000
0011
0000
1100
0000
0010
1000
0002
,
0000
0103
0000
0020
0000
1030
0000
0200
,
0000
1300
0000
0010
0100
1000
0100
0000
,
0011
0000
1100
0000
0010
0100
0010
1001
,
0000
1010
0000
0101
0000
1000
0100
0020
,
0000
0031
0000
0100
0000
2000
0000
3000
,
1001
0000
0000
1001
0000
0000
0000
0000
,
0110
0000
0000
0110
0000
0000
0000
0000
,
2100
0000
3020
0000
0130
0001
1001
0000
,
0010
0100
0010
1000
0010
0100
0001
0000
,
0000
0000
0100
0000
1000
0000
0000
1100
,
0000
0011
0000
0000
0010
0010
0010
0000
,
0110
0000
1000
0100
0010
0000
0011
0000
,
0001
0000
0100
0000
0001
1000
0001
0000
,
0000
0000
0010
0000
0100
0000
0000
0110
,
0000
0110
0000
0000
1000
0100
1100
0000
,
0010
0000
0100
0001
1000
0000
0011
0000
,
0001
0000
0100
0000
0001
1000
0010
0000
,
0000
0000
0100
0000
1000
0000
0000
0011
,
0000
0011
0000
0000
0001
0100
0001
0000
,
0011
0100
1000
1001
,
0010
0000
0100
0000
1000
0100
0001
0000
,
0000
0000
0010
0000
0100
0000
0000
0110
,
0000
0110
0000
0000
1001
1001
1001
0000
,
1100
0101
0011
1010
,
0010
1000
0001
0100
,
1000
0001
0100
0010
,
1000
0100
0010
0000
0002
0000
0103
0000
,
2002
0000
0000
3003
,
0010
0100
2000
0000
3001
0000
0010
0001
,
0100
1000
0100
0010
0001
0010
1000
0001
,
0100
1000
0200
0000
0310
0000
0001
0000
,
0010
0100
0001
1000
0010
0100
0010
1000
,
0020
0000
0130
0000
1000
0000
0001
1000
,
0020
0130
1000
1100
,
0010
0100
0001
1000
0020
0000
0130
0000
,
1000
0100
0010
0001
0010
0100
1000
0100
,
0001
0000
0110
0000
0010
0000
0001
0010
,
1000
0200
1300
0001
,
0100
1000
0020
0000
0130
0000
0001
0000
,
0010
0100
0001
1000
0010
0100
0010
1000
,
0001
0000
0000
0000
;

//---------------dance-single - ----------------
#NOTES:
     dance-single:
     :
     Easy:
     5:
     0.361,0.378,0.106,0.242,0.000:
0000
0000
0000
0000
,
0000
0000
0000
0000
,
1000
0100
0020
0130
,
0001
1000
0100
0010
,
0001
0100
2000
3100
,
0010
1000
0100
0010
,
0001
0100
2000
3010
,
0100
1000
0001
0010
,
1000
0001
0020
1030
,
0100
0010
0001
0100
,
1000
0001
0100
0010
,
2000
3200
0320
0032
,
0013
0100
1000
0001
,
0020
0100
1030
0100
,
1000
0100
0010
0001
,
0200
0310
0002
1003
,
0100
1000
0100
0010
,
0002
0000
2000
3003
,
0010
0000
0100
0000
1000
0100
0010
0001
,
0000
0100
0000
1000
0000
0010
0100
1000
,
0000
0001
0000
0100
0000
1000
0000
0100
,
0000
0010
0000
2000
0002
0000
3003
0000
,
0010
0000
0100
0000
1000
0100
0010
0001
,
0000
0010
0000
0100
0000
1000
0100
0010
,
0000
1000
0000
0001
0000
0100
0000
0000
,
1000
0000
0000
1000
0000
0000
1001
0000
,
0001
0000
0000
0001
0000
0000
1001
0000
,
0010
0100
1000
0012
,
0103
0010
0100
1000
,
0000
0000
0010
0000
0100
0000
0000
1100
,
0000
0010
0000
0000
0010
1000
0010
0000
,
0100
1000
0001
1001
,
0010
0100
1000
0100
,
0000
0000
0001
0000
0100
0000
0000
1000
,
0000
1000
0000
0000
0010
0100
0010
0000
,
0001
1000
0100
0012
,
0010
0013
0100
1000
,
0000
0001
0100
0010
,
1000
0000
0100
0000
0001
0100
0001
0000
,
0010
0100
1000
2002
,
3003
0010
0100
1000
,
0000
0000
0010
0000
0100
0000
0000
1000
,
0000
0100
0000
0000
0010
0010
0010
0000
,
1100
0000
0011
0000
0010
0100
0001
1000
,
0010
1000
0100
0010
,
0001
0100
1000
0010
,
0100
0001
1000
0010
,
2002
0000
0000
3003
,
0010
0100
1000
0100
,
0010
0001
0100
1000
,
0010
0100
0001
1000
,
0220
0000
0000
0330
,
1000
0100
0010
0001
,
0010
0100
1000
0001
,
0100
0010
1000
0100
,
0002
0100
0010
0103
,
0010
1000
0100
0001
,
0010
0100
1000
0001
,
0100
0010
0100
0001
,
2000
0100
0010
0100
,
3001
0000
0000
0000
;

//---------------dance-single - ----------------
#NOTES:
     dance-single:
     :
     Beginner:
     2:
     0.091,0.171,0.058,0.000,0.000: // measure 1
0000
0000
0000
0000
,  // measure 2
0000
0000
0000
0000
,  // measure 3
0001
0000
0000
0000
,  // measure 4
0000
0000
0000
0000
,  // measure 5
1000
0000
0000
0000
,  // measure 6
0000
0000
0000
0000
,  // measure 7
0100
0000
0000
0000
,  // measure 8
0000
0000
0000
0000
,  // measure 9
0010
0000
0000
0000
,  // measure 10
0000
0000
0000
0000
,  // measure 11
1000
0000
0000
0000
,  // measure 12
1000
0000
0000
0000
,  // measure 13
0100
0000
0000
0000
,  // measure 14
0100
0000
0000
0000
,  // measure 15
0010
0000
0000
0000
,  // measure 16
0010
0000
0000
0000
,  // measure 17
0001
0000
0000
0000
,  // measure 18
0001
0000
0000
0000
,  // measure 19
1001
0000
0000
0000
,  // measure 20
1000
0000
0000
0000
,  // measure 21
0001
0000
0000
0000
,  // measure 22
0000
0000
0100
0100
,  // measure 23
0100
0000
0000
0000
,  // measure 24
0010
0000
0000
0000
,  // measure 25
1000
0000
0000
0000
,  // measure 26
0000
0000
0000
1001
,  // measure 27
0000
0000
0000
0110
,  // measure 28
0010
0000
0000
0000
,  // measure 29
0100
0000
0000
0000
,  // measure 30
0000
0000
0000
0000
,  // measure 31
1000
0000
0001
0001
,  // measure 32
1000
0000
0000
1001
,  // measure 33
0000
0000
0000
0000
,  // measure 34
0010
0000
0000
0000
,  // measure 35
0100
0000
0010
0010
,  // measure 36
0010
0000
0000
1001
,  // measure 37
0000
0000
0000
0000
,  // measure 38
0100
0000
0000
0000
,  // measure 39
1000
0000
1000
1000
,  // measure 40
0001
0000
0000
1001
,  // measure 41
0000
0000
0000
0000
,  // measure 42
0010
0000
0000
0000
,  // measure 43
0100
0000
0100
0100
,  // measure 44
0100
0000
0100
0000
,  // measure 45
1000
0000
0000
0000
,  // measure 46
0000
0000
0000
0000
,  // measure 47
0001
0000
0000
0000
,  // measure 48
0000
0000
0000
0000
,  // measure 49
0010
0000
0000
0000
,  // measure 50
0000
0000
0000
0000
,  // measure 51
0100
0000
0000
0000
,  // measure 52
0000
0000
0000
0000
,  // measure 53
1000
0000
0000
0000
,  // measure 54
0001
0000
0000
0000
,  // measure 55
0100
0000
0000
0000
,  // measure 56
0010
0000
0010
0000
,  // measure 57
0010
0000
0000
0000
,  // measure 58
0100
0000
0000
0000
,  // measure 59
1000
0000
0000
0000
,  // measure 60
0001
0000
0000
0000
;
