#TITLE:Look To The Sky;
#SUBTITLE:OMEGAFORCE vs. teranoid mix;
#ARTIST:teranoid & MC Natsack;
#TITLETRANSLIT:;
#SUBTITLETRANSLIT:;
#ARTISTTRANSLIT:;
#CREDIT:QooL;
#BANNER:bn.PNG;
#BACKGROUND:Look To The Sky-bg.png;
#LYRICSPATH:;
#CDTITLE:13 dd.png;
#MUSIC:Look to the Sky.mp3;
#OFFSET:-1.574;
#SAMPLESTART:48.968;
#SAMPLELENGTH:12.000;
#SELECTABLE:YES;
#BPMS:0.000=167.000,260.000=83.500,290.000=167.000;
#STOPS:;
#BGCHANGES:;

//---------------dance-single - ----------------
#NOTES:
     dance-single:
     :
     Hard:
     8:
     0.489,0.619,0.162,0.171,0.098:
0000
0000
0000
0000
,
1001
0000
0001
1000
0000
0001
0100
1000
,
0000
0000
0000
0000
,
0010
0000
0010
0100
0000
0010
1000
0001
,
0000
0000
0000
0000
,
0100
0000
0001
1000
0000
0001
0100
1000
,
0000
0000
0000
0000
,
0001
0000
1000
0001
0000
0100
0010
0100
,
0000
0000
0000
0000
,
1100
0000
0010
1000
0000
0001
0100
0001
,
0000
0000
0000
0000
,
0011
0000
0010
0100
0000
0001
1000
0010
,
0000
0000
0000
0000
,
1001
0000
0001
0100
0000
0010
1000
0001
,
0000
0000
0000
0000
,
1100
0000
0010
0100
0000
0001
1000
0010
,
1000
0100
1000
0000
0010
0000
0010
0100
0010
0000
1000
0001
0000
0010
1000
0000
,
0001
1000
0001
1000
0001
0100
0001
0100
,
0010
0100
0010
1000
0001
1000
0010
0001
,
0010
0100
1000
0100
0010
0001
0010
0100
,
0010
1000
0001
1000
0010
1000
0010
0000
,
1001
0000
0010
0100
0000
0010
1000
0001
,
0000
0000
0000
0000
,
1100
0000
0010
0001
0000
0010
0100
0001
,
0000
0000
0000
0000
,
0001
1000
0010
1000
0001
1000
0010
0100
,
0001
0010
0100
1000
0100
0010
0001
0010
,
0100
0010
1000
0001
1000
0010
1000
0001
,
0100
1000
0100
0010
0001
0010
0100
0000
,
0101
0000
0010
1000
0000
0010
1000
0001
,
0000
0000
1000
0000
0100
1000
0100
0000
,
0010
0000
0010
0100
0000
0010
1000
0010
,
0001
0001
1000
0001
2000
0000
3002
0000
,
0103
0001
0100
0000
0010
1000
0010
0000
,
0010
0100
0010
0000
0001
1000
0001
0000
,
1000
0100
0010
0001
0010
0100
0010
1000
,
0001
1000
0010
1000
0001
1000
0010
0000
,
0001
0100
0001
0000
1000
0100
1000
0000
,
0010
0100
0010
0000
0001
1000
0001
0000
,
2000
0000
0100
0000
0000
0000
3001
0100
,
0020
0000
0000
0030
,
0120
0000
0130
0000
1000
0100
1000
0000
,
0012
0000
0103
0000
0001
1000
0010
0000
,
0110
0000
0110
0000
0010
0100
0010
0000
,
1100
0000
0011
0000
0010
0100
0010
0000
,
2000
3100
0200
0310
,
0020
0031
0002
0013
,
0011
1100
0000
0110
,
2002
0000
0000
3003
,
0001
0000
0001
0100
0000
0010
1000
0010
,
1000
0001
1000
0010
2000
0000
3200
0000
,
1300
0000
0100
1000
0000
1000
0100
0010
,
0001
1000
0001
1000
0010
1000
0010
1000
,
0010
0000
0010
0100
0000
1000
0100
0001
,
0010
1000
0010
1000
0020
0000
2030
0000
,
3001
0000
0001
0100
0000
0010
1000
0001
,
0010
0001
0010
0100
1000
0100
0010
0001
,
0010
0000
0001
1000
0000
0010
0100
1000
,
0000
0000
0000
0000
,
1001
0000
0001
0100
0000
0010
1000
0010
,
0000
0000
0000
0000
,
1000
0000
0001
0100
0000
0010
1000
0002
,
1000
1000
1000
1003
,
0001
0000
0001
0100
0000
0010
1000
0010
,
1000
0000
0000
0000
0001
0000
0000
0000
0010
0000
0010
0100
0000
0010
1000
0000
,
0001
0000
0000
0000
0000
0000
0000
0000
1000
0000
0000
0100
0000
0000
1000
0100
,
0010
0000
0001
0010
0100
0000
0000
0000
0000
0000
0000
0000
0000
0001
0001
0010
,
0100
1000
0001
0000
0010
0100
0001
0000
0000
0000
0000
0000
0000
0000
0000
0000
,
2000
0000
0000
0000
0000
0000
0000
0000
0000
0000
3000
0000
0000
0010
0100
0010
,
1000
0000
0000
0000
0001
0000
0100
0000
0010
0000
0000
0000
0000
0000
0000
0000
0000
0000
0000
0000
0000
0000
0000
0000
0000
0000
0000
0000
0000
0000
1000
0001
,
1000
0000
1000
0001
1000
0000
1000
0001
1000
0000
0000
0000
0000
0000
0000
0000
0001
0000
0000
0000
0001
0000
0000
0000
1000
0000
0000
0000
0100
0000
0000
0000
,
0010
0000
0001
0000
0010
0000
0000
0000
0000
0000
0000
0000
0000
0000
0000
0002
,
0200
0000
0303
0000
;

//---------------dance-single - ----------------
#NOTES:
     dance-single:
     :
     Medium:
     5:
     0.368,0.433,0.094,0.384,0.000:
0000
0000
0000
0000
,
0001
0000
1000
0001
0000
0001
1000
0001
,
0000
0000
0000
0000
,
0010
0000
0010
0100
0000
0010
0100
0010
,
0000
0000
0000
0000
,
0001
0000
0001
0100
0000
0100
0001
0100
,
0000
0000
0000
0000
,
0010
0000
0010
1000
0000
1000
0010
1000
,
0000
0000
0000
0000
,
0001
0000
0001
0100
0000
0010
1000
0001
,
0000
0000
0000
0000
,
1000
0000
0100
1000
0000
0010
0001
0010
,
0000
0000
0000
0000
,
0010
0000
0010
0100
0000
0001
1000
0010
,
0000
0000
0000
0000
,
1000
0000
0100
0010
0000
0001
1000
0020
,
2000
0000
0000
3030
,
0102
0103
2100
3100
,
0120
0130
1002
1003
,
1001
1002
0000
2003
,
0000
0002
0000
3003
,
0101
0000
0010
1000
0000
0001
1000
0010
,
0000
0000
0000
0000
,
1000
0000
0100
1000
0000
0001
1000
0010
,
0000
0000
0000
0000
,
0002
0013
0020
0130
,
0200
1300
2000
3100
,
0020
0130
0002
1003
,
2000
3100
0020
0130
,
0001
0000
1000
0001
0000
0100
0001
0100
,
0000
0001
1000
0010
,
0100
0000
0010
0100
0000
0001
1000
0020
,
2000
0000
0000
3030
,
0002
1003
2000
3001
,
0200
0310
0020
0130
,
2000
3100
0020
0031
,
0200
0000
0310
0000
0001
1000
0001
0000
,
0002
0103
0020
0130
,
2000
3100
0020
1030
,
0001
0000
0002
0000
0000
0000
1003
0001
,
2000
0000
0000
3000
,
2000
3100
0020
0031
,
0200
0301
0020
0130
,
0010
0200
0000
0320
,
0000
2000
0000
0000
0000
0000
3030
0000
,
0001
0000
1100
0000
,
0011
0000
0110
0000
,
0001
0002
0000
1000
,
2000
0000
0000
3003
,
0001
0000
0100
0010
0000
0010
0100
0010
,
0100
0100
0010
0010
,
1000
0000
0001
1000
0000
0001
0100
0001
,
0100
0100
0010
0010
,
1000
0000
0001
0100
0000
0010
1000
0010
,
1000
1000
0002
0103
,
0010
0000
0010
0100
0000
0001
1000
0001
,
1000
0001
0100
0010
,
0000
1000
0000
0001
0000
1000
0000
0001
,
0000
1000
0000
0100
0000
0010
0000
0001
,
0000
0010
0000
0100
0000
1000
0000
0100
,
0000
0010
0000
0001
0000
1000
0000
0001
,
0000
0100
0000
0010
0000
1000
0000
0100
,
0000
0010
0000
0001
0000
0100
0000
1000
,
0000
0100
0000
0010
0000
0010
2000
0002
,
0000
0000
0000
3003
,
1001
0000
0000
0000
0001
0000
1000
0001
,
0100
0000
0100
0000
0000
0000
0000
0010
,
0100
0010
0000
0000
0000
0000
0000
0000
,
0000
0000
0000
0000
0000
0000
0000
0001
,
1000
0000
0000
0000
,
1000
0100
1000
0000
0010
0001
0010
0100
,
1000
0001
0100
0000
0000
0000
0000
0000
,
2000
0000
3000
0000
;

//---------------dance-single - ----------------
#NOTES:
     dance-single:
     :
     Easy:
     4:
     0.271,0.338,0.026,0.213,0.000:
0000
0000
0000
0000
,
0001
1000
0001
0100
,
0000
0000
0000
0000
,
0001
1000
0001
0100
,
0000
0000
0000
0000
,
0001
1000
0010
0100
,
0000
0000
0000
0000
,
0001
1000
0010
0100
,
0000
0000
0000
0000
,
0100
0010
1000
0001
,
0000
0000
0000
0000
,
0100
0010
1000
0001
,
0000
0000
0000
0000
,
0100
0010
1000
0001
,
0000
0000
0000
0000
,
0100
0010
1000
0001
,
2000
0000
0000
0000
,
3002
0103
2000
3100
,
0002
0103
1000
0100
,
0001
0002
0000
0000
,
0000
0000
0000
0003
,
1000
0001
0100
0010
,
0000
0000
0000
0000
,
1000
0001
0100
0010
,
0000
0000
0000
0000
,
0020
0000
0230
0000
,
0320
0000
2030
0000
,
0001
3002
0000
1003
,
0001
1000
0001
0100
,
0110
0010
0100
1000
,
0000
0001
1000
0100
,
0010
0001
0100
1000
,
0001
1000
0002
0203
,
0302
0000
1003
0000
,
2000
0000
3100
0000
,
0010
0001
0100
1000
,
0010
1000
0001
1000
,
0002
0000
0103
0000
,
0020
0000
0130
0000
,
1000
0000
1000
0000
0000
0000
0001
1000
,
0002
0000
0003
0000
,
0001
0001
1000
1000
,
0010
0010
0100
0100
,
0010
1000
0001
0100
,
1000
0100
0010
0001
,
2000
0000
3002
0000
,
0203
0000
0320
0000
,
1030
0001
0000
2000
,
0200
0000
0000
3300
,
0010
1000
0010
0100
,
0001
0001
1000
1000
,
0010
0100
1000
0100
,
0010
0010
0010
0010
,
0010
1000
0001
0100
,
0010
0100
1000
1001
,
0001
0100
1000
0100
,
0010
0010
0010
0010
,
1000
0001
0100
1000
,
0000
0000
0000
0000
,
0001
1000
0010
0100
,
0000
0000
0000
0000
,
0001
1000
0100
0010
,
0001
1000
0001
0100
,
0010
0100
1000
0100
,
0010
0001
0100
1000
,
2002
3003
0001
1000
,
0100
0100
0000
0000
,
0001
0001
0000
0000
,
0000
0000
0000
0000
,
1000
1000
0000
0000
,
0010
0010
0010
0000
0100
0000
0100
0000
,
0010
0000
0000
0000
,
1000
0000
0000
0000
;

//---------------dance-single - ----------------
#NOTES:
     dance-single:
     :
     Beginner:
     1:
     0.072,0.154,0.009,0.000,0.000: // measure 1
0000
0000
0000
0000
,  // measure 2
0100
0000
0000
0000
,  // measure 3
0000
0000
0000
0000
,  // measure 4
0100
0000
0000
0000
,  // measure 5
0000
0000
0000
0000
,  // measure 6
0100
0000
0000
0000
,  // measure 7
0000
0000
0000
0000
,  // measure 8
0100
0000
0000
0000
,  // measure 9
0000
0000
0000
0000
,  // measure 10
0010
0000
0000
0000
,  // measure 11
0000
0000
0000
0000
,  // measure 12
0010
0000
0000
0000
,  // measure 13
0000
0000
0000
0000
,  // measure 14
0010
0000
0000
0000
,  // measure 15
0000
0000
0000
0000
,  // measure 16
0010
0000
0000
0000
,  // measure 17
0000
0000
0000
0000
,  // measure 18
1000
0000
1000
0000
,  // measure 19
1000
0000
1000
0000
,  // measure 20
1000
0000
0000
0000
,  // measure 21
0000
0000
0000
0000
,  // measure 22
0100
0000
0000
0000
,  // measure 23
0000
0000
0000
0000
,  // measure 24
0010
0000
0000
0000
,  // measure 25
0000
0000
0000
0000
,  // measure 26
0001
0000
0001
0000
,  // measure 27
0001
0000
0001
0000
,  // measure 28
0001
0000
0000
0000
,  // measure 29
0000
0000
0000
0000
,  // measure 30
0100
0000
0000
0000
,  // measure 31
0000
0000
0000
0000
,  // measure 32
0010
0000
0000
0000
,  // measure 33
0000
0000
0000
0000
,  // measure 34
0100
0000
0100
0000
,  // measure 35
0100
0000
0100
0000
,  // measure 36
0100
0000
0000
0000
,  // measure 37
0000
0000
0000
0000
,  // measure 38
0010
0000
0010
0000
,  // measure 39
0010
0000
0010
0000
,  // measure 40
0010
0000
0000
0000
,  // measure 41
0000
0000
0000
0000
,  // measure 42
0001
0000
0001
0000
,  // measure 43
0001
0000
0001
0000
,  // measure 44
0001
0000
0000
0000
,  // measure 45
0000
0000
0000
0000
,  // measure 46
1000
0000
1000
0000
,  // measure 47
1000
0000
1000
0000
,  // measure 48
1000
0000
0000
0100
,  // measure 49
0100
0000
0000
0000
,  // measure 50
0001
0000
0000
0000
,  // measure 51
0000
0000
0000
0000
,  // measure 52
1000
0000
0000
0000
,  // measure 53
0000
0000
0000
0000
,  // measure 54
0010
0000
0000
0000
,  // measure 55
0000
0000
0000
0000
,  // measure 56
0100
0000
0000
0000
,  // measure 57
0000
0000
0000
0000
,  // measure 58
1000
0000
0000
0000
,  // measure 59
0000
0000
0000
0000
,  // measure 60
0001
0000
0000
0000
,  // measure 61
0000
0000
0000
0000
,  // measure 62
0100
0000
0000
0000
,  // measure 63
0000
0000
0000
0000
,  // measure 64
0010
0000
0000
0000
,  // measure 65
0000
0000
0000
0000
,  // measure 66
1001
0000
0000
0000
,  // measure 67
0000
0000
0000
0000
,  // measure 68
1000
0000
0000
0000
,  // measure 69
0000
0000
0000
0000
,  // measure 70
0001
0000
0000
0000
,  // measure 71
0100
0000
0000
0000
,  // measure 72
0010
0000
0000
0000
,  // measure 73
1000
0000
0000
0000
;
