#TITLE:Look To The Sky;
#SUBTITLE:(Cyber True Color Mix);
#ARTIST:System SF feat. Anna;
#TITLETRANSLIT:;
#SUBTITLETRANSLIT:;
#ARTISTTRANSLIT:;
#CREDIT:;
#BANNER:Look To The Sky (True Color Mix).png;
#BACKGROUND:Look To The Sky (True Color Mix)-bg.png;
#LYRICSPATH:;
#CDTITLE:Beatmania IIDX.png;
#MUSIC:BeatmaniaIIDX 13 - Look To The Sky (cyber True Color).mp3;
#OFFSET:-0.287;
#SAMPLESTART:34.980;
#SAMPLELENGTH:12.000;
#SELECTABLE:YES;
#BPMS:0.000=145.020,308.000=145.000;
#STOPS:;
#BGCHANGES:;

//---------------dance-single - ----------------
#NOTES:
     dance-single:
     :
     Challenge:
     7:
     0.486,0.505,0.404,0.511,0.152:
0000
0000
0000
0000
,
0000
0000
0000
0000
,
0000
0000
0000
0000
,
0000
0000
0000
0000
,
0000
0000
0000
0000
,
0000
0000
0000
0000
,
0000
0000
0000
0000
,
0000
0000
0000
0000
,
0000
0000
0000
0000
,
0000
0000
0010
0000
0100
0000
0000
1000
0000
0100
0000
0010
0000
0001
1000
0000
,
0000
0000
0010
0000
0100
0000
0000
0010
0000
1000
0000
0001
0000
0100
1000
0000
,
0000
0000
0010
0000
0100
0000
0000
0001
0000
1000
0000
0010
0000
0001
0100
0000
,
0000
0000
0010
0000
0001
0000
0000
1000
0000
0100
0000
1000
0000
0010
0100
0000
,
0020
0032
0023
0230
,
2300
3020
0230
2300
,
3020
0032
0023
0230
,
2300
3020
0230
0320
,
1030
0000
1100
0000
0010
1000
0001
0000
,
0100
0000
0110
0000
1000
0100
0010
0000
,
0011
0000
1100
0000
0010
1000
0010
0000
,
2002
0000
0000
3003
,
2100
3010
0012
0103
,
0021
0130
2100
3100
,
0110
1010
0012
1003
,
1000
0100
0020
0001
0000
2000
3030
0000
,
0001
0011
0100
0110
,
2100
0000
3010
0000
,
0001
0011
0100
1100
,
0010
1000
0001
0200
0000
2000
0000
3300
,
1020
0130
0012
0103
,
1020
0130
0012
0103
,
2020
3000
0130
0000
,
0001
0100
1000
0200
0000
2000
0000
3300
,
0010
0011
0100
0110
,
1000
1010
0100
0110
,
2200
0300
0020
3030
,
0001
1000
0100
0020
0000
2000
0000
3030
,
0010
1000
0010
0000
0001
0000
0011
0000
,
0001
0100
1000
0000
1000
0000
1010
0000
,
1000
0100
0010
0000
0001
0000
0110
0000
,
0001
0100
1000
0000
0010
0000
0110
0000
,
1000
0100
1000
0000
0010
0000
0011
0000
,
0001
0100
0010
0000
1000
0000
1001
0000
,
1010
0000
0202
0000
0300
0003
1000
0200
,
0020
0000
0000
0330
,
0001
1000
0010
0000
0001
0000
0011
0000
,
0001
0100
0010
0000
1000
0000
1010
0000
,
0100
1000
0010
0000
0001
0000
0011
0000
,
0001
0100
0010
0000
1000
0000
0110
0000
,
0100
1000
0010
0000
0010
0000
0011
0000
,
0100
1000
0010
0000
0001
0000
0101
0000
,
0110
2020
3030
0001
,
2002
0000
0000
3003
,
1000
0100
0010
0000
0001
0100
0010
1000
,
0010
0100
1000
0100
0010
0001
0010
0001
,
0010
0100
0001
0100
0001
1000
0010
0100
,
1000
0200
0000
0000
0310
2000
0000
0000
,
3001
0100
2000
0000
3100
1000
0010
0100
,
0001
0010
0001
0010
0100
0001
0100
0010
,
1000
0100
1000
0100
0010
0001
0010
0100
,
2000
0000
0000
0000
0000
0000
0000
0000
3100
0000
0000
0000
0010
0001
1000
0100
,
0010
0000
0000
0010
1000
0000
0000
0000
0001
0000
0000
0010
0100
0000
0000
0000
,
1000
0000
0000
0100
1000
0000
0000
0000
0010
0000
0000
0010
0100
0000
0000
0000
,
0001
0000
0000
0010
1000
0000
0000
0000
0100
0000
0000
1000
0100
0000
0000
0000
,
0010
0000
0000
0001
0010
0000
0000
0000
0001
0000
0000
0001
0100
0000
0000
0000
,
0010
0000
0000
0001
1000
0000
0000
0000
0010
0000
0000
0100
1000
0000
0000
0000
,
0010
0000
0000
0010
0100
0000
0000
0000
0001
0000
0000
0001
0010
0000
0000
0000
,
0100
0000
0000
1000
0100
0000
0000
0000
0010
0000
0000
0010
0100
0000
0000
0000
,
2002
0000
0000
0000
0000
0000
0000
0000
0000
3003
0000
0000
0000
0000
0000
0000
,
1000
0000
0000
0100
1000
0000
0000
0000
0010
0000
0000
0001
1000
0000
0000
0000
,
0010
0000
0000
0100
1000
0000
0000
0000
0010
0000
0000
0001
0010
0000
0000
0000
,
0100
0000
0000
0001
1000
0000
0000
0000
0010
0000
0000
0100
1000
0000
0000
0000
,
0010
0000
0000
0001
1000
0000
0000
0000
0010
0000
0000
0100
1000
0000
0000
0000
,
0022
0033
2200
3300
,
0220
0000
0000
0000
0000
0330
0000
0000
2020
0000
0000
0000
0000
3030
0000
0000
,
0101
0011
0000
1100
,
2020
0000
0000
3030
,
2000
0000
3010
0100
0002
0000
0000
0000
,
0003
0000
0000
0000
;

//---------------dance-single - ----------------
#NOTES:
     dance-single:
     :
     Hard:
     7:
     0.429,0.505,0.030,0.434,0.053:
0000
0000
0000
0000
,
0000
0000
0000
0000
,
0000
0000
0000
0000
,
0000
0000
0000
0000
,
0000
0000
0000
0000
,
0000
0000
0000
0000
,
0000
0000
0000
0000
,
0000
0000
0000
0000
,
0000
0000
0000
0000
,
1000
0000
0100
0000
0010
0000
0000
0001
0000
0100
0000
0001
0000
0001
0100
0000
,
0000
0000
0010
0000
0100
0000
0000
0010
0000
1000
0000
0001
0000
0001
1000
0000
,
0000
0000
0010
0000
1000
0000
0000
0001
0000
0100
0000
0001
0000
0001
0100
0000
,
0000
0010
0100
0000
1000
0001
0100
0000
,
2000
0100
0010
0001
,
0010
0100
0010
3001
,
0002
0100
0010
1000
,
0100
0010
1000
0103
,
0001
1000
0002
0000
0100
0000
0013
0000
,
0010
0100
0010
0000
1000
0000
0001
0100
,
0001
0010
1000
0010
,
2000
3100
0020
0031
,
2000
3100
0020
0031
,
0200
0301
0020
0130
,
2000
3002
0203
0310
,
0001
1000
0001
1000
0001
0100
0001
0000
,
0010
1000
0001
0000
0100
0000
1100
0000
,
1000
0100
0010
0001
0010
0000
0001
0000
,
0200
0310
0002
1003
,
1000
0100
1000
0000
0010
0001
0010
0000
,
0002
0103
2000
3010
,
0200
0310
2000
3100
,
2000
0000
3100
0000
,
1000
0100
0010
0002
0000
0013
0000
0000
,
0002
0103
2000
3010
,
0200
0000
1300
0000
0020
0000
0031
0100
,
0002
0103
0020
0130
,
1000
0001
1000
0010
1000
0001
1000
0000
,
1000
0100
1000
0000
0010
0000
0100
0000
,
0001
0100
0001
0100
0001
0000
1000
0000
,
0001
1000
0010
0000
1000
0000
0001
0000
,
0100
0001
1000
0000
0010
0000
0110
0000
,
1000
0100
1000
0000
0010
0000
0101
0000
,
0001
0010
0001
0000
0100
0000
0110
0000
,
2000
0000
3200
0000
0000
0000
0310
0002
,
2000
0000
0000
3003
,
0001
1000
0002
0000
0100
0000
0013
0000
,
0001
0100
0002
0000
0100
0000
0013
0000
,
0020
1030
0200
1300
,
1000
0100
1000
0000
0010
0000
0100
0000
,
2000
3100
0020
0031
,
0200
0301
0020
0130
,
2000
3100
0000
0020
,
0002
0000
0000
0033
,
1000
0001
1000
0000
0001
0100
0001
0000
,
0010
1000
0010
1000
0001
1000
0001
0000
,
1000
0100
1000
0000
0010
0001
0010
0000
,
0001
1000
0002
0000
0103
0001
0200
0000
,
0301
0100
0001
0000
0010
1000
0001
1000
,
0010
1000
0001
0010
0100
1000
0100
0010
,
0001
1000
0001
0000
0001
0100
0010
0000
,
0001
0000
1000
0000
0010
0000
0100
0000
0001
0000
1000
0000
0001
0100
0001
0100
,
0001
1000
0001
0000
0100
1000
0010
0000
,
0001
1000
0010
0000
0001
1000
0001
0000
,
2000
3100
0020
0031
,
0200
0310
0002
1003
,
1000
0100
1000
0000
0010
0001
0010
0000
,
0100
0001
0100
0000
0010
0100
0010
0000
,
1000
0000
0002
0000
0000
0000
0100
0100
,
0200
0000
0000
0303
,
0010
0100
0010
0000
0001
1000
0001
0000
,
1000
0100
1000
0000
0010
0001
0010
0000
,
0100
0001
0100
0000
0010
0100
0010
0000
,
1000
0100
1000
0000
0010
1000
0010
0000
,
2000
0000
3002
0000
,
0203
0000
0320
0000
,
1000
2030
0000
0001
,
0002
0000
0000
3003
,
0002
0000
0013
0100
2000
0000
0000
0000
,
3000
0000
0000
0000
;

//---------------dance-single - ----------------
#NOTES:
     dance-single:
     :
     Medium:
     5:
     0.315,0.381,0.000,0.457,0.000:
0000
0000
0000
0000
,
0000
0000
0000
0000
,
0000
0000
0000
0000
,
0000
0000
0000
0000
,
0000
0000
0000
0000
,
0000
0000
0000
0000
,
0000
0000
0000
0000
,
0000
0000
0000
0000
,
0000
0000
0000
0000
,
1000
0000
0100
0000
0001
0000
0100
0001
,
0010
0000
0100
0000
0010
0000
0100
0001
,
1000
0000
1000
0000
1000
0000
1000
0001
,
0100
0100
0100
0010
,
2000
3100
0002
0103
,
0020
0031
0020
0130
,
0200
1300
2000
3010
,
0200
0301
2000
3001
,
1000
0001
1000
0000
0100
0000
0010
0000
,
0001
0100
0001
0000
0100
0000
0001
0000
,
0010
0100
0010
0000
1000
0000
0010
0000
,
0002
0000
2003
0000
,
3002
0103
2000
3100
,
0020
0000
0031
0010
,
0100
1000
0100
1000
,
0001
1000
0001
1000
0000
0001
0000
0000
,
0002
0103
0020
1030
,
2000
0000
3100
0000
,
0020
0130
0002
1003
,
1000
0100
1000
0200
0000
1300
0000
0000
,
2000
0000
3001
0000
,
0200
0000
0310
0000
,
0002
0000
0013
0001
,
1000
0001
1000
0001
0000
1000
0000
0000
,
0200
1300
0020
0031
,
0200
0301
0020
1030
,
0002
0000
2000
3003
,
1000
0100
0010
0002
0000
0020
0000
0033
,
1000
0001
1000
0000
0001
0000
0100
0000
,
0010
1000
0010
0000
0100
0000
1000
0000
,
0100
1000
0100
0000
0010
0000
0001
0000
,
0100
0001
0100
0000
0001
0000
0100
0000
,
0010
0100
0010
0000
1000
0000
0001
0000
,
1000
0100
1000
0000
0010
0000
0001
0000
,
1000
0000
2000
0000
0000
0000
3001
0200
,
0020
0000
0000
0330
,
0002
0000
2003
0000
,
3002
0000
0203
0000
,
0010
0000
0320
0000
0000
0000
0000
0100
,
0100
0000
0000
0000
,
0230
0000
0320
0000
,
2030
0000
3002
0000
,
0100
0100
0000
0010
,
0020
0000
0000
0033
,
1000
0001
1000
0000
0100
0000
0010
0000
,
0001
0100
0001
0100
,
0010
1000
0010
0000
1000
0000
0001
0000
,
1000
0100
0000
0000
0010
0001
0000
0000
,
0100
0010
1000
0001
,
0100
0001
0100
0010
,
1000
0100
1000
0100
,
0010
0000
0001
0000
0100
0000
0001
0001
,
1000
0000
0002
0000
,
2003
0000
3002
0000
,
0100
0203
0000
0010
,
0000
0310
0000
0000
0000
0000
0000
0000
,
0020
0000
0130
0000
,
2000
0000
3001
0000
,
0001
0000
0002
0000
0000
0000
1003
0001
,
2000
0000
0000
3000
,
2000
0000
3100
0000
,
0020
0000
0031
0000
,
0200
0001
0000
0001
,
0002
0000
0000
0303
,
0020
0000
1030
0000
,
2000
0000
3100
0000
,
0020
0031
0000
0002
,
2000
0000
0000
0000
,
3003
0000
0000
0000
;

//---------------dance-single - ----------------
#NOTES:
     dance-single:
     :
     Easy:
     3:
     0.210,0.264,0.008,0.373,0.000:
0000
0000
0000
0000
,
0000
0000
0000
0000
,
0000
0000
0000
0000
,
0000
0000
0000
0000
,
0000
0000
0000
0000
,
0000
0000
0000
0000
,
0000
0000
0000
0000
,
0000
0000
0000
0000
,
0000
0000
0000
0000
,
1000
0100
0010
0001
,
0010
0001
0010
0100
,
1000
0001
0100
0010
,
1000
0001
0100
0010
,
2000
0000
0000
0000
,
0000
0000
3100
1000
,
0200
0000
0000
0020
0000
0000
0000
0000
,
0000
0000
0000
0330
,
0001
0000
1000
0000
,
0001
0010
0100
1000
,
0100
0000
0010
0000
,
2002
0000
0000
3003
,
0001
0000
1000
0000
,
0200
0000
0000
0000
,
0310
0000
0000
0010
,
0002
0000
2000
3003
,
2000
0000
0000
0000
,
0000
0000
0000
3000
,
0002
0000
0000
0013
,
0020
0000
0032
0000
,
1003
0000
1000
0000
,
0001
0000
0001
0000
,
0200
0000
0310
0000
,
1000
0001
0100
0010
,
1000
0000
0001
0000
,
0100
0000
0010
0000
,
2000
0000
3100
0000
,
0010
0001
0100
0010
,
2000
0000
3001
0000
,
0002
0000
1003
0000
,
0100
0200
0000
0000
,
0310
0000
0000
0000
,
0002
0000
1003
0000
,
2000
0000
3100
0000
,
0010
0020
0000
0001
,
0002
0000
0000
0033
,
0002
0000
1003
0000
,
2000
0000
3100
0000
,
0010
0020
0000
0000
,
0031
0000
0000
0000
,
0002
0003
0200
0300
,
0020
0030
2000
3000
,
0001
0002
0000
1000
,
2000
0000
0000
3003
,
1000
0000
0001
0000
,
0100
0010
1000
0001
,
0100
0000
0001
0000
,
0010
0000
1000
0000
,
0001
1000
0100
0010
,
0001
0010
0100
1000
,
0001
0000
1000
0000
,
0100
0000
0010
0000
,
0002
0000
0003
0000
,
2000
0000
3000
0000
,
0200
0000
0300
0000
,
0020
0000
0030
0000
,
2000
3000
0002
0003
,
0200
0300
0020
0030
,
1000
0000
1000
0000
0000
0000
0001
0100
,
0002
0000
0003
0000
,
2000
0000
3002
0000
,
0203
0000
0320
0000
,
1000
2030
0000
0001
,
0002
0000
0000
3003
,
0020
0000
0130
0000
,
0200
0000
0310
0000
,
1000
2000
0000
0001
,
0002
0000
0000
0000
,
3003
0000
0000
0000
;

//---------------dance-single - ----------------
#NOTES:
     dance-single:
     :
     Beginner:
     1:
     0.070,0.117,0.008,0.000,0.000: // measure 1
0000
0000
0000
0000
,  // measure 2
0000
0000
0000
0000
,  // measure 3
0000
0000
0000
0000
,  // measure 4
0000
0000
0000
0000
,  // measure 5
0000
0000
0000
0000
,  // measure 6
0000
0000
0000
0000
,  // measure 7
0000
0000
0000
0000
,  // measure 8
0000
0000
0000
0000
,  // measure 9
0000
0000
0000
0000
,  // measure 10
1000
0000
0000
0000
,  // measure 11
0000
0000
0000
0000
,  // measure 12
0001
0000
0000
0000
,  // measure 13
0000
0000
0000
0000
,  // measure 14
0010
0000
0000
0000
,  // measure 15
0000
0000
0000
0000
,  // measure 16
0100
0000
0000
0000
,  // measure 17
0000
0000
0000
0000
,  // measure 18
1000
0000
0000
0000
,  // measure 19
1000
0000
0000
0000
,  // measure 20
0001
0000
0000
0000
,  // measure 21
0000
0000
0000
0000
,  // measure 22
0010
0000
0000
0000
,  // measure 23
0000
0000
0000
0000
,  // measure 24
0001
0000
0000
0000
,  // measure 25
1000
0000
1000
0000
,  // measure 26
1000
0000
0000
0000
,  // measure 27
0000
0000
0000
0000
,  // measure 28
0100
0000
0000
0000
,  // measure 29
0010
0000
0010
0000
,  // measure 30
0010
0000
0000
0000
,  // measure 31
0000
0000
0000
0000
,  // measure 32
0001
0000
0000
0000
,  // measure 33
1000
0000
1000
0000
,  // measure 34
1000
0000
0000
0000
,  // measure 35
0000
0000
0000
0000
,  // measure 36
0001
0000
0000
0000
,  // measure 37
0100
0000
0000
0000
,  // measure 38
1000
0000
0000
0000
,  // measure 39
0001
0000
0000
0000
,  // measure 40
0100
0000
0000
0000
,  // measure 41
0010
0000
0000
0000
,  // measure 42
0100
0000
0000
0000
,  // measure 43
1000
0000
0000
0000
,  // measure 44
0001
0000
0000
0000
,  // measure 45
0000
0000
0000
0000
,  // measure 46
1000
0000
0000
0000
,  // measure 47
0001
0000
0000
0000
,  // measure 48
0100
0000
0000
0000
,  // measure 49
0000
0000
0000
0000
,  // measure 50
0010
0000
0000
0000
,  // measure 51
1000
0000
0000
0000
,  // measure 52
0001
0000
0000
0000
,  // measure 53
0100
0000
0000
0000
,  // measure 54
1000
0000
0000
0000
,  // measure 55
0001
0000
0000
0000
,  // measure 56
0001
0000
0000
0000
,  // measure 57
0100
0000
0100
0000
,  // measure 58
0100
0000
0000
0000
,  // measure 59
0010
0000
0000
0000
,  // measure 60
1000
0000
0000
0000
,  // measure 61
0001
0000
0000
0000
,  // measure 62
1000
0000
0000
0000
,  // measure 63
0001
0000
0000
0000
,  // measure 64
0100
0000
0000
0000
,  // measure 65
0010
0000
0000
0000
,  // measure 66
1000
0000
0000
0000
,  // measure 67
0001
0000
0000
0000
,  // measure 68
0100
0000
0000
0010
,  // measure 69
0010
0000
0000
0000
,  // measure 70
1000
0000
0000
0000
,  // measure 71
0001
0000
0000
0000
,  // measure 72
0100
0000
0000
0000
,  // measure 73
0000
0000
0000
0000
,  // measure 74
0010
0000
0000
0000
,  // measure 75
0100
0000
0000
0000
,  // measure 76
1000
0000
0000
0001
,  // measure 77
0001
0000
0000
0000
,  // measure 78
1001
0000
0000
0000
;
