#TITLE:Little Little Princess;
#SUBTITLE:;
#ARTIST:Shrine 418;
#TITLETRANSLIT:;
#SUBTITLETRANSLIT:;
#ARTISTTRANSLIT:;
#CREDIT:;
#BANNER:bn.PNG;
#BACKGROUND:bg.PNG;
#LYRICSPATH:;
#CDTITLE:12 happy.png;
#MUSIC:Little Little Princess.ogg;
#OFFSET:1.013;
#SAMPLESTART:51.062;
#SAMPLELENGTH:12.000;
#SELECTABLE:YES;
#BPMS:0.000=212.000,424.000=180.000;
#STOPS:;
#BGCHANGES:;

//---------------dance-single - ----------------
#NOTES:
     dance-single:
     :
     Hard:
     9:
     0.663,1.000,0.287,0.148,0.176:
0000
0000
0000
0000
,
0000
0000
0000
0000
,
0000
0000
0000
0000
,
0000
0000
0000
0000
,
0000
0000
0000
0000
,
1002
0000
0000
0000
0100
0000
0000
0020
,
0000
0000
0033
0000
,
2000
0000
0000
0000
0010
0000
0000
0200
,
0000
0000
0000
3300
,
0010
0000
0100
0000
0010
0100
0000
0010
,
0000
1000
0000
0001
0000
0001
1000
0000
,
1000
0000
0100
0000
0001
0100
0000
0010
,
0000
0100
0000
0010
0000
0010
1000
0000
,
0001
0000
1000
0000
0001
0100
0000
0010
,
0000
1000
0000
0010
0000
0010
0100
0000
,
1001
0000
1000
0000
0100
1000
0000
1100
,
0000
0011
0000
0010
0100
0000
0001
0000
,
0001
1000
0001
1000
0001
0000
0001
0100
,
0001
0100
0001
0000
0010
1000
0010
1000
,
0010
0100
0010
1000
,
0001
1000
0001
1000
0001
0000
1000
0100
,
1000
0100
1000
0000
1000
0100
0010
0001
,
0010
0100
0001
0000
0100
0000
0001
0000
,
0100
0010
0100
0010
,
1000
0010
0011
0100
,
1100
0010
0110
0001
,
1100
0010
0011
0010
,
0100
0000
0010
0100
0000
0100
0000
0010
,
0000
1000
0000
0010
1000
0000
0001
0100
,
0001
0100
0000
0010
0000
0010
0100
0000
,
0120
0100
0100
0100
,
0100
0000
0000
0130
0000
0000
0000
0000
,
1020
0000
0130
0000
,
0001
0000
0001
1000
0000
1000
0001
0000
,
0100
0010
0100
1000
,
0100
0000
0010
0000
0001
0000
0010
0001
,
0010
0000
0100
1000
0100
0000
0010
0000
,
0101
1010
0110
0110
,
0001
1000
0001
0000
1000
0100
1000
0000
,
0010
0100
0010
0000
0001
0100
0001
0000
,
1100
0000
0000
0011
0000
0000
0000
0000
,
0101
0000
0000
1010
0000
0000
0000
0000
,
0010
0110
1000
0100
,
0010
0001
0010
0100
,
0001
1000
0001
0000
0010
0100
0010
0000
,
1000
0100
0010
0001
0001
0010
0100
1000
,
0001
1000
0000
0001
0000
0100
0000
0010
,
0000
1000
0100
1000
0100
1000
0100
1000
,
0001
0100
0000
0010
0000
0100
0000
0001
,
0000
0001
0100
1000
0100
0001
0100
0010
,
2000
0000
0000
0010
,
3010
0000
0001
0000
,
1100
0000
0000
0010
,
0110
0110
0110
0110
,
0001
0200
0000
0001
0000
0001
0000
0002
,
0000
0000
0000
0000
0000
0303
0000
0000
,
1000
0200
0000
1000
0000
1000
0000
2000
,
0000
3300
0010
0100
,
0010
0100
0010
0000
1000
0100
1000
0000
,
0010
0001
0010
0000
0001
0100
0001
0000
,
0001
1000
0010
0000
0001
0100
0001
0000
,
1000
0010
1000
0000
0001
0100
0010
0000
,
1000
0100
0010
0000
0001
0010
0100
0000
,
0001
1000
0010
0100
0001
1000
0010
0000
,
0001
0100
0001
0100
0002
0000
0100
0000
,
0103
0000
0000
0000
1000
0100
1000
0100
,
2000
0100
3100
0000
,
0010
0100
0010
0100
0020
0000
0100
0000
,
0130
0000
0000
0000
0001
1000
0001
1000
,
0001
0000
0010
0100
0001
1000
0010
0000
,
1000
0100
1000
0100
2000
0000
0100
0000
,
3100
0000
0000
0000
0001
0100
0001
0100
,
1000
0010
0010
0000
,
0010
0100
0010
0100
0001
0000
1000
0000
,
1000
0000
0000
0000
0010
0100
0010
0100
,
0010
0000
0001
1000
0001
1000
0001
0000
,
1001
1001
0001
1000
,
0001
0000
0100
0000
0010
0100
0000
0010
,
0000
0010
0000
0010
0000
0000
0000
0000
,
1000
0100
0010
0001
0010
0100
0010
2000
,
0000
0000
0000
0200
0000
0000
3300
0000
,
0010
1000
0010
1000
0010
1000
0010
1000
0010
1000
0010
1000
,
0100
1000
0100
1000
0100
1000
0100
1000
0100
1000
0100
1000
,
0001
1000
0001
1000
0001
1000
0001
1000
0001
1000
0001
1000
,
0001
1000
0001
1000
0001
1000
0001
1000
0001
1000
0001
1000
,
0001
1000
0000
0010
0000
0100
0000
0010
,
0000
1000
0100
1000
0100
1000
0100
1000
,
0100
0001
0000
0010
0000
0001
0000
0010
,
0000
0010
0100
0010
0100
0010
1000
0000
,
1010
0010
0100
0010
,
0110
0010
0110
0010
,
1010
0010
0001
0010
,
0011
1100
0110
1001
,
0001
1000
0001
1000
0001
1000
0010
1000
,
0020
1000
1000
1030
,
1000
0100
0010
0001
0010
0100
0001
0100
,
0010
0000
1000
0000
0010
0001
1000
0000
,
0001
0100
0001
0000
1000
0010
1000
0000
,
1000
0100
1000
0000
0010
0100
0010
0000
,
0001
0100
0001
0000
1000
0100
1000
0000
,
0010
0100
0010
0000
0001
1000
0001
0000
,
0001
0100
0010
0100
1000
0100
1000
0100
,
0010
1000
0001
0100
1000
0010
0001
1000
,
0100
0000
0000
0000
0000
0000
1000
0000
0000
0000
0000
0100
0000
0000
0000
0000
,
0010
0000
0000
0000
0000
0001
0000
0000
0000
0000
0000
1000
0000
0000
0000
0000
,
0010
0000
0000
0000
0000
0000
0000
0000
0000
1000
0000
0000
0000
0000
0000
0001
0000
0000
0000
0000
0000
0000
1000
0000
0000
0000
0000
0000
0000
0000
0001
0000
0000
0000
0010
0000
0000
0000
0100
0000
0000
0000
1000
0000
0000
0000
0001
0000
,
0000
1000
0000
0000
0001
0000
0000
0000
0000
0000
0000
0000
0000
0000
0000
0000
0000
0000
0000
0000
0000
0000
0000
0000
;

//---------------dance-single - ----------------
#NOTES:
     dance-single:
     :
     Medium:
     7:
     0.484,0.783,0.303,0.246,0.016:
0000
0000
0000
0000
,
0000
0000
0000
0000
,
0000
0000
0000
0000
,
0000
0000
0000
0000
,
0000
0000
0000
0000
,
0002
0000
0000
0000
0100
0000
0000
0200
,
0000
0000
0000
0303
,
2000
0000
0000
0000
0100
0000
0000
0200
,
0000
0000
0000
3300
,
0020
0000
0000
0000
0100
0000
0000
0200
,
0000
0000
0000
0330
,
2000
0000
0000
0000
0100
0000
0000
0020
,
0000
0000
0000
3030
,
0002
0000
0000
0000
0100
0000
0000
0020
,
0000
0000
0000
0033
,
0002
0000
0000
0000
0100
0000
0000
0020
,
0000
0000
0000
0033
,
0000
0000
0000
0001
,
1000
0001
0200
0000
,
0000
0310
0000
0000
,
0010
0000
0000
0010
,
0100
0010
1000
0001
,
0100
0001
0001
0001
,
1001
0000
0000
0001
,
1000
0010
0110
0010
,
1000
0010
0100
0010
,
1000
0001
0100
0010
,
1000
0000
0010
0100
0000
0001
0000
1000
,
0000
0001
0000
0001
0100
0000
0010
1000
,
0010
1000
0000
0010
0000
0010
0100
0000
,
0110
0010
1010
0010
,
0200
0310
0000
0000
,
0001
0000
0100
0000
,
1000
0000
0010
0100
0000
0010
0100
0000
,
0001
1000
0001
0100
,
0010
1000
0010
0100
,
0001
0010
1000
0001
,
0101
0101
1100
1100
,
0010
0000
0000
0100
0000
0000
1000
0000
,
0100
0000
0000
0010
0000
0000
0001
0000
,
0011
0000
0000
0011
0000
0000
0000
0000
,
1100
0000
0000
1100
0000
0000
0000
0000
,
0010
0100
0100
0010
,
1000
0001
1000
0001
,
0100
0001
0010
1000
,
0010
1000
0010
0100
,
0010
0100
0000
0010
0000
0010
0000
0020
,
0000
0030
0000
0000
,
0001
0100
0000
0010
0000
1000
0000
0010
,
0000
0001
1000
0001
,
0200
0000
0000
0310
,
0010
0000
0110
0000
,
1001
0000
0000
1000
,
1100
1100
0101
0101
,
0010
0100
0000
0010
0000
0010
0000
0020
,
0000
0000
0000
0030
,
1000
0001
0000
1000
0000
0001
0000
0200
,
0000
0000
0010
0310
,
0010
1000
0010
0100
,
0001
0100
0001
0000
1000
0000
0001
1000
,
0001
0000
0100
0000
0010
0000
0010
1000
,
0010
0100
0001
1000
,
0001
1000
0010
0000
0001
0000
1000
0000
,
0001
1000
0100
0000
0001
0000
0010
0000
,
0001
0100
0020
0100
,
0130
0000
0001
1000
,
0200
1000
1300
0000
,
0010
1000
0002
0100
,
0103
0000
0010
1000
,
0001
0000
0001
0100
0010
0001
1000
0000
,
0001
1000
0002
0100
,
0100
0003
0000
0000
0001
0000
1000
0000
,
0020
0100
0130
0000
,
0010
0100
2000
0001
,
3001
0000
0010
1000
,
0001
0000
0001
0100
0010
1000
0001
0000
,
1000
0001
0100
0010
,
1000
0000
0001
0000
1000
0001
0000
0100
,
0000
0010
0000
0100
0000
0000
0000
0000
,
0010
1000
0010
0100
,
0020
0000
0000
0130
0000
0000
0000
0000
,
1001
1001
1001
1001
,
0101
0101
0101
0101
,
1100
1100
1100
1100
,
2200
0000
0000
3300
,
0010
0100
0000
0010
0000
0100
0000
0010
,
0000
0001
0100
0001
0100
0001
0100
0001
,
0100
0010
0000
1000
0000
0001
0000
1000
,
0000
0100
1000
0100
1000
0100
1000
0100
,
1000
0010
1000
0010
,
0110
0010
0110
0010
,
0110
0010
1000
0001
,
1001
1001
1001
0001
,
0001
1000
0000
0001
0000
0100
0000
0002
,
0000
0000
0000
0000
,
0103
0001
0000
0100
0000
0010
0000
2000
,
0000
0000
3010
0100
,
0010
0100
0010
0000
1000
0000
0001
0000
,
0100
0001
0100
0000
0010
0000
1000
0000
,
0010
0100
0010
0000
0001
0000
1000
0000
,
0100
1000
0100
0000
0010
0000
1000
0000
,
0001
0100
0000
0010
0000
1000
0010
0000
,
0001
0100
0000
1000
0000
0100
1000
0000
,
0000
0000
0000
0000
0000
0000
1000
0000
0000
0000
0000
0100
0000
0000
0000
0000
,
0010
0000
0000
0000
0000
0001
0000
0000
0000
0000
0000
1000
0000
0000
0000
0000
,
2000
0000
0000
0000
,
0000
0000
3001
0000
0000
0000
0000
0000
0000
0000
0000
0000
;

//---------------dance-single - ----------------
#NOTES:
     dance-single:
     :
     Easy:
     4:
     0.319,0.435,0.098,0.197,0.000:
0000
0000
0000
0000
,
0000
0000
0000
0000
,
0000
0000
0000
0000
,
0000
0000
0000
0000
,
0000
0000
0000
0000
,
0001
0000
0000
0000
,
0000
0000
0000
0000
,
1000
0000
0000
0000
,
0000
0000
0000
0000
,
0010
0100
0010
0100
,
0010
0000
0000
0000
,
1000
0001
0100
0010
,
1000
0000
0000
0000
,
0010
0100
1000
0001
,
1000
0000
0000
0000
,
0001
1000
0001
0100
,
0001
0000
0000
0000
,
0010
0000
0000
0010
,
0000
0000
0010
0000
,
0000
1000
0000
0000
,
0001
0000
0000
1000
,
0000
0000
0001
1000
,
0001
0100
0010
1000
,
1010
0000
0000
0010
,
0100
0010
0100
0000
,
0000
0010
1000
0001
,
1000
0000
0001
0000
,
0100
0000
0010
1000
,
0001
0000
1000
0000
,
0001
1000
0010
0000
,
0002
0000
2003
0000
,
0002
0000
3003
0000
,
0101
0000
0010
0000
,
0100
0010
0100
0000
,
0010
0000
1000
0001
,
1000
0010
1000
0100
,
0010
0000
0100
0000
,
0001
0001
1000
1000
,
0001
0000
1000
0000
,
0001
0000
0100
0000
,
0110
0000
0000
0000
,
1010
0000
0000
0000
,
0101
0001
0100
0010
,
1000
0010
0100
0010
,
1000
0001
0010
0100
,
1000
0100
0010
0001
,
1000
0000
0000
0001
0000
0001
0000
0001
,
0000
0000
0000
0000
,
0110
0000
0000
0010
0000
0010
0000
0010
,
0000
0000
0010
0100
,
0010
0000
0000
1000
,
1100
0000
0010
0000
,
0011
0000
0000
0001
,
1000
0010
0100
0010
,
0001
0000
0000
1000
0000
1000
0000
2000
,
0000
0000
3000
0000
,
0001
0000
0000
0001
0000
0001
0000
0002
,
0000
0000
0000
0003
0000
0000
0000
0000
,
0001
0100
0010
1000
,
0010
0100
0010
1000
,
1001
0010
0001
0010
,
0100
1000
0100
0010
,
0001
0001
1000
1000
,
0010
0010
0100
0100
,
0020
0000
0000
0000
,
0030
0000
0200
0000
,
0000
0000
0300
0000
,
0002
0000
0000
0000
,
0003
0000
2000
0000
,
0000
0200
0000
3300
,
0020
0000
0000
0000
,
0030
0000
0200
0000
,
0000
0000
0300
0000
,
0002
0000
0000
0000
,
0003
0000
2000
0000
,
0000
0200
0000
3300
,
0000
0000
0000
0000
,
0001
1000
0001
0100
,
0001
0100
0001
0000
,
0010
0100
0010
1000
,
0002
0000
0003
0000
,
2000
0000
0000
0000
,
3002
0000
0000
0000
,
0203
0000
0000
0000
,
0020
0000
0000
0330
,
0010
0100
0010
1000
,
0001
0000
0000
0000
,
1000
0001
0000
1000
0000
0001
0000
0100
,
0000
0000
0010
1000
,
1010
0000
0000
0010
,
0110
0000
0010
0000
,
0110
0000
0000
0010
,
1000
0001
0100
0010
,
0001
1000
0000
0001
0000
0100
0000
0020
,
0000
0000
0030
0000
,
0010
0100
0000
0010
0000
1000
0000
0001
,
0000
0000
1000
0100
,
1000
1000
0001
0001
,
0100
0100
0010
0010
,
1000
0001
1000
0001
,
0100
0010
0100
0010
,
1000
0010
0000
0100
0000
0001
0100
0000
,
1000
0100
0000
0010
0000
0001
0010
0000
,
0002
0000
0000
0000
,
2000
0003
0000
0000
0000
0000
0000
0000
,
0020
0000
0000
0000
,
0000
3030
0000
0000
0000
0000
0000
0000
;

//---------------dance-single - ----------------
#NOTES:
     dance-single:
     :
     Beginner:
     2:
     0.117,0.252,0.066,0.000,0.000: // measure 1
0000
0000
0000
0000
,  // measure 2
0000
0000
0000
0000
,  // measure 3
0000
0000
0000
0000
,  // measure 4
0000
0000
0000
0000
,  // measure 5
0000
0000
0000
0000
,  // measure 6
0000
0000
0000
0000
,  // measure 7
0000
0000
0000
0000
,  // measure 8
0000
0000
0000
0000
,  // measure 9
0000
0000
0000
0000
,  // measure 10
0001
0000
0000
0000
,  // measure 11
0000
0000
0000
0000
,  // measure 12
1000
0000
0000
0000
,  // measure 13
0000
0000
0000
0000
,  // measure 14
0100
0000
0000
0000
,  // measure 15
0000
0000
0000
0000
,  // measure 16
0010
0000
0000
0000
,  // measure 17
0000
0000
0000
0000
,  // measure 18
1000
0000
0000
0000
,  // measure 19
0000
0000
1000
0000
,  // measure 20
0000
0000
0000
0000
,  // measure 21
0001
0000
0000
0000
,  // measure 22
0000
0000
0001
0000
,  // measure 23
0000
0001
0000
0000
,  // measure 24
0001
0000
0000
0000
,  // measure 25
0000
0000
0100
0000
,  // measure 26
0000
0000
0100
0000
,  // measure 27
0100
0000
0000
0000
,  // measure 28
0010
0000
0000
0000
,  // measure 29
1000
0000
0000
0000
,  // measure 30
0001
0000
0000
0000
,  // measure 31
1000
0000
1000
0000
,  // measure 32
1000
0000
0000
0000
,  // measure 33
0010
0000
0000
0000
,  // measure 34
0010
0000
0000
0000
,  // measure 35
0100
0000
0000
0000
,  // measure 36
0100
0000
0000
0000
,  // measure 37
0100
0000
0000
0000
,  // measure 38
0001
0000
1000
0000
,  // measure 39
1001
0000
0000
0000
,  // measure 40
0010
0000
0000
0000
,  // measure 41
0100
0000
0000
0000
,  // measure 42
0100
0000
0000
0000
,  // measure 43
1000
0000
0000
0000
,  // measure 44
0001
0000
0000
0000
,  // measure 45
1000
0000
0001
0000
,  // measure 46
1000
0000
0001
0000
,  // measure 47
1001
0000
0000
0000
,  // measure 48
0000
0000
0000
0000
,  // measure 49
0110
0000
0000
0000
,  // measure 50
0000
0000
0000
0000
,  // measure 51
0010
0000
0000
0000
,  // measure 52
1000
0000
0001
0000
,  // measure 53
1000
0000
0000
0000
,  // measure 54
0010
0010
0010
0000
,  // measure 55
0110
0000
0000
0000
,  // measure 56
0000
0000
0000
0000
,  // measure 57
1001
0000
0000
0000
,  // measure 58
0000
0000
0000
0000
,  // measure 59
1000
0000
0000
0000
,  // measure 60
1000
0000
0000
0000
,  // measure 61
0001
0000
0000
0000
,  // measure 62
0001
0000
0000
0000
,  // measure 63
0010
0000
0000
0000
,  // measure 64
0100
0000
0000
0000
,  // measure 65
0010
0000
0000
0000
,  // measure 66
0000
0000
0010
0000
,  // measure 67
0000
0000
0000
0000
,  // measure 68
0010
0000
0000
0000
,  // measure 69
0000
0000
0010
0000
,  // measure 70
0000
0010
0000
0000
,  // measure 71
0010
0000
0000
0000
,  // measure 72
0000
0000
0100
0000
,  // measure 73
0000
0000
0000
0000
,  // measure 74
1000
0000
0000
0000
,  // measure 75
0000
0000
0001
0000
,  // measure 76
0000
1000
0000
0000
,  // measure 77
0001
0000
0000
0000
,  // measure 78
1000
0000
0000
0000
,  // measure 79
0000
0000
0000
0000
,  // measure 80
0001
0000
0000
0000
,  // measure 81
0000
0000
0000
0000
,  // measure 82
0100
0000
0000
0000
,  // measure 83
0100
0000
0000
0000
,  // measure 84
0010
0000
0000
0000
,  // measure 85
0010
0000
0000
0000
,  // measure 86
0010
0000
0000
0000
,  // measure 87
0000
0000
0000
0000
,  // measure 88
1000
0000
0000
0000
,  // measure 89
0000
0000
0000
0000
,  // measure 90
0001
0000
0000
0000
,  // measure 91
1000
0000
1000
0000
,  // measure 92
1001
0000
0000
0000
,  // measure 93
0010
0000
0010
0000
,  // measure 94
0110
0000
0000
0000
,  // measure 95
0000
0000
0000
0000
,  // measure 96
1001
0000
0000
0000
,  // measure 97
0000
0000
0000
0000
,  // measure 98
0001
0000
0001
0000
,  // measure 99
1000
0000
1000
0000
,  // measure 100
0010
0000
0010
0000
,  // measure 101
0100
0000
0100
0000
,  // measure 102
1000
0000
0001
0000
,  // measure 103
0100
0000
0010
0000
;
