#TITLE:Lion Suki;
#SUBTITLE:;
#ARTIST:Akira Yamaoka;
#TITLETRANSLIT:;
#SUBTITLETRANSLIT:;
#ARTISTTRANSLIT:;
#CREDIT:;
#BANNER:bn.PNG;
#BACKGROUND:bg.PNG;
#LYRICSPATH:;
#CDTITLE:;
#MUSIC:LION SUKI.mp3;
#OFFSET:-3.700;
#SAMPLESTART:63.036;
#SAMPLELENGTH:12.000;
#SELECTABLE:YES;
#BPMS:0.000=146.000;
#STOPS:;
#BGCHANGES:;

//---------------dance-single - ----------------
#NOTES:
     dance-single:
     :
     Hard:
     7:
     0.459,0.515,0.380,0.515,0.017:
0011
2200
0000
3300
,
0110
2002
0000
3003
,
0101
2200
0000
3300
,
1010
0220
0000
0330
,
0001
0100
0000
1000
0001
1000
0010
1000
,
0000
0000
0001
0100
0000
0010
0000
0010
,
0200
0020
0000
0330
,
1100
0022
0000
0033
,
0002
0000
1003
0000
2000
0000
3001
1000
,
0002
0000
0100
0000
0100
0000
0013
0001
,
0010
2200
0000
3300
,
0110
2002
0000
3003
,
0001
0000
0001
1000
0010
0000
1000
0000
,
0200
1000
0010
0301
,
1001
0000
0001
0100
0001
0000
0001
0010
,
0002
0010
0100
1003
,
0001
1000
0010
0000
0001
1000
0010
0200
,
0000
0000
0300
0000
0000
0010
1000
0001
,
0200
0002
0000
0303
,
2000
0200
0000
3300
,
0110
0000
0001
1000
0010
0000
1100
0000
,
1000
0000
0100
1000
0100
0000
1000
0100
,
0020
0000
0000
0001
,
0200
0000
0000
0000
0330
0000
0001
1000
,
0001
0000
0100
0001
0100
0000
0011
0000
,
0001
0000
0001
0100
1000
0000
0010
1000
,
0002
0000
0000
1000
,
2000
0000
0000
3003
,
0002
0000
2003
0000
,
3002
0000
2000
3003
,
0000
0000
0001
0101
0000
0000
1000
1100
,
0000
0000
0010
0110
0000
0000
0001
1001
,
2002
0000
0000
3000
2000
0000
3000
0000
,
2000
3000
2000
3003
,
0000
0000
0010
0011
0000
0000
0100
0110
,
0000
0000
0001
1001
0000
0000
0100
1000
,
0100
1000
0100
0010
0001
0010
0100
0000
,
0001
1000
0010
1000
0001
1000
0010
0000
,
0001
0100
0001
1000
0010
1000
0001
1001
,
0000
0000
1000
1100
0000
0000
0010
0011
,
0002
0000
0100
0000
0100
0000
0100
0100
,
0203
0000
0001
0000
0001
0000
0001
0001
,
0302
0000
1000
0000
0100
0000
1003
1100
,
0000
0000
0010
0011
0000
0000
0010
0100
,
0120
0130
2100
3001
,
0102
0000
0103
0000
0001
0010
0100
1000
,
1200
0310
0102
0103
,
1002
0000
0103
0000
0010
1000
0001
0100
,
2000
0000
3100
0000
0010
1000
0001
0200
,
0000
0000
0300
0000
0000
0010
1000
0001
,
0200
0020
0000
0330
,
0002
0000
0000
0000
1000
0000
0000
0000
1003
0100
1000
0100
1000
0100
1000
0100
,
1000
0000
0100
0010
0100
0000
1001
0000
,
0001
0000
0010
1000
0010
0000
0001
0010
,
0200
0000
0000
1000
,
0020
0000
0000
0000
0330
0000
0001
1000
,
0010
0000
0001
1000
0020
0000
0130
0000
,
0001
0000
0001
1000
0001
0000
0010
1000
,
0002
0000
0000
1000
,
1003
0000
1001
0000
1001
1000
1001
0001
,
1001
0000
0001
1000
0001
0000
0101
0000
,
1010
0000
0010
0100
0010
0000
1000
0100
,
0002
0000
0000
0010
,
0200
0000
0000
0000
0303
0000
0001
1000
,
0010
0000
0100
0010
1000
0000
1100
0000
,
1100
0000
1000
0100
1000
0000
0010
0100
,
0002
0000
0000
0010
,
2000
0000
0000
3003
;

//---------------dance-single - ----------------
#NOTES:
     dance-single:
     :
     Medium:
     5:
     0.385,0.457,0.169,0.498,0.000:
0002
0200
0000
0303
,
2000
0200
0000
3300
,
0002
2000
0000
3003
,
0200
0020
0000
0330
,
0001
1000
0001
1000
,
0001
0000
0100
0000
0010
0000
1000
0001
,
2000
0002
0000
3003
,
0002
0200
0000
0303
,
0100
0000
0100
0000
0010
0000
0010
1000
,
0001
0000
0001
0000
0001
0000
0001
0100
,
2000
0020
0000
3030
,
0002
0200
0000
0303
,
1002
1003
2000
3100
,
0010
0001
0020
0000
0001
0000
0130
0000
,
0002
1003
0200
1300
,
0010
1000
0020
0000
0100
0000
0130
0000
,
2000
3001
0200
0310
,
0002
1003
0002
0103
,
0002
0200
0000
0303
,
0020
2000
0000
3030
,
0001
0000
1000
0001
1000
0000
0000
0000
,
0100
0000
1000
0100
1000
0000
0001
1000
,
0002
0000
0000
0100
,
0020
0000
0033
0001
,
0101
0000
0001
1000
0001
0000
0100
0000
,
1000
0000
0100
1000
0100
0000
0010
1000
,
0020
0000
0000
1000
,
2000
0000
0000
3030
,
0002
0000
2003
0000
,
3002
0000
0200
0303
,
0000
0000
0001
0001
0000
0000
1000
1000
,
0000
0000
0010
0010
0000
0000
0100
0100
,
0020
0000
2030
0000
,
3002
0000
0203
0000
,
0310
0000
0001
1000
0000
0000
0001
1000
,
0000
0000
0100
0010
0000
0000
0010
0100
,
0010
0010
1000
1000
,
0001
1000
0001
0100
,
0010
0000
1000
0000
0001
0000
0100
1000
,
0000
0000
0010
0001
0000
0000
0100
0001
,
0100
0100
0010
0010
,
1000
0001
0100
0010
,
1000
0000
0100
0000
0010
0000
0001
0010
,
0000
0000
0100
1000
0000
0000
0010
0100
,
0110
0010
0110
0100
,
1100
0000
0010
0000
0001
0100
0001
0000
,
0101
0010
0011
0100
,
1100
0000
0010
0000
0010
0100
0010
0000
,
2000
0000
3001
0000
0200
0000
0310
2000
,
0000
0000
3000
0000
0000
0001
1000
0001
,
0200
0002
0000
0300
,
1000
0020
0000
0033
,
0011
0000
1000
0100
2000
0000
3100
0000
,
0101
0000
0010
0100
0020
0000
0130
0000
,
2002
0000
3000
1000
,
2000
0000
3003
0010
,
0100
0000
1000
0100
1000
0000
1100
0000
,
0010
0000
0100
0010
0100
0000
0001
0000
,
0022
0000
0000
0000
0000
0030
0013
0000
,
0011
1100
0011
1100
,
1001
0000
0001
1000
0001
0000
0100
0000
,
1100
0000
0010
1000
0010
0000
1000
0100
,
0020
0000
0000
0001
,
0002
0000
0033
0001
,
0110
0000
0010
0100
0010
0000
1000
0000
,
0001
0000
1000
0100
1000
0000
0010
0000
,
2000
0000
0000
0010
,
0002
0000
0000
3003
;

//---------------dance-single - ----------------
#NOTES:
     dance-single:
     :
     Easy:
     3:
     0.259,0.286,0.160,0.338,0.000:
0001
0002
0000
0003
,
1000
2000
0000
3000
,
0100
0200
0000
0300
,
0010
0020
0000
0030
,
1000
0001
0100
0001
,
1000
0001
0010
0100
,
1000
2000
0000
3000
,
0001
0002
0000
0003
,
1000
0001
0100
0010
,
0000
0000
0000
0010
,
0100
0200
0000
0300
,
0001
0002
0000
0003
,
1000
0000
0001
0000
,
0100
0100
0100
0000
,
0001
0000
1000
0000
,
0010
1000
0001
0000
,
1000
0001
0010
0100
,
0000
0000
0000
1000
,
0001
0002
0000
0000
,
1000
2000
0000
3003
,
0001
1000
1001
0000
,
0100
1000
1100
0000
,
2000
0000
0000
0000
,
0002
0000
3003
0000
,
0001
0100
0101
0000
,
0010
0001
0011
0000
,
2000
0000
0000
0100
,
0200
0000
0000
3300
,
0202
0000
0000
0000
,
0000
0000
0303
0000
,
0000
1000
0000
0001
,
0000
0100
0000
0010
,
2002
0000
0000
0000
,
0000
0000
3003
0000
,
0000
0001
0000
1000
,
0000
0100
0000
0010
,
1000
0001
1000
0001
,
1000
0001
1000
0001
,
1000
0001
1000
0101
,
0000
1100
0000
0011
,
0001
0001
0001
0001
,
1000
1000
1000
1000
,
0010
0100
0010
1100
,
0000
0011
0000
0100
,
0002
0003
2000
3000
,
0020
0030
0200
0300
,
0020
0030
2000
3000
,
0002
0003
2000
3000
,
0200
0300
0020
0030
,
0002
0003
2000
3000
,
0002
1000
0000
0000
,
1000
2000
0000
3003
,
0001
0100
0101
0000
,
1000
0100
1100
0000
,
0002
0000
0000
0000
,
0200
0000
0303
0000
,
0010
0001
0011
0000
,
0010
1000
1010
0000
,
0002
0000
0000
1000
,
1000
1000
1000
1003
,
0001
1000
0101
0000
,
0010
1000
0101
0000
,
0002
0000
0000
0000
,
0020
0000
0033
0000
,
0010
0100
1001
0000
,
0001
1000
0110
0000
,
0020
0000
0000
2030
,
0002
0000
0000
3003
;

//---------------dance-single - ----------------
#NOTES:
     dance-single:
     :
     Beginner:
     1:
     0.074,0.141,0.008,0.000,0.000: // measure 1
0000
1000
0000
0000
,  // measure 2
0000
1000
0000
0000
,  // measure 3
0000
0001
0000
0000
,  // measure 4
0000
0001
0000
0000
,  // measure 5
0100
0000
0000
0000
,  // measure 6
0000
0000
0000
0000
,  // measure 7
0010
0000
0000
0000
,  // measure 8
0010
0000
0000
0000
,  // measure 9
0100
0000
0000
0000
,  // measure 10
0000
0000
0000
0000
,  // measure 11
0001
0000
0000
0000
,  // measure 12
1000
0000
0000
0000
,  // measure 13
0100
0000
0000
0000
,  // measure 14
0000
0000
0000
0000
,  // measure 15
0010
0000
0000
0000
,  // measure 16
0000
0000
0000
0000
,  // measure 17
1000
0000
0000
0000
,  // measure 18
0000
0000
0000
0000
,  // measure 19
0001
0000
0000
0000
,  // measure 20
1000
0000
0000
0000
,  // measure 21
0100
0000
0000
0000
,  // measure 22
0100
0000
0000
0000
,  // measure 23
0010
0000
0000
0000
,  // measure 24
0000
0000
0000
0000
,  // measure 25
0001
0000
0000
0000
,  // measure 26
0001
0000
0000
0000
,  // measure 27
1000
0000
0000
0000
,  // measure 28
0000
0000
0000
0000
,  // measure 29
0100
0000
0000
0000
,  // measure 30
0000
0000
0000
0000
,  // measure 31
0000
0010
0000
0010
,  // measure 32
0000
0010
0000
0010
,  // measure 33
0000
0000
0000
0000
,  // measure 34
0000
0000
0000
0000
,  // measure 35
0000
0100
0000
0100
,  // measure 36
0000
0100
0000
0100
,  // measure 37
1000
0000
0000
0000
,  // measure 38
0001
0000
0000
0000
,  // measure 39
0000
0000
0000
0000
,  // measure 40
0000
0001
0000
0000
,  // measure 41
1000
0000
0000
0000
,  // measure 42
0100
0000
0000
0000
,  // measure 43
0000
0000
0000
0001
,  // measure 44
0000
1000
0000
0001
,  // measure 45
1001
0000
0000
0000
,  // measure 46
0001
0000
0000
0000
,  // measure 47
1000
0000
0000
0000
,  // measure 48
0010
0000
0000
0000
,  // measure 49
0100
0000
0000
0000
,  // measure 50
0000
0000
0000
0000
,  // measure 51
1000
0000
0000
0000
,  // measure 52
0001
0000
0000
0000
,  // measure 53
0100
0000
0000
0000
,  // measure 54
0100
0000
0000
0000
,  // measure 55
0010
0000
0000
0000
,  // measure 56
0000
0000
0000
0000
,  // measure 57
0001
0000
0000
0000
,  // measure 58
1000
0000
0000
0000
,  // measure 59
0100
0000
0000
0000
,  // measure 60
1000
0000
1000
0000
,  // measure 61
0001
0000
0000
0000
,  // measure 62
0100
0000
0000
0000
,  // measure 63
0010
0000
0000
0000
,  // measure 64
0000
0000
0000
0000
,  // measure 65
1000
0000
0000
0000
,  // measure 66
0001
0000
0000
0000
,  // measure 67
0100
0000
0000
0000
,  // measure 68
1000
0000
0000
0000
;
