#TITLE:Lighter Than Air;
#SUBTITLE:(DDR Anthem);
#ARTIST:Darwin & Ant Johnston;
#TITLETRANSLIT:;
#SUBTITLETRANSLIT:;
#ARTISTTRANSLIT:;
#CREDIT:;
#BANNER:bn.png;
#BACKGROUND:bg.png;
#LYRICSPATH:;
#CDTITLE:;
#MUSIC:Lighter Than Air (DDR Anthem).mp3;
#OFFSET:-0.020;
#SAMPLESTART:65.820;
#SAMPLELENGTH:12.000;
#SELECTABLE:YES;
#BPMS:0.000=87.500,48.000=175.000,241.000=87.500,256.500=175.000;
#STOPS:;
#BGCHANGES:;

//---------------dance-single - ----------------
#NOTES:
     dance-single:
     :
     Hard:
     8:
     0.443,0.605,0.334,0.103,0.094:
0000
0000
0000
0000
,
0000
0000
0000
0000
,
0000
0000
0000
0000
,
0000
0000
0000
0000
,
0000
0000
1000
0000
0001
0100
0001
0000
0100
0000
0010
0000
0010
1000
0001
0000
,
0000
0000
1000
0000
0001
0100
0010
0000
0100
0000
0110
0000
0010
1000
0001
0100
,
0001
0000
1100
0000
1000
0001
0100
0000
0000
0000
0010
0000
0010
1000
0001
0100
,
0001
0000
0012
0000
0000
0000
0013
0000
1000
0100
1000
0000
0001
0000
1001
0000
,
0000
0000
0001
0000
0000
0100
0000
0000
0010
0000
0000
1000
0000
0000
1100
0000
,
0010
0000
0011
0000
0000
0001
0000
0000
0100
0000
0000
0010
0000
0000
0110
0000
,
0001
0000
1001
0000
0000
1000
0000
0000
0001
0000
0000
0100
0000
0000
0010
0000
,
0100
0000
0110
0000
0000
0010
0000
0000
0100
0000
0000
0010
0000
0000
1000
0000
,
0010
1000
1000
1000
,
1000
0001
0001
0001
,
0001
0100
0100
0100
,
0100
0010
0010
0010
,
0010
0001
1000
0001
,
0100
0010
1000
0100
,
1000
0001
0010
0001
,
0100
0010
1000
0001
,
0100
0000
0010
1000
0001
1000
0000
0001
,
0000
1000
0000
0001
0000
0100
0000
0001
,
0010
0001
0100
0010
1000
0100
0000
1000
,
0000
0100
0000
1000
0000
0001
0000
0001
,
1000
0001
0101
0000
0001
0000
0100
0000
,
0010
1000
1010
0000
1000
0000
0001
0000
,
0001
0100
0101
0000
0001
1000
1100
0000
,
1000
0001
0020
0000
0000
0000
0000
0000
,
0130
0000
1001
0000
1000
0100
0000
0001
,
0010
0000
0011
0000
0001
0100
0010
0000
,
0010
1000
0001
0000
1000
0100
0000
0001
,
0000
0100
0000
0010
0000
0010
1000
0000
,
1001
0000
0110
0000
0010
1000
0001
0000
,
1000
0100
1000
0000
0001
0100
0010
0000
,
0010
1000
0001
1000
0001
0010
0001
0100
,
0010
1000
0100
0010
0100
1000
0001
0100
,
0010
0000
0110
0000
1000
1100
0000
0001
,
0101
2002
0000
3003
,
1000
0001
0100
0000
0001
0101
0000
1100
,
0000
1001
0000
0110
0000
0010
0100
0000
,
1000
0001
0100
0010
1000
0001
0000
1000
,
0000
0001
0000
0100
0000
0100
0000
0010
,
1000
0001
0100
0001
0010
0001
0000
0100
,
0000
0010
0000
1000
0000
0001
0000
1000
,
0001
0100
0001
0010
0001
0000
0011
0000
,
2000
0200
0000
0000
0000
0000
3300
0000
,
0000
1000
1001
0000
0000
0101
0000
1100
,
0000
2002
0000
0000
0000
0000
0000
3003
,
0000
0101
0110
1001
,
1000
0100
1000
0000
0001
0100
0010
0000
,
1000
0011
1100
1001
,
0020
2000
0000
0000
0000
0000
0000
0000
,
3030
0000
1000
0000
0001
0100
0000
0010
,
0100
0000
0010
1000
0000
1000
0100
0000
,
1100
0000
1001
0000
0001
0100
0000
0010
,
0100
0000
0010
1000
0000
1000
0100
0000
,
0011
0000
0001
1000
0001
1000
0001
1000
,
0001
1000
0100
1000
0100
1000
0100
1000
,
0100
1000
0010
1000
0010
1000
0010
1000
,
0010
1000
0100
0010
0100
1000
0001
0100
,
0001
0010
0200
0000
0000
0000
0000
0000
,
0000
0000
0000
0300
,
0000
0000
0000
0000
1000
0000
0000
0001
0000
0000
0001
0010
0100
0000
0000
0000
,
0000
0000
1000
0001
0100
0000
0000
0010
0000
0000
0010
1000
0200
0000
0000
0000
,
0000
0300
0000
0000
0000
0000
0000
0000
;

//---------------dance-single - ----------------
#NOTES:
     dance-single:
     :
     Medium:
     6:
     0.298,0.357,0.163,0.197,0.000:
0000
0000
0000
0000
,
0000
0000
0000
0000
,
0000
0000
0000
0000
,
0000
0000
0000
0000
,
0000
0010
1000
0010
0000
0100
0000
0100
,
0000
0100
0010
1000
0000
0001
0000
1000
,
0000
0001
1000
0100
0000
1000
0000
0001
,
1000
0001
0000
0001
0000
0100
0000
0010
,
0000
1000
0000
1000
0000
1000
0000
1000
,
0010
0100
0000
0100
0000
0100
0000
0100
,
0010
1000
0000
0001
0000
0100
0000
0010
,
1000
0100
0000
1000
0000
1001
0000
0001
,
0000
1000
1000
0001
,
0001
1000
0001
1000
,
0001
0100
0001
0100
,
0010
1000
0010
0100
,
0010
1000
0010
0100
,
0010
1000
0001
1000
,
0001
0100
0001
0001
,
1000
0002
0000
0000
0000
0000
0000
0003
,
0000
1000
1000
0001
,
0001
1000
0001
1000
,
0001
1000
0001
0000
0100
0000
0010
0000
,
1000
0100
0010
0001
,
1000
0001
1000
0000
0001
1000
0000
0001
,
1000
0000
1001
0000
1000
0001
0000
1000
,
0001
0000
1001
0000
0001
0100
0001
0000
,
1000
0100
0000
0000
0000
0000
0000
0000
,
0001
0000
1001
0000
0000
0001
0000
0000
,
0100
0020
0000
0030
,
0010
0100
0010
0000
0000
0010
0000
0100
,
0000
0020
0000
0000
0000
0000
0030
0000
,
0110
2002
0000
3003
,
0001
0100
0001
0000
0000
0000
0001
0000
,
0200
0020
0000
0000
0000
0000
0000
0000
,
0000
0330
0000
0000
,
1000
0000
1100
0000
0000
0011
0000
0000
,
0001
0202
0000
0303
,
0001
0100
0020
0000
0000
0100
0000
0100
,
0000
0200
0000
0000
0000
0000
0330
0000
,
0010
1000
0002
0000
0000
0000
0003
0000
,
0000
0000
1000
0100
0000
1000
0000
0000
,
0001
0200
0000
0000
0000
0000
0000
0000
,
0000
0000
0000
0310
0000
0010
0000
0010
,
0000
0010
0100
0010
0100
0000
0010
0000
,
0010
2000
0000
0000
0000
0000
0000
3000
,
0000
0000
1001
0000
0000
0101
0000
0101
,
0000
0202
0000
0000
0000
0000
0000
0303
,
0000
0000
0001
0100
0001
0100
0010
0000
,
0010
0100
0000
0000
0010
0000
0000
0000
,
0000
0010
0100
0010
,
0010
0200
0000
0000
0000
0000
0000
0000
,
0300
0000
0010
0100
0010
0000
0010
0000
,
0010
2000
0000
0000
0000
0000
3000
0000
,
0000
0001
1000
0000
0000
1001
0000
0110
,
0000
2002
0000
0000
0000
0000
0000
0000
,
3003
0000
0001
0100
0001
0100
0010
0000
,
0010
0100
0000
0000
0000
0100
0000
0000
,
0000
0110
1001
0110
,
0002
0200
0000
0000
0000
0000
0000
0000
,
0303
1000
0000
0000
,
0000
0001
0000
0100
,
0000
0010
0100
0010
,
0000
1000
0100
0000
0010
0000
0002
0000
,
0000
0003
0000
0000
0000
0000
0000
0000
;

//---------------dance-single - ----------------
#NOTES:
     dance-single:
     :
     Easy:
     4:
     0.208,0.302,0.103,0.094,0.000:
0000
0000
0000
0000
,
0000
0000
0000
0000
,
0000
0000
0000
0000
,
0000
0000
0000
0000
,
0000
0010
0000
0000
0000
0000
0000
0000
,
0000
0010
0000
0000
0000
0000
0000
0000
,
0000
1000
0000
0000
0000
0000
0000
0000
,
0000
0001
0000
0000
0000
0000
0000
0000
,
0000
1000
0000
0000
0000
0000
0000
1000
,
0001
1000
0000
0000
0000
0000
0000
0001
,
0100
0001
0000
0000
0000
0000
0000
0010
,
0001
0010
0000
0000
0000
1100
0000
0000
,
0000
1000
0000
1000
,
0000
1000
0000
1000
,
0000
0001
0000
0001
,
0000
0001
0000
0001
,
0000
0100
0000
0100
,
0000
0100
0000
0100
,
0000
0010
0000
0010
,
0000
0010
0000
0010
,
0000
0110
0010
0010
,
0010
1000
0001
1000
,
0001
1000
0100
1000
,
0100
0010
1000
0010
,
0100
1010
0010
0100
,
0010
0110
0010
1000
,
0001
1001
0010
1001
,
0100
0000
0000
0000
,
0001
0000
1000
0000
0000
1000
0000
0000
,
1000
2000
0000
3000
,
0001
1000
0001
0000
0000
0001
0000
0000
,
0001
0200
0000
0000
0000
0000
0300
0000
,
0010
0010
0000
0000
,
0000
0010
0000
0010
,
0000
0020
0000
0000
,
0030
0000
0000
0000
,
0010
0000
0110
0000
0000
0010
0000
0000
,
0010
0020
0000
0030
,
0010
0100
0010
0000
0000
1000
0000
0001
,
0000
2000
0000
0000
0000
0000
3000
0000
,
0001
1001
0000
0000
,
0000
1000
0000
0001
,
0000
0100
0000
0010
,
0000
0220
0000
0000
,
0330
0010
0010
0010
,
0010
0020
0000
0030
,
0000
0010
0100
0010
,
1000
0001
1000
0001
,
0000
0001
1000
0001
,
0100
0001
0100
0010
,
0000
0010
0100
0010
,
1000
0010
0000
0000
,
0000
1001
0001
1000
,
0001
1000
0000
0000
,
0000
0101
0001
0100
,
0010
0100
0000
0000
,
0000
0110
0010
1000
,
0010
0100
0010
1000
,
0010
1000
0001
0100
,
0001
0100
0010
1000
,
0010
0100
0000
0000
,
0000
0020
0000
0030
,
0000
2000
0000
0000
,
0000
0002
0000
0000
,
0000
3003
0000
0000
0000
0000
0000
0000
;

//---------------dance-single - ----------------
#NOTES:
     dance-single:
     :
     Beginner:
     1:
     0.066,0.107,0.026,0.000,0.000: // measure 1
0000
0000
0000
0000
,  // measure 2
0000
0000
0000
0000
,  // measure 3
0000
0000
0000
0000
,  // measure 4
0000
0000
0000
0000
,  // measure 5
0000
0010
0000
0000
0000
0000
0000
0000
,  // measure 6
0000
0010
0000
0000
0000
0000
0000
0000
,  // measure 7
0000
0001
0000
0000
0000
0000
0000
0000
,  // measure 8
0000
1000
0000
0000
0000
0000
0000
0000
,  // measure 9
0000
0010
0000
0000
0000
0000
0000
0000
,  // measure 10
0000
0010
0000
0000
0000
0000
0000
0000
,  // measure 11
0000
0001
0000
0000
0000
0000
0000
0000
,  // measure 12
0000
1000
0000
0000
0000
0000
0000
0000
,  // measure 13
0000
0010
0000
0000
,  // measure 14
0000
0000
0000
0000
,  // measure 15
0000
0001
0000
0000
,  // measure 16
0000
0000
0000
0000
,  // measure 17
0000
1000
0000
0000
,  // measure 18
0000
0000
0000
0000
,  // measure 19
0000
0010
0000
0000
,  // measure 20
0000
0000
0000
0000
,  // measure 21
0000
1001
0000
0000
,  // measure 22
0000
0001
0000
0000
,  // measure 23
0000
1000
0000
0000
,  // measure 24
0000
0010
0000
0000
,  // measure 25
0000
0100
0000
0000
,  // measure 26
0000
0010
0000
0000
,  // measure 27
0000
0010
0000
0010
,  // measure 28
0000
0010
0000
0000
,  // measure 29
0000
0001
0000
0000
,  // measure 30
0000
0001
0000
0000
,  // measure 31
0000
1000
0000
0000
,  // measure 32
0000
1000
0000
0000
,  // measure 33
0000
0010
0000
0000
,  // measure 34
0000
0100
0000
0100
,  // measure 35
0000
0100
0000
0000
,  // measure 36
0000
0000
0000
0000
,  // measure 37
0001
0001
0000
0000
,  // measure 38
0000
0000
0000
0000
,  // measure 39
0000
1000
0000
0000
,  // measure 40
0000
0000
0000
0000
,  // measure 41
0010
0010
0000
0000
,  // measure 42
0000
0100
0000
0100
,  // measure 43
0000
0100
0000
0000
,  // measure 44
0000
0000
0000
0000
,  // measure 45
0000
0010
0000
0000
,  // measure 46
0000
0000
0000
0000
,  // measure 47
0000
0001
0000
0000
,  // measure 48
0000
0000
0000
0000
,  // measure 49
0000
1000
0000
0000
,  // measure 50
0000
0000
0000
0000
,  // measure 51
0000
0010
0000
0010
,  // measure 52
0000
0010
0000
0000
,  // measure 53
0000
0110
0000
0000
,  // measure 54
0000
0000
0000
0000
,  // measure 55
0000
0100
0000
0000
,  // measure 56
0000
0000
0000
0000
,  // measure 57
0000
0001
0000
0000
,  // measure 58
0000
0000
0000
0000
,  // measure 59
0000
1000
0000
1000
,  // measure 60
0000
1000
0000
0000
,  // measure 61
0000
1001
0000
0000
,  // measure 62
0000
0000
0000
0000
,  // measure 63
0000
0010
0000
0000
;
