#TITLE:Leaving...;
#SUBTITLE:;
#ARTIST:Seiya Murai Meets 'EIMY';
#TITLETRANSLIT:;
#SUBTITLETRANSLIT:;
#ARTISTTRANSLIT:;
#CREDIT:;
#BANNER:bn.PNG;
#BACKGROUND:bg.PNG;
#LYRICSPATH:;
#CDTITLE:;
#MUSIC:leaving.mp3;
#OFFSET:-0.040;
#SAMPLESTART:66.180;
#SAMPLELENGTH:12.000;
#SELECTABLE:YES;
#BPMS:0.000=145.000;
#STOPS:;
#BGCHANGES:;

//---------------dance-single - ----------------
#NOTES:
     dance-single:
     :
     Hard:
     6:
     0.364,0.369,0.047,0.310,0.122: // measure 1
0000
0000
0000
0000
,  // measure 2
0000
0000
0000
0000
,  // measure 3
0000
0000
0000
0000
,  // measure 4
0000
0000
0000
0000
,  // measure 5
0000
0000
1000
0001
,  // measure 6
1000
0001
0100
0010
,  // measure 7
0100
0010
1000
0100
,  // measure 8
0010
0001
1000
0001
,  // measure 9
0010
0100
2000
0000
,  // measure 10
0000
0000
0002
0000
,  // measure 11
0000
0000
0000
0000
3003
0000
0000
0000
0010
0000
0000
0100
0000
0000
1000
0000
,  // measure 12
0000
0100
0000
0000
0010
0000
0000
0001
0000
0000
0010
0000
0000
0100
0000
0000
,  // measure 13
1000
0000
0100
0000
1000
0000
0100
0000
1000
0000
0000
1000
0000
0000
0001
0000
,  // measure 14
0000
0001
0000
0000
0100
0000
0000
0100
0000
0000
0010
0000
0000
0010
0000
0000
,  // measure 15
0001
0000
1000
0000
0001
0000
1000
0000
0010
0000
0000
0010
0000
0000
0100
0000
,  // measure 16
0000
0100
0000
0000
1000
0000
0000
1000
0000
0000
0001
0000
0000
0001
0000
0000
,  // measure 17
0001
0000
0010
0000
0100
0000
1000
0000
0100
0000
0000
1000
0000
0000
0100
0000
,  // measure 18
0000
0010
0000
0000
0001
0000
0000
0010
0000
0000
0100
0000
0000
0001
0000
0000
,  // measure 19
0100
1000
0100
0010
0001
0000
0001
0000
,  // measure 20
1000
0000
1000
0100
0010
0001
0000
0010
,  // measure 21
0000
0000
0100
1000
0100
0000
1000
0000
,  // measure 22
0100
0000
0010
0000
0001
0100
0000
0001
,  // measure 23
0000
2000
0000
0000
0200
0000
3300
0000
,  // measure 24
2000
0000
3001
0202
0000
0000
0000
0000
,  // measure 25
0000
0000
0303
0000
0010
0100
0010
1000
,  // measure 26
0100
0000
0001
1000
0010
0001
0000
0010
,  // measure 27
0000
0000
0001
1000
0010
0000
1000
0000
,  // measure 28
0100
0000
0010
0000
0001
0010
0000
0200
,  // measure 29
0000
1000
0000
0000
2000
0000
0000
0000
,  // measure 30
3300
0000
2000
0000
,  // measure 31
3002
0000
0000
0000
0103
0010
1000
0001
,  // measure 32
0100
0010
0000
1000
0000
0000
0000
0000
,  // measure 33
0000
0000
0000
0000
1000
0100
0010
0001
,  // measure 34
0100
0001
0000
0100
0000
0000
0002
1000
,  // measure 35
0000
1003
0000
0000
0001
0010
0100
0000
,  // measure 36
0001
1000
0000
0100
0000
1001
0000
0000
,  // measure 37
0000
0000
2000
3200
,  // measure 38
0320
0000
0001
0031
0000
0000
0002
0000
,  // measure 39
1003
0200
0020
0000
,  // measure 40
0330
0000
0000
0000
1000
1000
0010
0010
,  // measure 41
0000
1000
0001
0200
0000
0000
0310
0200
,  // measure 42
0000
0302
0000
2000
0000
0000
3003
0000
,  // measure 43
1000
0100
0010
0001
0000
0000
0010
0100
,  // measure 44
0000
2000
0000
3001
0000
0000
0000
0000
,  // measure 45
0001
0000
0020
0200
0000
0000
0000
0330
,  // measure 46
0000
1000
0001
0200
0000
0000
0000
0000
,  // measure 47
0300
0000
1000
0100
0010
0000
0001
0000
,  // measure 48
0100
1000
1010
0010
,  // measure 49
0110
0000
0001
0010
0200
0000
1300
0000
,  // measure 50
0020
1030
0100
1000
,  // measure 51
1000
0100
0010
0001
0010
0000
0001
0000
,  // measure 52
0100
0001
0100
1000
,  // measure 53
1000
0100
0010
0002
0000
0000
0000
0000
,  // measure 54
0000
0013
0100
0010
0000
0000
0000
0000
,  // measure 55
0000
1000
0100
0010
0001
0000
0100
0000
,  // measure 56
1000
0000
0001
1000
0001
0000
0100
0000
,  // measure 57
2000
3020
0002
0000
,  // measure 58
0000
0030
0200
0000
,  // measure 59
0000
0000
0000
0000
0303
0000
0000
0000
0001
1000
0000
0010
0000
0000
0010
0100
,  // measure 60
0000
0010
0000
0000
1000
0100
0000
0010
0000
0000
0001
0010
0000
0100
0000
0000
,  // measure 61
0001
1000
0000
0001
0000
0000
1001
0000
0000
0000
0000
0000
0000
0000
0000
0000
;

//---------------dance-single - ----------------
#NOTES:
     dance-single:
     :
     Medium:
     5:
     0.316,0.341,0.019,0.113,0.099:
0000
0000
0000
0000
,
0000
0000
0000
0000
,
0000
0000
0000
0000
,
0000
0000
0000
0000
,
0000
0000
2000
0000
,
0000
0000
0002
0000
,
0000
3003
0010
0000
,
0100
0000
1000
0000
,
0001
0200
0002
0000
,
0000
0000
0303
0000
,
0000
0000
0000
0000
0000
0000
0000
0000
1000
0000
0000
0100
0000
0000
1000
0000
,
0000
0100
0000
0000
1000
0000
0000
0100
0000
0000
1000
0000
0000
0100
0000
0000
,
1000
0000
0100
0000
1000
0000
0000
0000
0010
0000
0000
0001
0000
0000
0010
0000
,
0000
0001
0000
0000
0010
0000
0000
0001
0000
0000
0010
0000
0000
0001
0000
0000
,
0010
0000
0001
0000
0010
0000
0000
0000
0100
0000
0000
0001
0000
0000
0100
0000
,
0000
0001
0000
0000
0100
0000
0000
0001
0000
0000
0100
0000
0000
0001
0000
0000
,
0100
0000
0001
0000
0100
0000
0000
0000
0010
0000
0000
1000
0000
0000
0010
0000
,
0000
1000
0000
0000
0010
0000
0000
1000
0000
0000
0010
0000
0000
1000
0000
0000
,
1000
0100
0010
0000
0001
0000
1000
0000
,
0100
0010
0001
0100
,
1000
0000
0001
1000
0010
0000
1000
0000
,
0100
0010
0001
0100
,
1000
0000
0100
0000
0010
0001
0010
0000
,
0100
0001
1000
0010
,
1000
0100
1000
0000
1000
0001
1000
0000
,
0100
0010
0001
0100
,
0001
0000
0010
0100
0001
0000
1000
0000
,
0001
1000
0100
0010
,
0001
0100
1100
0000
,
0000
1000
0001
0100
,
0010
1000
0100
1000
,
1000
0100
0000
0010
0000
0000
0000
0000
,
0000
0000
0001
1000
,
0100
0010
0000
0001
0000
0000
1000
0001
,
0000
1000
0000
0000
1000
0000
0100
0000
,
0010
0001
0000
0010
0000
0001
0000
0000
,
0000
0000
0001
0010
,
0100
1000
0001
0100
,
1000
0010
0100
1000
,
0100
0000
0010
0000
0001
1000
0001
1000
,
0000
0000
2000
3100
,
0010
0001
0100
1000
,
0010
1000
0010
1000
0100
0000
1000
0000
,
0100
0010
0001
0010
,
0100
0000
0001
0200
0001
0000
0000
0000
,
0000
0000
0301
2000
0000
0000
0000
0000
,
3000
0000
1000
0200
0000
0000
0310
0001
,
0000
0010
0100
0020
0000
0000
0130
0000
,
1000
0000
0100
0000
0010
0001
0010
0000
,
0100
1000
0001
1000
,
0010
0100
0010
0100
0010
0000
1000
0000
,
0100
0010
0001
0100
,
1000
0000
0100
0001
1000
0000
0010
0000
,
0100
1000
0010
0001
,
0100
0000
1000
0100
0010
0000
0001
0000
,
0100
1000
0010
0100
,
1000
0000
0010
0200
0002
0000
0000
0000
,
0000
0300
2000
0000
,
0000
0000
0000
0000
3003
0000
0000
0000
0010
0000
0000
0100
0000
0000
1000
0000
,
0000
0100
0000
0000
0010
0000
0000
0001
0000
0000
0010
0000
0000
0100
0000
0000
,
1000
0000
0000
0100
0000
0000
0011
0000
0000
0000
0000
0000
0000
0000
0000
0000
;

//---------------dance-single - ----------------
#NOTES:
     dance-single:
     :
     Easy:
     2:
     0.173,0.256,0.038,0.282,0.000:
0000
0000
0000
0000
,
0000
0000
0000
0000
,
0000
0000
0000
0000
,
0000
0000
0000
0000
,
0000
0000
2000
0000
,
0000
3000
0002
0000
,
0000
0003
0010
0000
,
0100
0000
0010
0000
,
1000
0000
0002
0000
,
0000
0000
0000
0000
,
0000
0003
1000
0000
,
0000
0000
0000
0000
,
1000
0100
0002
0003
,
0000
0000
0000
0000
,
0100
0010
0100
0000
,
0000
0000
0000
0000
,
1000
0100
0001
0000
,
0000
0000
0000
0000
,
0010
0010
0100
0000
,
1000
0000
0001
0000
,
0000
1000
1000
0000
,
0001
0000
0100
0000
,
0010
0000
0110
0000
,
0000
0000
1000
0000
,
0001
0000
1001
0000
,
0000
0000
0001
0000
,
0000
1000
1000
0000
,
0001
0000
0010
0000
,
0100
0000
1100
0000
,
0000
0000
0002
0000
,
0000
0003
1000
0001
,
1000
0001
1000
0000
,
0000
0000
0100
0010
,
0100
0020
2000
0000
,
0000
3030
0001
0100
,
1000
0100
0001
0010
,
0000
0000
1000
0000
,
0001
0000
0100
0000
,
0010
0000
2002
0000
,
0000
3003
0000
0000
,
0000
0000
2000
0000
,
0000
0000
3000
0000
,
0001
0100
0020
0000
,
0000
0000
0000
0030
,
0001
0200
2000
0000
,
3300
0000
0002
0000
,
0003
0100
0001
0100
,
1000
0010
1000
0000
,
0001
2000
0002
0000
,
0000
0000
3003
0000
,
0010
0002
0200
0000
,
0000
0000
0303
0000
,
1000
0020
2000
0000
,
0000
0000
0000
0000
,
3030
0002
2000
0000
,
0000
0000
3003
0000
,
2000
0100
0200
0000
,
0000
3300
0002
0000
,
0000
0000
0023
0000
,
0032
0023
0000
0032
,
0203
0000
0000
0000
0000
0000
0000
0000
0000
0000
0000
0000
0000
0000
0000
0000
0000
0000
0000
0000
0000
0000
0000
0000
0000
0000
0000
0000
0000
0000
0000
0000
0000
0000
0000
0000
0000
0000
0000
0000
0000
0000
0000
0000
0000
0000
0000
0000
0000
0000
0000
0000
0000
0000
0000
0000
0000
0000
0000
0000
0000
0000
0000
0000
0000
0000
0000
0000
0000
0000
0000
0000
0001
0300
0000
0000
0000
0000
0000
0000
0000
0000
0000
0000
0000
0000
0000
0000
0000
0000
0000
0000
0000
0000
0000
0000
0000
0000
0000
0000
0000
0000
0000
0000
0000
0000
0000
0000
0000
0000
0000
0000
0000
0000
0000
0000
0000
0000
0000
0000
0000
0000
0000
0000
0000
0000
0000
0000
0000
0000
0000
0000
0000
0000
0000
0000
0000
0000
0000
0000
0000
0000
0000
0000
0000
0000
0000
0000
0000
0000
0000
0000
0000
0000
0000
0000
0000
0000
0000
0000
0000
0000
0000
0000
0000
0000
0000
0000
0000
0000
0000
0000
0000
0000
0000
0000
0000
0000
0000
0000
0000
0000
0000
0000
0000
0000
0000
0000
0000
0000
0000
0000
;

//---------------dance-single - ----------------
#NOTES:
     dance-single:
     :
     Beginner:
     1:
     0.048,0.114,0.019,0.000,0.000:
0000
0000
0000
0000
,
0000
0000
0000
0000
,
0000
0000
0000
0000
,
0000
0000
0000
0000
,
0000
0000
0000
0000
,
0000
0000
0000
0000
,
0000
0000
0000
0000
,
0000
0000
0000
0000
,
0000
0000
0001
0000
,
0000
0000
0000
0000
,
0000
0000
1000
0000
,
0000
0000
0000
0000
,
0000
0000
1000
0000
,
0000
0000
0000
0000
,
0000
0000
1000
0000
,
0000
0000
0000
0000
,
0000
0000
0010
0000
,
0000
0000
0000
0000
,
0000
0000
0001
0000
,
0000
0000
0000
0000
,
0000
0000
1000
0000
,
0000
0000
0000
0000
,
0000
0000
0010
0000
,
0000
0000
0000
0000
,
0000
0000
0100
0000
,
0000
0000
0000
0000
,
0000
0000
0001
0000
,
0000
0000
0000
0000
,
0000
0000
0010
0000
,
0000
0000
0000
0000
,
0000
0000
1000
0000
,
0000
0000
0000
0000
,
0000
0000
0001
0000
,
0000
0000
0000
0000
,
0000
0000
0010
0000
,
0000
0000
0000
0000
,
0000
0000
0100
0000
,
0100
0000
0100
0000
,
0100
0000
0100
0000
,
0000
0000
1001
0000
,
0000
0000
0001
0000
,
0000
0000
0000
0000
,
0000
0000
1000
0000
,
0000
0000
0000
0000
,
0000
0000
0010
0000
,
0000
0000
0000
0000
,
0000
0000
0100
0000
,
0000
0000
0000
0000
,
0000
0000
1000
0000
,
0000
0000
0000
0000
,
0000
0000
0001
0000
,
0000
0000
0000
0000
,
0100
0000
0100
0000
,
0000
0000
0000
0000
,
0000
0000
0010
0000
,
0000
0000
1000
0000
,
0001
0000
1000
0000
,
0000
0000
0000
0000
,
0000
0000
0110
0000
,
0000
0000
0000
0000
,
0000
0000
0000
0100
0000
0000
0000
0000
;
