#TITLE:Last Love;
#SUBTITLE:;
#ARTIST:Caramel Pod (Kors K);
#TITLETRANSLIT:;
#SUBTITLETRANSLIT:;
#ARTISTTRANSLIT:;
#CREDIT:;
#BANNER:bn.png;
#BACKGROUND:bg.png;
#LYRICSPATH:;
#CDTITLE:;
#MUSIC:Last Love Caramel Pod(kors k).mp3;
#OFFSET:-0.040;
#SAMPLESTART:43.120;
#SAMPLELENGTH:12.000;
#SELECTABLE:YES;
#BPMS:0.000=130.000,184.000=260.000,192.000=130.000;
#STOPS:87.500=1.846
;
#BGCHANGES:;

//---------------dance-single - ----------------
#NOTES:
     dance-single:
     :
     Hard:
     6:
     0.300,0.393,0.079,0.307,0.066:
0000
0000
0000
0000
,
0000
0000
0000
0000
,
0000
0000
0000
0000
,
0000
0000
0000
0000
,
0000
0000
0000
0000
,
0000
0000
0000
0000
,
0000
0000
0000
0000
,
0000
0000
0000
0000
0000
0000
0000
1000
,
0100
0000
0001
0100
0000
0000
0000
1000
,
0000
0001
0100
0001
0000
1000
0001
0200
,
0000
0000
0000
0002
0000
0000
0000
0000
,
0303
0000
0000
0000
0000
0000
0000
1000
,
0001
0000
0100
0001
0000
0000
0000
1000
,
0000
0001
0000
0100
0000
0010
2000
0200
,
0000
0000
0000
0000
,
0000
3300
0000
0002
,
2000
0000
0000
0000
3003
0000
0002
2000
,
0000
0000
3003
2000
,
0200
0000
0000
0000
3300
0000
0010
0001
,
0000
0000
1000
0001
0000
0000
0100
0010
,
0000
0000
1000
0001
0000
0000
0010
0001
,
0000
0000
0000
0000
0000
0001
0100
0010
,
0001
1000
0001
1000
0001
1000
0001
0000
,
2001
0010
0001
3010
,
0102
0010
0100
0013
,
0120
1000
0001
1030
,
0210
0000
1000
0000
0301
1000
0001
0100
,
0002
0010
0100
0013
,
2001
0100
0010
0100
,
0200
0000
0000
3300
,
0001
1000
0010
0000
0100
0010
1000
0001
,
1002
0100
1000
0103
,
2001
0100
0010
0100
,
0020
0000
0000
0000
0000
0000
3000
0200
,
0000
0000
0000
0000
0330
0001
1000
0001
,
0200
0000
0000
0310
0000
0000
0000
0010
,
0200
0000
0010
0320
0000
0000
2030
0002
,
0000
0000
0000
0000
,
0000
0000
0000
3003
,
0001
0000
0000
1000
0000
0000
0001
0000
0000
0100
0000
0000
0010
0000
1000
0000
,
0000
0000
0000
0000
,
1000
0001
0100
0010
,
1000
0000
0000
0010
0000
0000
0100
0000
0000
0010
0000
0000
1000
0000
0000
0000
,
1000
0000
0000
0001
0000
0000
0100
0000
0000
0010
0000
0000
1000
0000
0001
0000
,
1000
0010
1000
0010
,
1000
0100
0010
0001
0010
0100
0010
1000
,
0200
0000
0000
0000
,
0000
0000
0000
0000
,
1300
0000
0000
0001
0000
0000
0100
0000
0000
0001
0000
0000
1000
0000
0001
0000
,
0100
0000
0010
0000
1000
0001
1000
0000
,
1000
0000
0000
0100
0000
0000
1000
0000
0000
0100
0000
0000
0010
0000
1000
0000
,
0010
0000
0000
0000
1010
0000
0000
0000
0001
0000
0000
1000
0000
0000
0001
0000
,
0100
0000
0000
0001
0000
0000
0010
0000
0000
0001
0000
0000
1000
0000
0001
0000
,
0100
0100
0010
0010
,
1000
0000
0000
0010
0000
0000
0100
0000
0000
0010
0000
0000
1000
0000
0001
0000
,
1001
0001
0100
0010
,
2000
3002
1000
1003
,
2000
0100
3200
1300
,
0020
0001
0032
0013
,
0002
1003
2000
3100
;

//---------------dance-single - ----------------
#NOTES:
     dance-single:
     :
     Medium:
     4:
     0.192,0.262,0.035,0.140,0.000:
0000
0000
0000
0000
,
0000
0000
0000
0000
,
0000
0000
0000
0000
,
0000
0000
0000
0000
,
0000
0000
0000
0000
,
0000
0000
0000
0000
,
0000
0000
0000
0000
,
0000
0000
0000
0000
0000
0000
0000
1000
,
0001
0000
0000
1000
0000
0000
0000
0001
,
0000
0100
0000
0001
0000
0010
1000
0020
,
0000
0000
0000
2000
0000
0000
0000
0000
,
0000
0000
3030
0000
0000
0000
0000
1000
,
0001
0000
0001
1000
0000
0000
0000
0001
,
0000
1000
0000
0001
0000
0200
0000
0002
,
0000
0000
0000
0000
,
0000
0000
0303
1000
,
1001
0000
0000
0000
0000
0000
0010
0020
,
0000
0030
0000
0100
,
0100
0000
0000
0000
0000
0000
1000
0001
,
0000
0000
0001
0000
1000
0000
0001
0100
,
0000
0000
1000
0100
0000
0000
0010
0001
,
0000
0000
0000
0000
0000
0001
1000
0001
,
1000
1000
1000
0001
,
1001
0000
0001
0100
0000
0000
0000
1000
,
0010
0000
0010
1000
0000
0020
0000
2000
,
0000
0000
0000
0000
,
3030
0000
0001
1000
,
1001
0000
0001
0100
0000
0000
0010
0001
,
0000
0000
0001
0100
0000
0000
0010
0200
,
0000
0000
0000
0000
,
0300
0000
0010
1000
,
2002
0000
0000
3003
0000
0000
0000
0000
,
0002
0000
0000
1003
0000
1000
0000
2000
,
0000
0000
0000
0000
,
3000
0000
0001
1000
,
0001
0000
0100
0001
0000
0000
0000
0010
,
0100
0000
1000
0001
0000
0000
1000
0200
,
0000
0000
0000
0000
,
0000
0000
0000
0300
,
2000
0000
0000
0000
0000
0000
0000
3000
,
0000
0000
0000
0000
,
0000
0000
0000
0000
,
0000
0000
0000
0000
,
0002
0000
0000
0000
0000
0000
0000
0003
,
0000
0000
0000
0000
,
0000
0000
0000
0000
,
0020
0000
0000
0000
,
0000
0000
0000
0000
,
1030
0000
0001
0000
1000
0000
0001
1000
,
0001
0001
0001
0001
,
0100
0000
0001
0000
0010
0000
0010
1000
,
0001
1000
0001
1000
,
0001
0000
0100
0000
0010
0000
1000
0010
,
1000
0010
0100
0010
,
1000
0000
0001
0000
1000
0000
0100
1000
,
0100
0000
1000
0000
,
0001
0001
0001
0001
,
1000
1000
1000
1000
,
0010
0010
0010
0010
,
0100
0100
0100
0100
;

//---------------dance-single - ----------------
#NOTES:
     dance-single:
     :
     Easy:
     2:
     0.097,0.183,0.026,0.044,0.000:
0000
0000
0000
0000
,
0000
0000
0000
0000
,
0000
0000
0000
0000
,
0000
0000
0000
0000
,
0000
0000
0000
0000
,
0000
0000
0000
0000
,
0000
0000
0000
0000
,
0000
0000
0000
0000
,
2000
0000
3000
0000
,
0001
0000
1000
0000
,
0100
0000
0000
0000
,
0000
0000
0000
0000
,
0010
0000
0000
0000
,
1000
0000
0001
0000
,
1000
0000
0000
0000
,
0000
0000
0000
0010
,
0010
0000
0000
0000
,
0000
0000
0000
0100
,
0100
0000
0000
0000
,
0000
0000
0000
0000
,
1000
0000
0001
0000
,
1000
0000
0000
0000
,
0010
0010
0010
0010
,
0110
0000
0000
0000
,
0010
0000
0000
0000
,
2000
0000
0000
0000
,
3000
0000
0001
1000
,
0001
0000
0000
0000
,
0001
0000
0001
0000
,
0002
0000
0000
0000
,
0003
0000
1000
1000
,
1100
0000
0000
0000
,
1000
0000
0000
0000
,
0020
0000
0000
0000
,
0000
0000
0030
0100
,
0100
0000
0000
0000
,
0010
0000
1000
0000
,
0002
0000
0000
0000
,
0000
0000
0000
0000
,
1003
0000
0000
0000
,
0000
0000
0000
0000
,
0000
0000
0000
0000
,
0000
0000
0000
0000
,
0010
0000
0000
0000
,
0000
0000
0000
0000
,
0000
0000
0000
0000
,
0000
0000
0000
0000
,
0000
0000
0000
0000
,
1001
0001
1000
0100
,
0000
0000
0000
0000
,
0010
0100
0010
1000
,
0000
0000
0000
0000
,
0001
1000
0100
1000
,
0000
0000
0000
0000
,
0010
1000
0010
0100
,
0010
0000
1000
0000
,
0001
0001
1000
0000
,
1000
1000
0001
0000
,
0010
0010
0100
0000
,
0100
0000
0100
0000
;

//---------------dance-single - ----------------
#NOTES:
     dance-single:
     :
     Beginner:
     1:
     0.043,0.078,0.018,0.000,0.000: // measure 1
0000
0000
0000
0000
,  // measure 2
0000
0000
0000
0000
,  // measure 3
0000
0000
0000
0000
,  // measure 4
0000
0000
0000
0000
,  // measure 5
0000
0000
0000
0000
,  // measure 6
0000
0000
0000
0000
,  // measure 7
0000
0000
0000
0000
,  // measure 8
0000
0000
0000
0000
,  // measure 9
0010
0000
0000
0000
,  // measure 10
0000
0000
0000
0000
,  // measure 11
0000
0000
0000
0000
,  // measure 12
0000
0000
0000
0000
,  // measure 13
1000
0000
0000
0000
,  // measure 14
0000
0000
0000
0000
,  // measure 15
0000
0000
0000
0000
,  // measure 16
0000
0000
0000
0001
,  // measure 17
0001
0000
0000
0000
,  // measure 18
0000
0000
0000
1000
,  // measure 19
1000
0000
0000
0000
,  // measure 20
0000
0000
0000
0000
,  // measure 21
0010
0000
0010
0000
,  // measure 22
0010
0000
0000
0000
,  // measure 23
0000
0000
0000
0000
,  // measure 24
1001
0000
0000
0000
,  // measure 25
0001
0000
0000
0000
,  // measure 26
1000
0000
0000
0000
,  // measure 27
0000
0000
0000
0000
,  // measure 28
0010
0000
0000
0000
,  // measure 29
0010
0000
0000
0000
,  // measure 30
0010
0000
0000
0000
,  // measure 31
0000
0000
0000
0000
,  // measure 32
0110
0000
0000
0000
,  // measure 33
1000
0000
0000
0000
,  // measure 34
1000
0000
0000
0000
,  // measure 35
0000
0000
0000
0000
,  // measure 36
0001
0000
0000
0000
,  // measure 37
0001
0000
0000
0000
,  // measure 38
0001
0000
0000
0000
,  // measure 39
0000
0000
0000
0000
,  // measure 40
0010
0000
0000
0000
,  // measure 41
0000
0000
0000
0000
,  // measure 42
0000
0000
0000
0000
,  // measure 43
0000
0000
0000
0000
,  // measure 44
0010
0000
0000
0000
,  // measure 45
0000
0000
0000
0000
,  // measure 46
0000
0000
0000
0000
,  // measure 47
0000
0000
0000
0000
,  // measure 48
0000
0000
0000
0000
,  // measure 49
0001
0000
0000
0000
,  // measure 50
0000
0000
0000
0000
,  // measure 51
1000
0000
0000
0000
,  // measure 52
0000
0000
0000
0000
,  // measure 53
1000
0000
0000
0000
,  // measure 54
0000
0000
0000
0000
,  // measure 55
0010
0000
0000
0000
,  // measure 56
0100
0000
0000
0000
,  // measure 57
1000
0000
0000
0000
,  // measure 58
0000
0000
0000
0000
,  // measure 59
0001
0000
0000
0000
,  // measure 60
1000
0000
1000
0000
;
