#TITLE:LOVELY STORM;
#SUBTITLE:-LOVE IS DREAMINESS RE-INTERPRETATION-;
#ARTIST:L.E.D.-G;
#TITLETRANSLIT:;
#SUBTITLETRANSLIT:;
#ARTISTTRANSLIT:;
#CREDIT:;
#BANNER:bn.PNG;
#BACKGROUND:bg.PNG;
#LYRICSPATH:;
#CDTITLE:;
#MUSIC:LOVELY STORM -LOVE IS DREAMINESS RE-INTERPRETATION-.mp3;
#OFFSET:-0.240;
#SAMPLESTART:100.020;
#SAMPLELENGTH:12.000;
#SELECTABLE:YES;
#BPMS:0.000=177.960;
#STOPS:160.000=1.011
;
#BGCHANGES:;

//---------------dance-single - ----------------
#NOTES:
     dance-single:
     :
     Hard:
     8:
     0.560,0.576,0.200,0.200,0.136:
0000
0000
0000
0000
,
0000
0000
0000
0000
,
0000
0000
0000
0000
,
0000
0000
0000
0000
0000
0001
1000
0001
,
0100
0001
1000
0001
0000
0001
0100
0001
,
0010
0100
1000
0100
0000
1000
0100
0001
,
0100
0001
1000
0010
0000
0001
1000
0010
,
0100
0001
1000
0010
0000
1000
0100
0010
,
0001
0000
0000
0000
1000
0000
0000
0000
0001
0000
0000
0010
0100
0000
0010
0000
,
0100
0010
1000
0001
0000
1000
0100
1000
,
0010
0001
0010
0100
0000
0001
1000
0001
,
1000
0010
0100
0001
0000
1000
0100
0001
,
0100
0001
0100
0001
0000
0100
0000
0010
,
0100
0001
1000
0010
0000
0010
0000
1000
,
0100
0010
0001
0010
0000
0001
0100
0001
,
0100
0000
0001
0100
0000
0100
0010
0000
,
0010
0100
0000
0010
1000
0000
1001
0000
,
0001
0000
1000
0001
0000
1000
0000
1001
,
0000
0001
0100
0001
0100
0000
0010
0000
,
0100
0000
1001
0000
0000
0010
0000
0110
,
0000
0100
0000
0100
0000
0010
0000
0010
,
0000
1001
0000
1001
0000
1100
0000
1100
,
0000
0101
0000
0101
0000
0101
0000
0001
,
0100
0001
0100
0010
1000
0010
1000
0001
,
1000
0000
0001
0100
0000
0010
0000
0010
,
0100
0010
0100
0000
0010
1000
0010
0000
,
0001
0100
0001
0000
1000
0100
1000
0000
,
0010
0100
0010
0000
0001
1000
0001
0000
,
1000
0100
1000
0000
0010
0001
0010
0100
,
0001
0100
0001
0000
0010
0100
0010
0000
,
0001
1000
0001
0000
1000
0100
1000
0000
,
0010
0001
0010
0000
0010
0100
0010
0000
,
0002
0000
2000
3003
,
0001
1000
0001
0000
0010
0100
0010
0000
,
1000
0100
1000
0100
0010
0001
0010
0100
,
0001
0100
0001
0000
0010
1000
0010
0000
,
0010
0100
0010
0000
0001
1000
0010
1000
,
0002
0103
2000
3100
,
0020
0130
0002
1003
,
0200
1300
0010
0001
,
1001
0000
0000
0000
0001
0000
0000
1000
0000
0000
0100
0000
1000
0000
0000
0100
,
0000
0000
0010
0000
0001
0000
0000
0010
0000
0000
0100
0000
0001
0000
0000
0100
,
0000
0000
0010
0000
1000
0000
0000
0001
0000
0000
1000
0000
0100
0000
0000
0010
,
0000
0000
0001
0000
0010
0000
0000
0100
0000
0000
1000
0000
0100
0000
0000
0010
,
0000
0000
0001
0000
1000
0000
0000
0001
0000
0000
1000
0000
0001
0000
0000
0100
,
0000
0000
0010
0000
1000
0000
0000
0010
0000
0000
0100
0000
0010
0000
0000
0100
,
0000
0000
0001
0000
1000
0000
0000
0001
0000
0000
1000
0000
0100
0000
0000
0010
,
0000
0000
0001
0000
0010
0000
0000
0100
0000
0000
1000
0000
0100
0000
0000
1000
,
0000
0000
0100
0000
1100
0000
0000
0100
0000
0000
1000
0000
0100
0000
0000
0010
,
0000
0000
0001
0000
0010
0000
0000
0100
0000
0000
0001
0000
1000
0000
0000
0001
,
0000
0000
1000
0000
0100
0000
0000
1000
0000
0000
0100
0000
1000
0000
0000
0100
,
0000
0000
0010
0000
0001
0000
0000
0010
0000
0000
0100
0000
0001
0000
0000
1000
,
0000
0000
0010
0000
0100
0000
0000
0010
0000
0000
0100
0000
0010
0000
0000
0100
,
0000
0000
0010
0000
0100
0000
0000
0010
0000
0000
1000
0000
0100
0000
0000
0010
,
0000
0000
0001
0000
0100
0000
0000
0001
0000
0000
1000
0000
0010
0000
0000
1000
,
0000
0000
0001
0000
0100
0000
0000
1000
0000
0000
0100
0000
0010
0000
0000
0001
,
0000
1000
0002
0000
0000
0000
1003
0000
,
0000
2000
0100
0100
,
0100
0200
0000
0000
,
0300
0020
0000
0000
,
3030
0002
0000
1003
,
0000
0010
0100
1000
,
0001
2000
0000
0000
,
0000
0002
0000
0000
,
3003
0002
0103
2000
,
3100
0020
1000
1000
,
1000
2030
3100
0020
,
0031
0200
0310
0002
,
1003
0002
0000
1003
,
0000
1000
0100
0010
,
0001
0200
0000
0000
,
0000
0020
0000
0000
,
0330
0000
0000
0000
0001
0000
0000
0000
1000
0000
0000
0000
0001
0000
0000
0010
,
0100
0001
1000
0100
1000
0100
0000
1000
,
0100
0000
0010
0001
0000
0001
0100
0010
,
1000
0001
1000
0000
0001
1000
0000
1000
,
0100
0000
0100
0010
0000
0010
0001
0010
,
0100
1000
0100
0000
0010
1000
0000
0001
,
0100
0000
0010
0100
0000
0010
0100
0010
,
1000
0001
1000
0000
1000
0100
0000
0100
,
0010
0000
0010
0001
0000
0010
0100
0000
,
0010
0000
0110
0000
0001
1000
0000
0001
,
0000
1000
0000
1000
0100
1000
0100
0000
,
1000
0000
1100
0000
0010
0100
0000
0101
,
0000
0100
0000
1100
0000
0010
0000
0110
,
0000
0001
0000
0011
0000
1100
0000
0110
,
0000
1001
0000
1100
0000
0011
0000
0110
,
0000
0001
1000
0100
0010
0001
0010
0100
,
0010
1000
0001
0000
0010
0100
0000
1000
,
0000
0010
2000
0000
0000
0000
0000
0000
,
0000
3000
0000
0000
;

//---------------dance-single - ----------------
#NOTES:
     dance-single:
     :
     Medium:
     6:
     0.455,0.540,0.088,0.591,0.000:
0000
0000
0000
0000
,
0000
0000
0000
0000
,
0000
0000
0000
0000
,
0000
0000
0000
0000
,
0000
0000
0000
0000
,
0000
0000
0000
0000
,
0000
0000
0000
0000
,
0000
0000
0000
0000
,
0001
1000
0001
1000
,
0001
0000
1000
0100
0000
0010
0001
0000
,
0010
0000
0010
0100
0000
0010
0100
0000
,
0010
0000
0001
1000
0000
0001
0000
0001
,
0100
0000
0010
0100
0000
0010
0000
0010
,
0100
0000
0010
0100
0000
0100
0000
0010
,
0100
0000
0001
1000
0000
1000
0100
0000
,
1000
0000
0100
1000
0000
0100
1000
0000
,
0100
1000
0000
0100
1000
0000
0001
0000
,
0101
0000
0001
0100
0000
0001
0000
0100
,
0000
0001
0100
0001
0100
0000
0001
0000
,
1000
0000
0001
0000
0000
1000
0000
1000
,
0000
0001
0000
0001
0000
0100
0000
0100
,
0000
0010
0000
0010
0000
1000
0000
1000
,
0000
0100
0000
0100
0000
0100
0000
0100
,
0010
0100
1000
0001
,
1000
0000
0100
1000
0000
0100
0000
1000
,
0200
1300
0020
0031
,
0002
0103
0020
0130
,
0002
1003
0200
1300
,
0020
0130
0002
1003
,
2000
3100
0020
0031
,
0200
0310
0002
1003
,
0200
1300
0020
0031
,
2000
0000
0002
3003
,
0002
0103
2000
3100
,
0002
0000
0103
0000
0010
0100
0010
0000
,
0002
1003
0200
1300
,
0020
0000
0130
0000
0001
1000
0010
0000
,
2000
3000
0002
0003
,
0200
0300
0020
0030
,
2000
0000
0000
3000
0002
0000
0000
0003
,
1001
0002
0103
2000
,
3100
0020
0130
0002
,
1003
0200
1300
0020
,
0031
0200
0310
2000
,
3001
1000
0002
0000
0103
0000
2000
0000
,
3100
0020
0130
0002
,
1003
0200
1300
0020
,
0031
0200
0310
2000
,
3001
1000
1002
0000
1003
0000
0200
0000
,
1300
0020
0031
0200
,
0310
0002
1003
0200
,
1300
0020
0031
0200
,
0310
0002
1003
0200
,
1300
0020
0130
0002
,
1003
0200
1300
0020
,
0031
0200
0310
2000
,
3001
0002
0000
1003
,
0000
1000
0100
0010
,
0001
0020
0000
0000
,
0000
0002
0000
0000
,
0033
0002
0000
0103
,
0000
0010
0100
1000
,
0001
2000
0000
0000
,
0000
0200
0000
0000
,
3300
0110
0010
0100
,
0010
0020
0100
0100
,
0100
0200
0000
0000
,
0300
0230
0000
0000
,
0300
0002
0000
1003
,
0000
1000
0100
0010
,
0001
0020
0000
0000
,
0000
0002
0000
0000
,
0033
1001
1001
1001
,
1001
0000
0001
0000
1000
0100
0000
1000
,
0100
0000
1000
0100
0000
0010
0001
0000
,
0100
0000
0010
0000
0010
0100
0000
0010
,
0100
0000
0010
0100
0000
0001
1000
0000
,
0001
0000
1000
0000
0100
1000
0000
0010
,
0001
0000
0001
0100
0000
0010
0100
0000
,
0010
0000
0100
0000
0010
0100
0000
0001
,
1000
0000
1000
0100
0000
0010
0001
0000
,
0100
0000
1001
0000
0001
1000
0000
1000
,
0000
1000
0000
0001
1000
0001
1000
0000
,
0001
0000
1000
0000
0100
0000
0000
1100
,
0000
0010
0000
0110
0000
0010
0000
0010
,
0000
0010
0000
0100
0000
1000
0000
0001
,
0000
1000
0000
0100
0000
0010
0000
0001
,
0000
0100
0000
1000
0000
0010
0000
0100
,
0000
1000
0100
0000
0010
0001
0000
0100
,
0000
0002
2000
0000
0000
0000
0000
0000
,
0000
3003
0000
0000
;

//---------------dance-single - ----------------
#NOTES:
     dance-single:
     :
     Easy:
     4:
     0.349,0.396,0.048,0.232,0.000:
0000
0000
0000
0000
,
0000
0000
0000
0000
,
0000
0000
0000
0000
,
0000
0000
0000
0000
,
0001
1000
0001
1000
,
0001
0100
0001
0100
,
0010
0100
0001
1000
,
0001
1000
0100
0010
,
0002
0000
0000
0003
,
1000
0001
0000
0010
,
0100
1000
0000
0001
,
1000
0001
0000
0001
,
1000
0100
0000
0010
,
0100
0010
0000
0001
,
1000
0100
0000
1000
,
0100
1000
0100
0010
,
0001
0010
0200
0310
,
0110
0010
0100
1000
,
0001
1000
0010
0100
,
0001
0000
0100
0000
0000
1000
0000
1000
,
0000
0001
0000
0001
0000
1000
0000
0001
,
0000
1000
0000
0100
0000
0010
0000
0001
,
0000
0010
0000
0100
0000
1000
0000
0001
,
1000
0001
0100
0010
,
1000
0000
0000
0100
0000
0010
0000
0001
,
0200
0300
0020
0030
,
2000
3000
0002
0003
,
2000
3000
0002
0003
,
0200
0300
0020
0030
,
0110
0000
0010
0000
,
1000
0000
0001
0000
,
1000
0000
0100
0000
,
0002
0000
0203
0000
,
0310
0000
0010
0000
,
1000
0001
0100
0010
,
1000
0000
0001
0000
,
1000
0100
0010
0001
,
1000
0000
1000
0000
,
0001
0000
0001
0000
,
1000
0000
0001
0000
,
0110
0010
0010
0100
,
0100
1000
1000
0001
,
0001
1000
0001
1000
,
0001
0100
0010
0100
,
0010
0001
0100
1000
,
0100
0001
0010
1000
,
0010
0001
0100
0010
,
1000
0010
0100
1000
,
0001
1001
0001
0100
,
1000
0100
0001
0100
,
1000
0100
0001
0100
,
1000
0100
0001
0100
,
1000
0001
0010
1000
,
0010
0001
0010
1000
,
0010
0001
0010
1000
,
0010
0001
0001
1000
,
1000
0002
0000
1003
,
0000
2000
0000
0100
,
0000
0200
0000
0000
,
3000
2000
0000
0000
,
3300
0020
0000
0130
,
0000
0001
0010
0100
,
2000
0200
0000
0000
,
3300
0022
0000
0000
,
0033
0002
0000
0103
,
0000
0010
0010
0100
,
0100
0020
0000
0000
,
0000
0230
0000
0000
,
0000
0310
0000
0010
,
0000
0001
0010
0100
,
1000
0200
0000
0000
,
0000
2000
0000
0000
,
3300
0000
0000
0000
,
0000
0001
1000
0100
,
0010
0001
0010
0100
,
1000
0001
1000
0001
,
0100
0010
0100
0020
,
0100
0130
1000
0001
,
0010
0100
1000
0100
,
0010
0001
0100
0001
,
1000
0010
1000
0100
,
0010
1001
0001
0100
,
1000
0000
0100
0000
1000
0100
1000
0000
,
0100
0000
0010
0000
0100
0000
0000
0010
,
0000
0010
0000
0100
0000
0100
0000
1000
,
0000
0001
0000
0010
0000
0100
0000
1000
,
0000
0100
0000
0010
0000
0001
0000
0010
,
0000
0100
0000
1000
0000
0001
0000
1000
,
0000
0001
1000
0000
0001
1000
0000
0010
,
0000
2000
0200
0000
0000
0000
0000
0000
,
0000
3300
0000
0000
;

//---------------dance-single - ----------------
#NOTES:
     dance-single:
     :
     Beginner:
     2:
     0.108,0.178,0.040,0.000,0.000: // measure 1
0000
0000
0000
0000
,  // measure 2
0000
0000
0000
0000
,  // measure 3
0000
0000
0000
0000
,  // measure 4
0000
0000
0000
0000
,  // measure 5
0010
0000
0000
0000
,  // measure 6
0010
0000
0000
0000
,  // measure 7
0010
0000
0000
0000
,  // measure 8
0010
0000
0000
0000
,  // measure 9
0000
0000
0000
0000
,  // measure 10
0001
0000
0000
0000
,  // measure 11
0001
0000
0000
0000
,  // measure 12
1000
0000
0000
0000
,  // measure 13
1000
0000
0000
0000
,  // measure 14
0100
0000
0000
0000
,  // measure 15
0100
0000
0000
0000
,  // measure 16
0010
0000
0000
0000
,  // measure 17
0010
0000
0000
0000
,  // measure 18
0001
0000
0000
0000
,  // measure 19
0000
0000
0000
0000
,  // measure 20
1000
0000
0000
0000
,  // measure 21
0001
0000
0000
0000
,  // measure 22
1000
0000
0000
0000
,  // measure 23
0100
0000
0000
0000
,  // measure 24
0010
0000
0000
0000
,  // measure 25
0001
0000
0000
0000
,  // measure 26
1000
0000
0000
0000
,  // measure 27
1000
0000
0000
0000
,  // measure 28
0001
0000
0000
0000
,  // measure 29
0001
0000
0000
0010
,  // measure 30
0010
0000
0000
0000
,  // measure 31
0010
0000
0000
0000
,  // measure 32
0100
0000
0000
0000
,  // measure 33
1000
0000
0001
0000
,  // measure 34
1000
0000
0000
0000
,  // measure 35
0001
0000
0000
0000
,  // measure 36
0100
0000
0000
0000
,  // measure 37
0010
0000
0000
0000
,  // measure 38
1000
0000
0000
0000
,  // measure 39
0001
0000
0000
0000
,  // measure 40
0100
0000
0010
0000
,  // measure 41
1001
0001
0000
0000
,  // measure 42
0000
1000
0000
0000
,  // measure 43
0000
0001
0000
0000
,  // measure 44
0000
0100
0000
0000
,  // measure 45
0000
0010
0000
0000
,  // measure 46
0000
0100
0000
0010
,  // measure 47
0000
0100
0000
0000
,  // measure 48
0000
1000
0000
0001
,  // measure 49
0000
1001
0000
0000
,  // measure 50
0000
0000
0000
0000
,  // measure 51
0000
0001
0000
0000
,  // measure 52
0000
1000
0000
0000
,  // measure 53
0000
0100
0000
0000
,  // measure 54
0000
0010
0000
0000
,  // measure 55
0000
0100
0000
0010
,  // measure 56
0000
0100
0000
0010
,  // measure 57
0000
0001
0000
0000
,  // measure 58
0000
0000
0000
0000
,  // measure 59
0000
0000
0000
0000
,  // measure 60
0000
0000
0000
0000
,  // measure 61
0000
0000
0000
0000
,  // measure 62
0000
0000
0000
0000
,  // measure 63
0000
0000
0000
0000
,  // measure 64
0000
0000
0000
1000
,  // measure 65
1000
1000
0000
0001
,  // measure 66
0000
1000
0000
0001
,  // measure 67
0000
0100
0000
0000
,  // measure 68
0000
0010
0000
0000
,  // measure 69
0000
1001
0000
0000
,  // measure 70
0000
0000
0000
1000
,  // measure 71
0000
1000
0000
0000
,  // measure 72
0000
0001
0000
0000
,  // measure 73
0000
0000
0000
0000
,  // measure 74
0000
0100
0000
0000
,  // measure 75
0000
0010
0000
0000
,  // measure 76
0000
1000
0000
0000
,  // measure 77
0000
0001
0000
0000
,  // measure 78
0000
1000
0000
0000
,  // measure 79
0000
0001
0000
0000
,  // measure 80
0000
0100
0000
0000
,  // measure 81
0000
0010
0000
0000
,  // measure 82
0000
1001
0000
0000
,  // measure 83
0000
0100
0000
0000
,  // measure 84
0000
0001
0001
0000
,  // measure 85
0000
1000
0000
0000
,  // measure 86
0000
1000
0000
0000
,  // measure 87
0000
0001
0000
0000
,  // measure 88
0000
0010
0000
0100
,  // measure 89
0000
0010
0000
1000
,  // measure 90
0000
1001
0000
0000
;
