#TITLE:LOVE D RIVE;
#SUBTITLE:(The Other Mix);
#ARTIST:D-crew;
#TITLETRANSLIT:;
#SUBTITLETRANSLIT:;
#ARTISTTRANSLIT:;
#CREDIT:;
#BANNER:bn.PNG;
#BACKGROUND:bg.PNG;
#LYRICSPATH:;
#CDTITLE:;
#MUSIC:lovedrive.mp3;
#OFFSET:-2.060;
#SAMPLESTART:84.120;
#SAMPLELENGTH:15.000;
#SELECTABLE:YES;
#BPMS:0.000=190.000;
#STOPS:;
#BGCHANGES:;

//---------------dance-single - ----------------
#NOTES:
     dance-single:
     :
     Hard:
     9:
     0.654,0.757,0.477,0.084,0.276:
0000
0000
0000
0000
,
0001
1000
0010
0100
0000
0010
0100
0000
,
0001
1000
0010
1000
0000
0001
0100
0000
,
1000
0100
0010
0001
0000
0001
0100
0000
,
0010
0100
0010
0100
0000
0010
0000
0000
,
0010
0100
0010
0100
0000
0001
1000
0000
,
1000
0001
1000
0010
0000
0001
1000
0000
,
0001
0100
0010
0000
0001
1000
0001
0000
,
2000
0100
0010
3001
,
0001
1000
0001
0100
0010
0100
0010
0000
,
0001
1000
0010
0001
0010
0100
1000
0000
,
0001
0100
0001
1000
0001
1000
0010
0000
,
0001
0010
0100
1000
0010
0100
0010
0000
,
1001
0000
0001
1000
1001
0000
0010
0100
,
0110
0000
1000
0100
1100
0000
0010
0000
,
0011
0000
0101
0000
,
2020
0000
0000
3030
,
0001
1000
0100
0001
1000
0001
0100
0000
,
0001
1000
0010
1000
0001
0000
0010
0000
,
1000
0001
0100
0000
0010
0001
0010
0000
,
0001
0100
0001
1000
0010
1000
0001
0000
,
0100
1000
0010
1000
0001
1000
0010
0000
,
0001
0100
0010
1000
0001
0000
0000
0000
,
0001
0100
0010
0000
0001
1000
0100
0000
,
1000
0100
0010
0001
0010
0100
1000
0001
,
1000
0000
0000
0100
0000
0000
1000
0000
0100
0000
0000
0010
0000
0000
0100
0000
,
1000
0000
0000
0001
0000
0000
0100
0000
1000
0000
0000
0100
0000
0000
0010
0000
,
1000
0000
0000
0001
0000
0000
0100
0000
1000
0000
0000
0010
0000
0000
0100
0000
,
1000
0000
0000
0001
0000
0000
0100
0000
1000
0000
0000
0100
0000
0000
0010
0000
,
1000
0000
0000
0001
0000
0000
0010
0000
0001
0000
0000
0010
0000
0000
0100
0000
,
1000
0000
0000
0100
0000
0000
0010
0000
1000
0000
0000
0100
0000
0000
1000
0000
,
0100
0000
0000
0010
0000
0000
0001
0000
0100
0000
0000
1000
0000
0000
2000
0000
,
0002
0000
0000
3003
,
0110
0000
0000
1001
0000
0000
1010
0000
0000
0000
0101
0000
0000
1100
0000
0000
,
0010
0000
0000
0100
0000
0000
1000
0000
0000
0000
1100
0000
0000
1100
0000
0000
,
0011
0000
0000
1001
0000
0000
1010
0000
0000
0000
0010
0000
0000
0100
0000
0000
,
0010
0000
0000
1000
0000
0000
0100
0000
0010
0000
0000
0100
0000
0000
0010
0000
,
0100
0000
0000
1001
0000
0000
0100
0000
0000
0000
0011
0000
0000
0100
0000
0000
,
0010
0000
0000
1001
0000
0000
1010
0000
0000
0000
0101
0000
0000
0110
0000
0000
,
1010
0000
0000
0101
0000
0000
1100
0000
0000
0000
1001
0000
0000
1100
0000
0000
,
0010
0000
0000
1000
0000
0000
0100
0000
0010
0000
0010
0100
0000
0100
0010
0000
,
0001
0000
0000
1000
0000
0000
0100
0000
0000
0000
0010
0000
0000
0100
0000
0000
,
1000
0000
0000
0100
0000
0000
0010
0000
0000
0000
0001
0000
0000
0100
0000
0000
,
1000
0000
0000
0100
0000
0000
0010
0000
0000
0000
0100
0000
0000
0110
0000
0000
,
0010
0000
0000
0100
0000
0000
1000
0000
0001
0000
0000
0100
0000
0000
0010
0000
,
1000
0000
0000
1100
0000
0000
1100
0000
0000
0000
0010
0000
0100
0000
0010
0000
,
1000
0000
0000
1001
0000
0000
1001
0000
0001
0000
0010
0000
0100
0000
1000
0000
,
1100
0000
0000
1100
0000
0000
0010
0100
0010
0000
1000
0000
0010
0000
0100
0000
,
0001
0010
1000
0100
0001
0100
0010
1000
,
0001
0000
1001
0000
,
0010
0010
0110
0000
,
1100
0000
0011
0000
,
0110
0000
0010
0000
,
1100
0000
0010
1000
,
1001
0000
0010
0000
,
0110
0000
1100
0000
,
0011
0000
0101
0000
,
1010
0010
0100
1000
,
1010
0001
0100
1000
,
1000
0000
0001
1000
0001
0000
0010
0000
,
0100
0010
1000
0001
,
0020
0000
0000
0100
,
0200
0000
0000
0330
,
1100
0000
0011
0000
,
2002
0000
0000
3003
,
0010
0000
0000
1000
0000
0000
0100
0000
0010
0000
0000
0001
0000
0000
0100
0000
,
1000
0000
0000
0010
0000
0000
0100
0000
1000
0000
0000
0001
0000
0000
0100
0000
,
1000
0000
0000
0010
0000
0000
1000
0000
0100
0000
0000
0001
0000
0000
0100
0000
,
0010
0000
0000
0100
0000
0000
1000
0000
0001
0000
0000
0100
0000
0000
1000
0000
,
0100
0000
0000
0010
0000
0000
0001
0000
1000
0000
0000
0001
0000
0000
0100
0000
,
0010
0000
0000
1000
0000
0000
0001
0000
0010
0000
0000
0100
0000
0000
0001
0000
,
1000
0000
0000
0010
0000
0000
0100
0000
1000
0000
0000
0100
0000
0000
0010
0000
,
0100
0000
0000
1000
0000
0000
0001
0000
0100
0000
0000
0010
0000
0000
1000
0000
,
0001
0100
0010
0100
0001
1000
0100
0001
,
0010
0100
1000
0010
0001
0100
0001
0010
,
0100
0010
0001
1000
0010
0100
0001
1000
,
0001
0010
0100
0001
0100
0010
0100
1000
,
0001
0100
0001
1000
0100
0010
0001
0100
,
1000
0100
1000
0001
1000
0100
0001
0100
,
1000
0100
0001
0010
0100
1000
0001
0100
,
1000
0001
0010
0001
1000
0100
0010
1000
,
0001
0000
0000
0000
;

//---------------dance-single - ----------------
#NOTES:
     dance-single:
     :
     Medium:
     7:
     0.498,0.568,0.318,0.150,0.196:
0000
0000
0000
0000
,
1000
0000
0100
0000
0000
1000
0100
0000
,
0010
0000
0100
0010
0000
0000
0110
0000
,
0010
0000
0010
1000
0000
0000
0010
0000
,
2000
0000
0000
0000
,
3002
0000
0103
0000
0010
1000
0010
0000
,
0100
1000
0100
1000
,
0200
0000
0010
0000
,
0020
0000
0000
0330
,
1000
0100
1000
0000
0010
0100
0010
0000
,
0001
1000
0010
0000
0001
0100
1000
0000
,
0010
0100
0001
0000
0001
0010
0100
0000
,
1000
0100
0001
0000
0010
0100
1000
0000
,
2002
0000
0000
3003
,
0110
0000
0110
0000
,
1010
0001
0101
1100
,
2002
0000
0000
0000
0000
0000
0000
3003
,
0010
0100
0010
0000
1000
0000
0100
0000
,
0010
0000
0100
0000
0001
0100
0010
0000
,
0000
1000
0000
0100
0000
0010
0000
0100
,
0010
0000
0010
0000
0100
1000
0100
0000
,
0010
1000
0010
0100
,
0000
0010
0100
0010
0100
0000
1000
0000
,
0100
0000
0000
0010
0000
0100
0000
0000
,
0010
0100
0010
0000
1000
0000
0001
0000
,
0100
0000
0000
0001
0000
0000
0100
0000
0001
0000
0000
1000
0000
0000
0001
0000
,
0100
0000
0000
0010
0000
0000
0001
0000
0100
0000
0000
0001
0000
0000
1000
0000
,
0100
0000
0000
0010
0000
0000
0001
0000
0100
0000
0000
1000
0000
0000
0001
0000
,
0100
0000
0000
0010
0000
0000
0001
0000
0100
0000
0000
0001
0000
0000
1000
0000
,
0100
0000
0000
0010
0000
0000
1000
0000
0010
0000
0000
1000
0000
0000
0001
0000
,
0100
0000
0000
0001
0000
0000
1000
0000
0100
0000
0000
0001
0000
0000
0100
0000
,
0001
0000
0000
1000
0000
0000
0010
0000
0001
0000
0000
0100
0000
0000
0200
0000
,
0000
0000
0000
0300
,
1000
0000
0000
0010
0000
0000
1000
0000
0000
0000
0010
0000
0000
0001
0000
0000
,
1000
0000
0000
0001
0000
0000
0100
0000
0000
0000
0001
0000
0000
0001
0000
0000
,
0010
0000
0000
0010
0000
0000
1000
0000
0000
0000
1000
0000
0000
0001
0000
0000
,
1000
0000
0000
0100
0000
0000
0001
0000
1000
0000
0000
0001
0000
0000
1000
0000
,
0001
0000
0000
0010
0000
0000
0001
0000
0000
0000
0010
0000
0000
0001
0000
0000
,
1000
0000
0000
0010
0000
0000
1000
0000
0000
0000
0010
0000
0000
1000
0000
0000
,
1000
0000
0000
0010
0000
0000
0001
0000
0000
0000
0010
0000
0000
0001
0000
0000
,
1000
0000
0000
0100
0000
0000
0001
0000
1000
0000
0000
1000
0000
0000
0100
0000
,
0010
0000
0000
0100
0000
0000
0001
0000
0000
0000
1000
0000
0000
0001
0000
0000
,
0100
0000
0000
0001
0000
0000
1000
0000
0000
0000
0010
0000
0000
0001
0000
0000
,
0100
0000
0000
0001
0000
0000
1000
0000
0000
0000
0001
0000
0000
1000
0000
0000
,
1000
0000
0000
0001
0000
0000
0100
0000
0010
0000
0000
0001
0000
0000
1000
0000
,
0100
0000
0000
0001
0000
0000
0001
0000
0000
0000
1000
0000
0001
0000
1000
0000
,
0100
0000
0000
0010
0000
0000
0010
0000
0000
0000
1000
0000
0001
0000
0100
0000
,
0001
0000
0000
0001
0000
0000
1000
0000
0000
0010
0000
0000
1000
0000
0001
0000
,
1000
0100
1000
0100
0010
0100
0010
0100
,
0001
0000
0000
1000
,
1000
0000
0000
0000
,
0110
0000
0110
0000
,
0110
0000
0000
0000
,
0001
0000
0000
2000
,
3100
0000
0000
0000
,
1010
0000
0101
0000
,
1100
0000
0011
0000
,
1100
0010
0100
0010
,
1001
0010
0100
1000
,
0011
0000
0011
0000
,
0101
0000
0000
0000
,
1010
0000
0000
1100
,
1100
0000
0000
0000
,
1001
0000
1001
0000
,
2002
0000
0000
3003
,
0020
0000
0000
0000
,
0100
0000
0100
0000
,
0100
0000
0100
0000
,
0230
0000
0000
0000
1000
0000
0000
0300
,
0010
0100
0010
0000
1000
0010
0100
0000
,
0001
0100
0010
0000
1000
0100
0001
0000
,
0110
0000
0010
1000
0010
0000
0100
0000
,
1001
0110
1010
0110
,
0001
0100
0001
0000
0010
1000
0010
0000
,
0010
0100
0010
0000
0010
1000
0010
0000
,
0001
0100
0010
0000
1000
0100
0010
0000
,
0001
0100
0010
0000
1000
0001
1000
0000
,
0010
0100
0010
0000
1000
0100
1000
0000
,
0010
0001
0010
0000
0001
0100
0001
0000
,
1001
0010
0110
0001
,
2002
0000
0000
0000
,
3003
0000
0000
0000
;

//---------------dance-single - ----------------
#NOTES:
     dance-single:
     :
     Easy:
     5:
     0.443,0.530,0.654,0.234,0.000:
0000
0000
0000
0000
,
2002
0000
0000
0000
,
0000
0000
0000
0003
0000
0000
0000
0000
,
0000
0000
0000
0000
,
3020
0000
0000
0000
,
0230
0010
0000
0010
,
0000
0010
0000
0320
,
0230
0000
0010
0000
,
0001
0000
0310
0000
,
0010
1000
0010
0100
,
0001
1000
0010
0100
,
0010
1000
0001
0100
,
0010
1000
0001
0010
,
0102
0000
0010
0100
,
0010
0000
0003
0010
,
1010
0000
0101
0000
,
2002
0000
0000
3003
,
1000
0100
0010
0001
,
0100
0010
1000
0001
,
0100
0010
1000
0001
,
0100
0010
0100
0010
,
1000
0001
0100
0010
,
0001
1000
0100
0010
,
0100
1000
0001
0100
,
1000
0010
0100
0001
,
1001
0010
1001
0010
,
1001
0010
1001
0010
,
1100
0010
1100
0010
,
1100
0010
1100
0010
,
0101
1000
0101
1000
,
0101
1000
0101
1000
,
0101
1000
0101
1000
,
2002
0000
0000
3003
,
0010
0010
0010
0010
,
0110
0110
0110
0110
,
0100
0100
0100
0100
,
0110
0110
0110
0110
,
1000
1000
1000
1000
,
1001
1001
1001
1001
,
0001
0001
0001
0001
,
1001
1001
1001
1001
,
0010
0010
0010
0010
,
1010
1010
1010
1010
,
1000
1000
1000
1000
,
1010
1010
1010
1010
,
0001
0001
0001
0001
,
0101
0101
0101
0101
,
0100
0100
0100
0100
,
0101
0101
0101
0101
,
1001
0000
0000
0010
,
0100
0000
0000
0000
,
1100
0000
0011
0000
,
2020
0000
0000
3030
,
1001
0000
0000
0101
,
0022
0000
0033
1000
,
1100
0000
1010
0000
,
0101
0000
0000
0000
0011
0000
1000
0001
,
1000
0000
0000
1000
,
1000
0000
0000
0000
,
0001
0000
0100
0000
,
0010
0000
0000
0000
,
1000
0000
0000
0001
,
0001
0000
0000
1000
,
1100
0000
0010
0000
,
0001
0000
1000
0000
,
2000
0100
0000
0100
,
0000
0100
0000
0100
,
0000
0100
0000
0100
,
3020
0000
0100
0000
,
0032
0100
0000
0100
,
0000
0100
0000
0023
,
0230
0000
2300
0000
,
3002
0000
0203
0000
,
0310
1000
0010
0100
,
0001
1000
0010
0100
,
1001
0010
0100
1000
,
0100
0010
0001
0010
,
0101
0010
0100
0001
,
1010
0010
0100
0010
,
1001
0010
0110
0001
,
2002
0000
0000
0000
,
3003
0000
0000
0000
;

//---------------dance-single - ----------------
#NOTES:
     dance-single:
     :
     Beginner:
     2:
     0.135,0.187,0.047,0.000,0.000: // measure 1
0000
0000
0000
0000
,  // measure 2
0100
0000
0000
0000
,  // measure 3
0000
0000
0000
0000
,  // measure 4
0000
0000
0000
0000
,  // measure 5
0001
0000
0000
0000
,  // measure 6
1000
0000
0000
0000
,  // measure 7
0000
0000
0000
0001
,  // measure 8
0001
0000
0000
0000
,  // measure 9
1000
0000
1000
0000
,  // measure 10
1001
0000
0000
0000
,  // measure 11
0100
0000
0100
0000
,  // measure 12
0100
0000
0000
0000
,  // measure 13
0010
0000
0000
0000
,  // measure 14
1001
0000
0000
0000
,  // measure 15
0001
0000
0000
0000
,  // measure 16
1000
0000
1000
0000
,  // measure 17
1000
0000
0000
0000
,  // measure 18
0100
0000
0000
0000
,  // measure 19
0000
0000
0000
0000
,  // measure 20
0010
0000
0000
0000
,  // measure 21
0000
0000
0000
0000
,  // measure 22
1000
0000
0000
0000
,  // measure 23
0000
0000
0000
0000
,  // measure 24
0001
0000
0000
0000
,  // measure 25
0000
0000
0000
0000
,  // measure 26
0100
0000
0100
0000
,  // measure 27
0100
0000
0100
0000
,  // measure 28
0100
0000
0100
0000
,  // measure 29
0100
0000
0000
0000
,  // measure 30
0010
0000
0000
0000
,  // measure 31
0010
0000
0000
0000
,  // measure 32
0010
0000
0010
0000
,  // measure 33
1001
0000
0000
0000
,  // measure 34
1000
0000
0000
0000
,  // measure 35
1000
0000
0000
0000
,  // measure 36
0001
0000
0000
0000
,  // measure 37
0001
0000
0001
0000
,  // measure 38
0001
0000
0000
0000
,  // measure 39
0100
0000
0000
0000
,  // measure 40
0100
0000
0000
0000
,  // measure 41
0010
0000
1000
0000
,  // measure 42
0001
0000
0000
0000
,  // measure 43
0100
0000
0000
0000
,  // measure 44
0100
0000
0000
0000
,  // measure 45
0010
0000
0010
0000
,  // measure 46
1000
0000
0000
0000
,  // measure 47
0001
0000
0000
0000
,  // measure 48
1000
0000
0000
0000
,  // measure 49
0001
0000
0000
0000
,  // measure 50
0100
0000
0000
0000
,  // measure 51
0010
0000
0000
0000
,  // measure 52
0100
0000
0100
0000
,  // measure 53
0100
0000
0000
0000
,  // measure 54
1000
0000
0000
0000
,  // measure 55
0001
0000
0000
0000
,  // measure 56
1000
0000
1000
0000
,  // measure 57
1000
0000
1000
0000
,  // measure 58
1000
0000
0000
0000
,  // measure 59
0001
0000
0000
0000
,  // measure 60
0010
0000
0010
0000
,  // measure 61
0010
0000
0000
0000
,  // measure 62
0100
0000
0000
0000
,  // measure 63
0100
0000
0000
0000
,  // measure 64
0001
0000
0001
0000
,  // measure 65
0001
0000
0001
0000
,  // measure 66
1001
0000
0000
0000
,  // measure 67
0000
0000
0000
0000
,  // measure 68
0000
0000
0000
0000
,  // measure 69
0100
0000
0000
0000
,  // measure 70
0100
0000
0000
0000
,  // measure 71
0000
0000
0000
0010
,  // measure 72
0010
0000
0010
0000
,  // measure 73
0010
0000
0010
0000
,  // measure 74
1001
0000
0000
0000
,  // measure 75
1000
0000
1000
0000
,  // measure 76
1000
0000
0001
0000
,  // measure 77
1000
0000
0100
0000
,  // measure 78
0010
0000
0000
0001
,  // measure 79
0001
0000
0000
1000
,  // measure 80
1000
0000
1000
0000
,  // measure 81
0001
0000
0000
0000
;
