#TITLE:LIQUID RAIN;
#SUBTITLE:;
#ARTIST:Pink Pong;
#TITLETRANSLIT:;
#SUBTITLETRANSLIT:;
#ARTISTTRANSLIT:;
#CREDIT:;
#BANNER:bn.PNG;
#BACKGROUND:bg.PNG;
#LYRICSPATH:;
#CDTITLE:;
#MUSIC:LIQUID RAIN.mp3;
#OFFSET:-0.500;
#SAMPLESTART:31.780;
#SAMPLELENGTH:12.000;
#SELECTABLE:YES;
#BPMS:0.000=138.000;
#STOPS:36.000=1.304
,149.000=3.043
;
#BGCHANGES:;

//---------------dance-single - ----------------
#NOTES:
     dance-single:
     :
     Hard:
     8:
     0.543,0.550,0.000,0.342,0.608:
0000
0000
0000
0000
,
0000
0000
0000
0000
,
1000
0000
0000
0100
0000
0000
1000
0000
0000
0100
0000
0000
0010
0000
0100
0000
,
0010
0000
0000
1000
0000
0000
0100
0000
0000
0010
0000
0000
0001
0000
0100
0000
,
0010
0000
0000
1000
0000
0000
0100
0000
0000
0001
0000
0000
0010
0000
1000
0000
,
0010
0000
0000
0100
0000
0000
0010
0000
0000
1000
0000
0000
0001
0000
0100
0000
,
0010
0000
0000
0001
0000
0000
0100
0000
0000
1000
0000
0000
0100
0000
0010
0000
,
0001
0000
0000
0100
0000
0000
1000
0000
0000
0100
0000
0000
0010
0000
1000
0000
,
0001
0000
0000
0100
0000
0000
1000
0000
0000
0100
0000
0000
0010
0000
1000
0000
,
0001
0000
0000
0000
0010
0001
0010
0001
0000
0010
0001
0000
0020
0000
0000
0000
,
0030
0000
0100
0000
1000
0100
1000
0100
0000
1000
0100
0000
0020
0000
0000
0000
,
0030
0000
0010
0000
1000
0100
1000
0100
0000
0010
1000
0000
0002
0000
0000
0000
,
0003
0000
1000
0000
0010
1000
0010
0100
0000
0001
0010
0000
0002
0000
0000
0000
,
0003
0000
1000
0000
0010
0100
0010
0100
0000
1000
0100
0000
0020
0000
0000
0000
,
0030
0000
0100
0000
0001
1000
0010
0100
0000
1000
0100
0000
0020
0000
0000
0000
,
0030
0000
1000
0000
0001
0100
0001
1000
0000
0010
0100
0000
2000
0000
0000
0000
,
3000
0000
0001
0000
1000
0100
0010
0001
0000
1000
0100
0000
0020
0000
0000
0000
,
0000
0000
0000
0000
0130
0000
0000
0001
0000
0010
1000
0000
0100
0000
0000
1000
,
0000
0000
0100
0000
0010
0000
0000
0001
0000
0010
0100
0000
1000
0000
0000
0100
,
0000
0000
0010
0000
1000
0000
0000
0010
0000
0001
0100
0000
0010
0000
0000
1000
,
0000
0000
0100
0000
0010
0000
0000
1000
0000
0001
0100
0000
0010
0000
0000
1000
,
0000
0000
0100
0000
0010
0000
0000
0010
0000
0001
0100
0000
0010
0000
0000
1000
,
0000
0000
0100
0000
0010
0000
0000
1000
0000
0100
1000
0000
0010
0000
0000
0100
,
0000
0000
0010
0000
1000
0000
0000
0010
0000
0001
0100
0000
0010
0000
0000
1000
,
0000
0000
0100
0000
0010
0001
0100
0000
0010
0000
0100
0000
0010
0000
1000
0000
,
0010
0000
0001
0100
0020
0000
0000
0130
0000
0000
1000
0000
0200
0000
0000
0310
,
0000
0000
0001
0000
0200
0000
0000
1300
0000
0000
0100
0000
0020
0000
0000
1030
,
0000
0000
0001
0000
0200
0000
0000
0310
0000
0000
0100
0000
0020
0000
0000
0130
,
0000
0000
0100
0000
0002
0000
0000
0013
0000
0000
0100
0000
2000
0000
0000
3001
,
0000
0000
0010
0000
0200
0000
0000
0310
0000
0000
0001
0000
2000
0000
0000
3010
,
0000
0000
0100
0000
2000
0000
0000
3010
0000
0000
0001
0000
0200
0000
0000
0301
,
0000
0000
0010
0000
2000
0000
0000
3001
0000
0000
0100
0000
0002
0000
0000
0013
,
0000
0000
1000
0000
0200
0000
0000
0301
0000
0000
0200
0000
0002
0000
0000
0000
,
0000
0303
0000
0000
1000
0000
0000
0100
0000
0000
0010
0000
1000
0000
0000
0001
,
0000
0000
0100
0000
1000
0000
0000
0100
0000
0000
0010
0000
1000
0000
0100
0000
,
1000
0000
0100
0000
0010
0000
0000
0001
0000
0000
0100
0000
1000
0000
0000
0100
,
0000
0000
0010
0000
1000
0000
0000
0001
0000
0000
0001
0000
1000
0000
0100
0000
,
0020
0000
0000
0000
0030
0000
0000
0000
1000
0100
1000
0100
0000
0000
1000
0000
,
0010
0100
0010
0100
0000
0000
0010
0000
0001
0100
0001
0100
0000
0000
0001
0000
,
0010
1000
0001
0100
0000
0000
0001
0000
1000
0100
0010
0001
0000
0000
0010
0000
,
0100
1000
0100
1000
0000
0000
0010
0000
0100
0001
1000
0010
0000
0000
0100
0000
,
2000
0000
0000
3001
0000
0000
0000
0000
;

//---------------dance-single - ----------------
#NOTES:
     dance-single:
     :
     Medium:
     6:
     0.380,0.341,0.038,0.291,0.184:
0000
0000
0000
0000
,
0000
0000
0000
0000
,
0001
1000
0001
0100
,
0010
1000
0100
0010
,
0001
0100
1000
0001
,
0100
1000
0010
0100
,
0001
1000
0002
0000
1000
0000
1003
0000
,
1000
0100
0010
0001
,
0001
0100
0020
0000
0100
0000
0130
0000
,
1001
0001
0100
0020
,
0000
0130
0010
0000
1000
0000
0002
0000
,
0000
1003
0001
0000
0100
0000
0020
0000
,
0000
0130
0010
0000
1000
0000
0002
0000
,
0000
1003
0001
0000
1000
0000
0020
0000
,
0000
1030
0100
0000
1000
0000
0200
0000
,
0000
1300
0100
0000
0010
0000
0002
0000
,
0000
0013
0002
0000
0023
0000
0200
0000
,
0330
0000
0000
0000
0001
0000
0000
1000
0000
0000
0100
0000
1000
0000
0000
0100
,
0000
0000
0010
0000
0001
0000
0000
0010
0000
0000
0100
0000
1000
0000
0000
0001
,
0000
0000
0100
0000
0010
0000
0000
1000
0000
0000
0100
0000
0010
0000
0000
0001
,
0000
0000
0010
0000
0100
0000
0000
0010
0000
0000
0100
0000
0010
0000
0000
1000
,
0000
0000
0001
0000
1000
0000
0000
0100
0000
0000
1000
0000
0100
0000
0000
0010
,
0000
0000
0001
0000
0010
0000
0000
0100
0000
0000
1000
0000
0001
0000
0000
1000
,
0000
0000
0001
0000
0100
0000
0000
0010
0000
0000
1000
0000
0010
0000
0000
0000
,
0100
0020
0200
0000
0000
0000
0000
0000
,
0030
0000
0000
0000
0301
0000
0000
0001
0000
0000
1000
0000
0100
0000
0000
0010
,
0000
0000
0001
0000
0010
0000
0000
0100
0000
0000
1000
0000
0000
0000
0000
0001
,
0000
0000
0100
0000
1000
0000
0000
0100
0000
0000
0010
0000
0001
0000
0000
0010
,
0000
0000
0100
0000
0001
0000
0000
0100
0000
0000
0010
0000
1000
0000
0000
0010
,
0000
0000
1000
0000
1001
0000
0000
0001
0000
0000
1000
0000
0001
0000
0000
0010
,
0000
0000
0100
0000
1000
0000
0000
0100
0000
0000
1000
0000
0100
0000
0000
0010
,
0000
0000
0001
0000
0100
0000
0000
0001
0000
0000
0100
0000
1000
0000
0000
0100
,
0000
0000
1000
0000
0100
0000
0000
0010
0000
0000
0001
0000
0010
0000
0000
0100
,
0000
0001
2000
0000
0000
0000
3002
0000
,
0000
0203
0000
0320
,
0000
2030
0000
3002
,
0000
0203
0000
0320
,
0030
0000
1001
0000
0001
0100
0001
0000
,
1000
0100
1000
0000
0010
0100
0010
0000
,
0001
1000
0001
0000
1000
0100
1000
0000
,
0010
0001
0010
0000
0010
0100
0010
0000
,
2000
0000
0000
3001
0000
0000
0000
0000
;

//---------------dance-single - ----------------
#NOTES:
     dance-single:
     :
     Easy:
     2:
     0.119,0.157,0.013,0.177,0.000:
0000
0000
0000
0000
,
0000
0000
0000
0000
,
0001
0000
0000
0000
,
1000
0000
0000
0000
,
0100
0000
0000
0000
,
0010
0000
0000
0000
,
0002
0003
0000
0000
,
1000
0000
0000
0000
,
0200
0300
0000
0000
,
0110
0020
0000
0030
,
0000
0200
0000
0300
,
0000
2000
0000
3000
,
0000
0002
0000
0003
,
0000
0200
0000
0300
,
0000
0020
0000
0030
,
0000
2000
0000
3000
,
0000
0002
0000
0003
,
0000
1000
0000
0000
,
0000
0001
0000
0000
,
0000
0100
0000
0000
,
0000
0010
0000
0010
,
0000
0010
0000
0000
,
0000
0100
0000
0000
,
0000
1000
0000
0000
,
0002
2000
0000
0000
,
3003
0001
0000
0001
,
0000
1000
0000
1000
,
0000
0100
0000
0100
,
0000
0010
0000
0010
,
0000
1000
0000
0001
,
0000
0010
0000
0100
,
0000
0010
0000
0100
,
0000
1000
0000
0001
,
0000
2000
0000
0000
,
0000
0000
0000
0000
,
0000
0000
0000
0000
,
0000
0000
0000
0000
,
0000
3000
0001
0000
,
0001
0000
1000
0000
,
1000
0000
0100
0000
,
0010
0000
0100
0000
,
0002
0000
0000
0000
0000
0000
0000
0000
0000
0000
0000
0000
0000
0000
0000
0000
0000
0000
0000
0000
0000
0000
0000
0000
0000
0000
0000
0000
0000
0000
0000
0000
0000
0000
0000
0000
0000
0000
0000
0000
0000
0000
0000
0000
0000
0000
0000
0000
0000
0000
0000
0000
0000
0000
0000
0000
0000
0000
0000
0000
0000
0000
0000
0000
0000
0000
0000
0000
0000
0000
0000
0000
0000
0003
0000
0000
0000
0000
0000
0000
0000
0000
0000
0000
0000
0000
0000
0000
0000
0000
0000
0000
0000
0000
0000
0000
0000
0000
0000
0000
0000
0000
0000
0000
0000
0000
0000
0000
0000
0000
0000
0000
0000
0000
0000
0000
0000
0000
0000
0000
0000
0000
0000
0000
0000
0000
0000
0000
0000
0000
0000
0000
0000
0000
0000
0000
0000
0000
0000
0000
0000
0000
0000
0000
0000
0000
0000
0000
0000
0000
0000
0000
0000
0000
0000
0000
0000
0000
0000
0000
0000
0000
0000
0000
0000
0000
0000
0000
0000
0000
0000
0000
0000
0000
0000
0000
0000
0000
0000
0000
0000
0000
0000
0000
0000
0000
0000
0000
0000
0000
0000
0000
;

//---------------dance-single - ----------------
#NOTES:
     dance-single:
     :
     Beginner:
     1:
     0.054,0.077,0.000,0.000,0.000: // measure 1
0000
0000
0000
0000
,  // measure 2
0000
0000
0000
0000
,  // measure 3
0000
0000
0000
0000
,  // measure 4
0000
0000
0000
0000
,  // measure 5
0000
0000
0000
0000
,  // measure 6
0000
0000
0000
0000
,  // measure 7
0001
0000
0000
0000
,  // measure 8
0000
0000
0000
0000
,  // measure 9
1000
0000
0000
0000
,  // measure 10
0100
0001
0000
0000
,  // measure 11
0000
0100
0000
0000
,  // measure 12
0000
0010
0000
0000
,  // measure 13
0000
1000
0000
0000
,  // measure 14
0000
0001
0000
0000
,  // measure 15
0000
1000
0000
0000
,  // measure 16
0000
0100
0000
0000
,  // measure 17
0000
0010
0000
0000
,  // measure 18
0000
0001
0000
0000
,  // measure 19
0000
1000
0000
0000
,  // measure 20
0000
0100
0000
0000
,  // measure 21
0000
0000
0000
0000
,  // measure 22
0000
0010
0000
0000
,  // measure 23
0000
0001
0000
0000
,  // measure 24
0000
1000
0000
0000
,  // measure 25
0000
0000
0000
0000
,  // measure 26
0000
0100
0000
0000
,  // measure 27
0000
1000
0000
0000
,  // measure 28
0000
0001
0000
0000
,  // measure 29
0000
0010
0000
0000
,  // measure 30
0000
0100
0000
0000
,  // measure 31
0000
1000
0000
0000
,  // measure 32
0000
0001
0000
0000
,  // measure 33
0000
0100
0000
0000
,  // measure 34
0000
0010
0000
0000
,  // measure 35
0000
0000
0000
0000
,  // measure 36
0000
0000
0000
0000
,  // measure 37
0000
0000
0000
0000
,  // measure 38
0000
0000
0100
0000
,  // measure 39
0000
0000
0100
0000
,  // measure 40
0000
0000
0010
0000
,  // measure 41
0000
0000
0010
0000
;
