#TITLE:LEADING CYBER [A];
#SUBTITLE:;
#ARTIST:dj TAKA;
#TITLETRANSLIT:LEADING CYBER Another;
#SUBTITLETRANSLIT:;
#ARTISTTRANSLIT:;
#CREDIT:;
#BANNER:LEADING CYBER.png;
#BACKGROUND:LEADING CYBER-bg.png;
#LYRICSPATH:;
#CDTITLE:osx.png;
#MUSIC:Leading Cyber Another.mp3;
#OFFSET:0.280;
#SAMPLESTART:68.460;
#SAMPLELENGTH:15.000;
#SELECTABLE:YES;
#BPMS:0.000=150.020;
#STOPS:;
#BGCHANGES:;

//---------------dance-single - ----------------
#NOTES:
     dance-single:
     :
     Hard:
     9:
     0.586,0.647,0.235,0.088,0.245:
0000
0000
0000
0000
,
0000
0000
0000
0000
,
0000
0000
0000
0000
,
0000
0000
0000
0000
,
0000
0000
0000
0000
,
0000
0000
0000
0000
,
0010
1000
0010
0000
0001
0000
0101
0000
,
0001
0100
0001
0100
0010
1000
0010
0000
,
1000
0000
0100
0000
0010
0000
0000
0000
0001
0000
0000
1000
0001
0000
0000
0000
,
0010
0100
0010
1000
0010
0100
0001
0100
,
0010
0000
1000
0000
0010
0000
0010
0100
0010
0000
1000
0000
0010
0000
0100
0000
,
0001
0000
1000
0000
0010
0000
0100
0000
0010
0000
0100
1000
0100
0000
0000
0000
,
0010
0100
0010
1000
0001
0100
0010
1000
,
0001
0000
0100
0000
0010
0000
1000
0000
0010
0000
0001
0100
0001
0000
0000
0000
,
0010
0001
0010
0001
0010
0000
0011
0000
,
0010
0000
0001
0000
0010
0000
0100
0000
1000
0000
0100
0000
0010
0000
0010
0100
,
0010
1000
0100
0001
0010
0000
1010
0000
,
0010
0001
0100
1000
0010
0100
0010
1000
,
0002
0000
0000
0000
,
1003
0000
1000
0000
1100
0000
0000
0010
0100
0000
0010
0000
1000
0000
0000
0000
,
0001
0001
0001
0000
0010
0100
0010
0000
,
0010
0000
0010
0000
0010
0000
0000
0010
1000
0000
0001
0000
0010
0000
0000
0000
,
0001
0000
0000
1000
0000
0000
0100
0000
0000
0010
0000
0000
0001
0000
0100
0000
,
0010
0000
1000
0000
1010
0000
0000
0010
0100
0000
0010
0000
1000
0000
0000
0000
,
1000
0000
0000
0001
0000
0000
0100
0000
0000
0010
0000
0000
0100
0000
0000
0000
,
0010
0000
1000
0000
0010
0000
0000
0001
0100
0000
0010
0000
1000
0000
0000
0000
,
1000
0100
0000
0001
0010
0000
0001
0100
0000
0010
1000
0000
0001
0000
0010
0000
,
1001
0000
1010
0000
0101
0101
0000
0000
,
0010
0000
0100
0000
0010
0000
1000
0000
0010
1000
0010
1000
0010
0000
0000
0000
,
1010
0000
0000
0000
0101
0000
0000
1100
0000
0000
0011
0000
0000
0000
0000
0000
,
0110
0000
1010
0000
0101
0000
0000
0000
0001
0100
0001
0100
0001
0000
0000
1000
,
0100
0000
0000
0001
0100
0000
0000
0001
0010
0000
0000
1000
0010
0000
0000
1000
,
0100
0000
0000
0010
0001
0000
0000
0000
0001
0100
0001
0100
0001
0000
0000
0010
,
0100
0000
0000
0010
1000
0000
0000
0010
0100
0000
0000
0001
0100
0000
0000
1000
,
0010
0000
0000
0010
0001
0000
0000
0000
0010
0100
0010
0100
0010
0000
0000
0000
,
1000
0100
0010
0100
0001
1000
0010
0000
,
0010
1000
0020
1000
0130
0000
0101
0000
,
0010
0100
0020
0000
1030
0001
0200
0000
,
0301
0001
0011
0100
0101
0000
0101
0000
,
0010
1000
0010
0100
0010
1000
0020
0000
,
1030
0100
0010
1000
0001
0010
0200
0000
,
0310
0001
2000
0000
3001
0010
0200
0000
,
0310
0000
0100
0000
0010
0000
0100
0000
1000
0001
1000
0100
0010
0100
1000
0010
,
1000
0000
0100
0000
1000
0000
1000
0001
1000
0000
0100
0000
1000
0000
0001
0000
,
0010
0000
0100
0000
1000
0000
0001
0000
1000
0000
0010
0100
0010
0000
0000
0000
,
1000
0001
1000
0100
0010
0001
1000
0100
,
0010
0000
0001
0000
1000
0000
0100
0000
1000
0000
0010
0001
0010
0000
0000
0000
,
1000
0010
1000
0010
1000
0000
1010
0000
,
1000
0000
0010
0000
1000
0000
0001
0000
0100
0000
0001
0000
1000
0000
1000
0001
,
1000
0100
0001
0010
0100
0000
1100
0000
,
1000
0010
0001
0100
1000
0001
1000
0100
,
0001
0000
0010
0000
0001
0000
0001
1000
0001
0000
0010
0000
0001
0000
1000
0000
,
0100
0000
0010
0000
0001
0000
1000
0000
0001
0000
0100
0010
0100
0000
0000
0000
,
0001
1000
0001
0010
0100
1000
0001
0010
,
0100
0000
1000
0000
0001
0000
0010
0000
0001
0000
0100
1000
0100
0000
0000
0000
,
0001
0100
0001
0100
0001
0000
0101
0000
,
0001
0000
0100
0000
0001
0000
1000
0000
0010
0000
1000
0000
0001
0000
0001
1000
,
0001
1000
1000
0100
1000
0000
0011
0000
,
0001
0100
0001
0010
0001
1000
0001
0010
,
0200
0000
0000
0000
,
0300
0000
0000
0000
;

//---------------dance-single - ----------------
#NOTES:
     dance-single:
     :
     Medium:
     7:
     0.514,0.500,0.294,0.029,0.000:
0000
0000
0000
0000
,
0000
0000
0000
0000
,
0000
0000
0000
0000
,
0000
0000
0000
0000
,
0000
0000
0000
0000
,
0000
0000
0000
0000
,
0010
1000
0001
0100
0010
0000
0011
0000
,
0001
0100
0001
0100
0001
0001
0100
0000
,
0010
1000
0010
0000
1000
0000
1100
0000
,
0010
1000
0010
0000
0001
0100
0001
0000
,
0010
0001
0010
0100
1000
0100
0010
0001
,
0010
0100
1000
0100
0010
0001
0010
0000
,
0010
0100
0010
0100
0010
0100
0010
0100
,
0010
0100
0010
0100
0010
0100
0010
0000
,
1000
0100
0001
0010
0100
0000
1001
0000
,
0010
1000
0010
0010
0100
0001
0001
0000
,
0001
1000
0001
1000
0001
0000
1001
0000
,
0010
0010
1000
1000
0001
0001
0100
0010
,
1000
0000
0000
0000
,
0001
0001
0101
0000
0010
1000
0010
1000
,
0010
0010
0110
0000
1000
0100
1100
0000
,
0010
0010
0110
0000
0001
1000
0010
0000
,
1000
0100
0010
0001
0010
0100
2000
0000
,
3010
0100
0110
0000
0001
1000
0001
0000
,
0001
0010
0001
0010
0100
1000
0100
0000
,
0010
0010
0110
0000
1000
0001
1000
0000
,
0100
1000
0100
0010
0002
0000
0000
0000
,
1003
0000
1100
0000
1000
1000
0000
0000
,
1000
0100
0010
0001
0011
0000
0011
0000
,
0101
0000
1001
0000
0010
1000
0010
0000
,
1000
0100
0010
0000
0001
0001
0001
0000
,
1000
1100
0011
0110
,
0010
0001
0010
0100
0101
0000
0101
0000
,
0011
0000
0101
0000
0010
1000
1010
0000
,
0010
1000
0010
1000
0001
0000
1001
0000
,
1000
0100
1000
0000
0001
1000
0010
0000
,
0010
0100
0010
1000
0010
1000
0001
0000
,
0001
0000
0011
0000
0001
1000
0010
0000
,
1000
0100
0010
0000
0001
0010
0100
0000
,
1000
0100
0010
0000
0001
0010
0100
0000
,
1000
0100
0010
0000
0001
0010
0100
0000
,
1000
0100
0010
0000
0001
0010
0100
0000
,
1000
0100
0010
0001
0010
0100
0001
0010
,
1000
0100
0010
0000
0001
0100
0010
0000
,
1000
0000
1100
0000
0010
1000
0001
0000
,
0100
1000
0100
0000
0010
0100
0010
0000
,
0001
1000
0001
0010
0001
0010
0001
0000
,
1000
0100
1000
0100
1000
0000
1100
0000
,
0010
0010
1000
1000
0001
0100
0010
1000
,
0001
0100
0010
1000
0010
0000
0101
0000
,
0001
1000
0010
0100
0010
1000
0010
0000
,
0001
0100
0001
0100
0001
0100
0001
0100
,
0001
0100
0001
0100
0001
0100
0001
0000
,
0010
1000
0010
1000
0010
1000
0010
1000
,
0010
1000
0010
1000
0010
1000
0010
0000
,
1000
0100
0010
0001
0010
0000
0011
0000
,
0001
0001
0100
0010
1000
0001
0100
0010
,
1000
0100
0010
0001
0010
0000
1100
0000
,
1000
1000
0010
0100
0001
1000
0010
0100
,
0002
0000
0000
0000
,
0003
0000
0000
0000
;

//---------------dance-single - ----------------
#NOTES:
     dance-single:
     :
     Easy:
     6:
     0.430,0.530,0.373,0.088,0.000:
0000
0000
0000
0000
,
0000
0000
0000
0000
,
0000
0000
0000
0000
,
0000
0000
0000
0000
,
0000
0000
0000
0000
,
0000
0000
0000
0000
,
1001
0100
0010
0011
,
0001
0100
0001
0000
0010
1000
0010
0000
,
1000
0100
0010
1001
,
0010
0100
0010
0000
0010
1000
0010
0000
,
1000
0100
0010
0001
,
0010
0000
0100
0000
1000
0100
0100
0000
,
0010
1000
0001
0100
,
0010
0000
1000
0000
0001
0010
0100
0000
,
1000
0100
1000
0000
0010
0000
0011
0000
,
0001
0100
0001
0000
0010
0100
0010
0000
,
1000
0100
1000
0000
0010
0100
0001
0000
,
0010
0100
0010
0000
1000
0100
0010
0002
,
0200
0000
0000
0303
,
1000
1000
0100
0000
0010
0100
0010
0000
,
1000
0001
0100
0010
,
0001
0001
0101
0000
0010
0100
0010
0000
,
1000
0001
0100
0010
,
1000
0100
1000
0000
0010
0100
0010
0000
,
1000
0001
0010
0100
,
0001
0100
0001
0000
0010
0001
0010
0000
,
1000
0001
0002
0000
,
1003
0000
1100
0000
0010
0100
0010
0000
,
0001
1000
0001
0000
1001
0000
1001
0000
,
0110
0000
1010
0000
0001
0100
0001
0000
,
1000
0000
0100
0000
0010
0010
0010
0000
,
1100
0101
0011
1010
,
1100
0000
0011
0000
0001
0001
0101
0000
,
0110
1010
0101
0110
,
1010
0100
0011
0110
,
0020
0031
2000
3010
,
0001
0100
0002
0000
0010
0000
0103
0000
,
1000
0000
0100
0000
0001
0100
0001
0000
,
0010
1000
0020
0000
1000
0000
0130
0000
,
0100
1000
0100
0000
1000
0000
1100
0000
,
0010
0100
0010
0000
0110
0000
0110
0000
,
0001
0010
0001
0000
0100
1000
0100
0000
,
0001
0010
0100
1000
0100
0010
0001
0010
,
0100
1000
0100
0000
0010
0000
1001
0000
,
0010
0000
0100
0000
1000
0100
1000
0000
,
0010
0100
0010
1000
,
0010
0000
1000
0000
0010
1000
0001
0000
,
0001
1000
0001
0000
0100
0000
0110
0000
,
0010
0010
0010
0010
,
0010
1000
0001
0000
1000
0000
1100
0000
,
0001
1000
0001
0000
0001
0100
0001
0000
,
0101
1010
0110
1001
,
0001
0100
0010
0100
0010
0100
0010
0000
,
0010
1000
0001
0100
,
0010
0000
1000
0000
0010
1000
0010
0000
,
1000
1000
1000
0000
0001
0000
0101
0000
,
0001
0001
1000
1000
,
0001
1000
0001
0000
0100
0000
0010
0000
,
0110
0010
1010
0001
,
2200
0000
0000
0000
,
3300
0000
0000
0000
;

//---------------dance-single - ----------------
#NOTES:
     dance-single:
     :
     Beginner:
     1:
     0.101,0.116,0.059,0.000,0.000: // measure 1
0000
0000
0000
0000
,  // measure 2
0000
0000
0000
0000
,  // measure 3
0000
0000
0000
0000
,  // measure 4
0000
0000
0000
0000
,  // measure 5
0000
0000
0000
0000
,  // measure 6
0000
0000
0000
0000
,  // measure 7
0001
0000
0000
1000
,  // measure 8
1000
0000
0000
0000
,  // measure 9
0010
0000
0000
0100
,  // measure 10
0100
0000
0000
0000
,  // measure 11
0010
0000
0000
0000
,  // measure 12
0010
0000
0000
0000
,  // measure 13
1000
0000
0000
0000
,  // measure 14
0001
0000
0000
0000
,  // measure 15
1000
0000
0000
0001
,  // measure 16
0001
0000
0000
0000
,  // measure 17
0100
0000
0000
0010
,  // measure 18
0010
0000
0000
0000
,  // measure 19
1000
0000
0000
0000
,  // measure 20
1001
0000
0010
0000
,  // measure 21
0000
0000
0000
0000
,  // measure 22
1001
0000
0100
0000
,  // measure 23
0000
0000
0000
0000
,  // measure 24
0110
0000
1000
0000
,  // measure 25
0000
0000
0000
0000
,  // measure 26
0110
0000
0001
0000
,  // measure 27
0000
0000
0000
0000
,  // measure 28
0010
0000
0000
0000
,  // measure 29
0010
0000
0000
0000
,  // measure 30
1000
0000
0000
0000
,  // measure 31
0001
0000
0000
0000
,  // measure 32
0100
0000
0000
0000
,  // measure 33
0010
0000
0000
0000
,  // measure 34
1000
0000
0000
0000
,  // measure 35
0001
0000
0000
0000
,  // measure 36
1000
0000
0000
0000
,  // measure 37
0001
0000
1000
0000
,  // measure 38
0100
0000
0000
0000
,  // measure 39
0100
0000
1000
0000
,  // measure 40
0010
0000
0000
0000
,  // measure 41
0010
0000
0000
0000
,  // measure 42
0010
0000
0010
0000
,  // measure 43
0010
0000
0000
0000
,  // measure 44
1001
0000
0000
0000
,  // measure 45
0001
0000
0000
0000
,  // measure 46
1000
0000
0000
0000
,  // measure 47
0010
0000
0000
0000
,  // measure 48
0100
0000
0000
0100
,  // measure 49
0100
0000
0000
0000
,  // measure 50
0010
0000
0000
0010
,  // measure 51
0010
0000
0000
0000
,  // measure 52
1000
0000
0000
0000
,  // measure 53
0001
0000
0000
0000
,  // measure 54
0100
0000
0000
0000
,  // measure 55
0010
0000
0000
0000
,  // measure 56
1000
0000
0000
0001
,  // measure 57
0001
0000
0000
0000
,  // measure 58
0100
0000
0000
0010
,  // measure 59
0010
0000
1000
0000
,  // measure 60
1001
0000
0000
0000
;
