#TITLE:LAST CHRISTMAS;
#SUBTITLE:;
#ARTIST:ROSE;
#TITLETRANSLIT:;
#SUBTITLETRANSLIT:;
#ARTISTTRANSLIT:;
#CREDIT:;
#BANNER:bn.PNG;
#BACKGROUND:bg.PNG;
#LYRICSPATH:;
#CDTITLE:;
#MUSIC:Last Christmas.mp3;
#OFFSET:-0.040;
#SAMPLESTART:56.200;
#SAMPLELENGTH:12.000;
#SELECTABLE:YES;
#BPMS:0.000=85.360,32.000=170.720,192.000=85.360,208.000=170.720;
#STOPS:;
#BGCHANGES:;

//---------------dance-single - ----------------
#NOTES:
     dance-single:
     :
     Hard:
     7:
     0.436,0.666,0.200,0.184,0.120: // measure 1
0000
0000
0000
0000
,  // measure 2
0000
0000
0000
0000
,  // measure 3
0000
0000
0000
0000
,  // measure 4
0000
0000
0000
0000
,  // measure 5
1000
0000
0000
0100
0000
1000
0000
1000
0100
0010
0001
0010
0000
0000
0001
0100
,  // measure 6
0001
0100
0001
0000
0100
0000
0000
0000
1000
0000
0100
0000
0010
0000
0010
0000
,  // measure 7
0200
0000
0000
0310
0000
0000
0000
0000
1000
0100
0010
0001
0000
0000
0000
0000
,  // measure 8
0001
0000
0000
0100
0000
1000
0000
0002
0000
0200
0000
0000
0000
0000
0303
0000
,  // measure 9
1000
0001
0100
0010
,  // measure 10
1000
0000
0100
0000
0010
0000
0001
0100
,  // measure 11
0001
0100
0010
1000
,  // measure 12
0001
0000
1000
0000
0100
0000
1000
0100
,  // measure 13
1000
0000
0010
0000
0010
0100
0010
0000
,  // measure 14
1000
0000
0001
0000
0100
0001
0100
0000
,  // measure 15
0001
0000
0100
0000
1000
0100
1000
0000
,  // measure 16
1100
0010
0011
0100
,  // measure 17
1001
0000
0001
0000
1000
0100
0000
1000
,  // measure 18
0100
0010
0001
0010
0000
0000
0002
0000
,  // measure 19
0103
0001
0100
0000
0001
0100
0001
0000
,  // measure 20
1000
0100
0000
1000
0000
0100
0000
1000
,  // measure 21
0000
0000
1000
0100
0010
0000
0001
0000
,  // measure 22
1000
0001
1000
0001
1000
0000
0001
0000
,  // measure 23
0101
0000
0000
0110
0000
0000
1000
0000
,  // measure 24
1000
0100
0010
0001
0000
0010
0000
0000
,  // measure 25
0001
0100
0001
0000
1000
0000
1100
0000
,  // measure 26
0010
1000
0010
0000
0100
0000
0110
0000
,  // measure 27
1000
0100
1000
0000
0100
0000
0110
0000
,  // measure 28
0001
0010
0100
2000
0000
0000
0000
3000
,  // measure 29
0000
0100
0000
0000
1000
0000
0000
0100
,  // measure 30
0000
1000
0100
0010
0001
0000
0010
0000
,  // measure 31
0100
0001
0100
1000
,  // measure 32
0001
0010
0100
1000
0000
0000
0000
0000
,  // measure 33
2100
0000
0000
0010
0000
3001
0000
0001
,  // measure 34
1000
0000
1000
0001
0000
0000
1000
0100
,  // measure 35
0010
0001
0010
0000
0001
0000
0000
0001
,  // measure 36
0010
0100
1000
0100
1000
0100
1000
0100
,  // measure 37
2000
0000
0000
3100
0000
0000
0000
0000
,  // measure 38
0010
0001
0010
0100
0000
0000
0000
0000
,  // measure 39
1001
0000
0000
0010
0000
0010
0000
0020
,  // measure 40
0000
0200
0000
0000
0000
0000
0330
0000
,  // measure 41
1000
0100
0010
0001
,  // measure 42
0100
0000
0010
0000
1000
0000
0001
1000
,  // measure 43
0001
1000
0100
0010
,  // measure 44
0001
0000
0100
0000
0010
1000
0010
1000
,  // measure 45
0010
0000
1000
0000
0001
1000
0001
0000
,  // measure 46
0100
0000
1000
0000
0100
1000
0100
0000
,  // measure 47
0020
1030
0002
0103
,  // measure 48
0001
1000
0100
0010
,  // measure 49
0000
0000
1000
0000
0100
1000
0000
1000
0100
0010
0001
0010
0000
0000
0000
0000
,  // measure 50
0000
0000
0001
0000
0010
0000
0000
0000
0100
1000
0000
0100
0000
1000
0000
0100
,  // measure 51
0000
0000
1000
0100
0010
0001
0000
0000
0001
1000
0001
2000
0000
3001
0000
0000
,  // measure 52
0010
0000
0100
0000
1000
0000
0010
0000
0001
0100
0010
2000
0000
3010
0000
0000
,  // measure 53
1100
1000
1000
1000
,  // measure 54
0001
0001
0001
0001
,  // measure 55
0100
0100
0100
0100
,  // measure 56
0010
0010
0010
0010
,  // measure 57
1000
0001
0100
0010
,  // measure 58
1000
0010
0100
0001
,  // measure 59
0010
0100
1000
0010
,  // measure 60
0001
1000
0001
1000
0000
0000
0000
0000
,  // measure 61
1100
0000
0000
0020
0000
0130
0000
1000
,  // measure 62
0100
0010
0001
0010
0000
0000
0001
0100
,  // measure 63
0001
0100
1000
0000
,  // measure 64
0001
1000
0001
2000
0001
0000
3001
0000
,  // measure 65
1002
0000
0000
1003
0000
0000
0000
0000
,  // measure 66
2100
0000
0000
3100
0000
0000
0000
0000
,  // measure 67
1100
0000
0000
0101
0000
1100
0000
0101
,  // measure 68
0000
1100
0000
0000
0000
0000
0000
0000
,  // measure 69
0110
0000
0000
0010
0000
0100
0000
1000
,  // measure 70
0100
0010
0001
0010
0000
0000
0001
0100
,  // measure 71
0001
0100
0110
0000
,  // measure 72
1000
0100
1000
0000
0020
0000
1000
0000
,  // measure 73
2030
0000
0000
3001
0000
0000
0000
0000
,  // measure 74
0010
0100
0010
0200
0000
0000
0000
0000
,  // measure 75
1300
0000
0000
1001
0000
1100
0000
0011
,  // measure 76
0000
0102
0000
2003
0000
0200
0000
3300
;

//---------------dance-single - ----------------
#NOTES:
     dance-single:
     :
     Medium:
     5:
     0.330,0.363,0.112,0.136,0.000: // measure 1
0000
0000
0000
0000
,  // measure 2
0000
0000
0000
0000
,  // measure 3
0000
0000
0000
0000
,  // measure 4
0000
0000
0000
0000
,  // measure 5
1000
0000
0001
0000
0100
0001
0100
0000
,  // measure 6
0001
0000
1000
0000
1000
0100
1000
0000
,  // measure 7
0002
0103
2000
3100
,  // measure 8
0010
1000
0002
0003
,  // measure 9
1000
0100
1000
0100
,  // measure 10
0010
0001
0100
1000
,  // measure 11
0001
1000
0001
1000
,  // measure 12
0010
1000
0001
0100
,  // measure 13
0002
1003
0100
0010
,  // measure 14
0002
0013
0100
1000
,  // measure 15
0200
1300
0020
1030
,  // measure 16
1001
1000
0100
0010
,  // measure 17
0001
1000
0001
0100
,  // measure 18
0010
0000
1000
0000
0100
0000
1000
0100
,  // measure 19
1000
0100
0010
0001
,  // measure 20
0100
0001
1000
0001
,  // measure 21
0100
0000
0001
0100
0001
0000
0100
0000
,  // measure 22
0001
0010
1000
0001
,  // measure 23
1000
0100
0010
0001
,  // measure 24
1000
0001
1000
0000
0001
0000
0100
0000
,  // measure 25
0100
0101
1000
0100
,  // measure 26
1000
0000
0100
1000
0100
0000
1000
0000
,  // measure 27
0010
1010
1000
0100
,  // measure 28
0010
0001
0100
1000
,  // measure 29
0001
1001
1000
0100
,  // measure 30
0010
0001
0100
0001
,  // measure 31
1000
0100
0010
0001
,  // measure 32
1000
0001
0000
0001
1000
0000
0000
0000
,  // measure 33
1001
0000
0000
1000
0000
0001
0000
1000
,  // measure 34
0001
0000
0001
1000
0000
0000
1000
0000
,  // measure 35
0100
0010
0011
0000
,  // measure 36
0001
0100
0001
0100
0001
0000
0001
0000
,  // measure 37
2000
0000
0000
3001
0000
0000
0000
0000
,  // measure 38
1000
0000
0000
0100
0000
0000
0000
0000
,  // measure 39
0010
0000
0000
0001
0000
0010
0000
0100
,  // measure 40
0000
1000
0000
0000
0000
0000
0000
0000
,  // measure 41
1000
1000
0001
0001
,  // measure 42
0100
0000
0100
0000
0010
0000
0010
1000
,  // measure 43
0010
1000
0100
0010
,  // measure 44
0001
0000
0100
0000
1000
0000
0001
1000
,  // measure 45
0002
1003
0001
1000
,  // measure 46
0100
0000
0010
0000
0001
0000
0100
0001
,  // measure 47
0100
0001
0010
1000
,  // measure 48
0100
0010
0001
1000
,  // measure 49
0001
0000
0000
0000
,  // measure 50
1000
0000
0000
0000
,  // measure 51
0100
0000
0000
0000
,  // measure 52
0010
0000
0000
0000
,  // measure 53
0001
1000
0001
1000
,  // measure 54
0001
0100
0010
1000
,  // measure 55
0010
1000
0100
0010
,  // measure 56
0001
0010
0100
1000
,  // measure 57
0001
1000
0001
0100
,  // measure 58
0010
1000
0100
0010
,  // measure 59
0001
0100
1000
0010
,  // measure 60
1000
1000
0000
1001
0000
0000
0000
0000
,  // measure 61
1000
0000
0000
0001
0000
1000
0000
0000
,  // measure 62
1000
0100
0000
1000
,  // measure 63
0100
0010
0001
0000
,  // measure 64
1000
0001
0101
0101
,  // measure 65
0102
0000
0000
0103
0000
0000
0000
0000
,  // measure 66
2000
0000
0000
3100
0000
0000
0000
0000
,  // measure 67
1100
0000
0000
0001
0000
2000
0000
0001
,  // measure 68
0000
0002
0000
0000
0000
0000
3003
0000
,  // measure 69
1001
0000
0000
1000
0000
1100
0000
0000
,  // measure 70
2000
0000
0000
3100
0000
0000
1000
0100
,  // measure 71
1000
0010
0001
0000
,  // measure 72
0100
0001
1000
1000
,  // measure 73
1001
0000
0000
1000
0000
0000
0000
0000
,  // measure 74
0002
0000
0000
0103
0000
0000
0000
0000
,  // measure 75
1000
0000
0000
0100
0000
0010
0000
0002
,  // measure 76
0000
2000
0000
0000
0000
0000
0000
3003
;

//---------------dance-single - ----------------
#NOTES:
     dance-single:
     :
     Easy:
     3:
     0.164,0.273,0.040,0.120,0.000: // measure 1
0000
0000
0000
0000
,  // measure 2
0000
0000
0000
0000
,  // measure 3
0000
0000
0000
0000
,  // measure 4
0000
0000
0000
0000
,  // measure 5
0001
0000
0000
0000
,  // measure 6
1000
0000
0000
0000
,  // measure 7
0100
0000
0000
0000
,  // measure 8
0010
0000
0000
0000
,  // measure 9
1000
0000
0001
0000
,  // measure 10
1000
0000
0001
0000
,  // measure 11
0100
0000
0010
0000
,  // measure 12
0100
0000
0010
0000
,  // measure 13
1000
0000
0000
0000
,  // measure 14
0001
0000
0000
0000
,  // measure 15
0100
0000
0010
0000
,  // measure 16
0100
0000
0000
0000
,  // measure 17
0000
1000
0000
1000
,  // measure 18
0000
0001
0000
0001
,  // measure 19
0000
0100
0000
0010
,  // measure 20
0000
1000
0000
0001
,  // measure 21
0000
1000
0000
0001
,  // measure 22
0000
0100
0000
0001
,  // measure 23
0000
1000
0000
0001
,  // measure 24
1000
0000
0000
0000
,  // measure 25
1001
0010
0010
0000
,  // measure 26
1000
1000
1000
0000
,  // measure 27
0001
0001
0001
0000
,  // measure 28
0100
0100
0100
0000
,  // measure 29
0010
0100
0010
0000
,  // measure 30
1000
0100
1000
0000
,  // measure 31
0010
0001
0100
0001
,  // measure 32
1001
0000
0000
0000
,  // measure 33
2000
0000
3000
0000
,  // measure 34
0001
0100
0001
0000
,  // measure 35
0002
0000
0013
0000
,  // measure 36
0100
0010
0000
0000
,  // measure 37
2000
0000
3000
0000
,  // measure 38
0002
0000
0003
0000
,  // measure 39
0200
0000
0300
0000
,  // measure 40
0020
0000
0000
0030
,  // measure 41
1000
0000
1000
0000
,  // measure 42
0001
0000
0001
0000
,  // measure 43
0100
0000
0100
0000
,  // measure 44
0010
0000
0010
0000
,  // measure 45
2000
0000
0000
3000
,  // measure 46
0002
0000
0000
0003
,  // measure 47
0200
0000
0000
0300
,  // measure 48
0020
0000
0000
0000
,  // measure 49
0030
0000
0000
0000
,  // measure 50
0000
0000
0000
0000
,  // measure 51
0000
0000
0000
0000
,  // measure 52
0000
0000
0000
0000
,  // measure 53
1000
0000
0000
0000
,  // measure 54
0001
0000
0000
0000
,  // measure 55
0100
0000
0000
0000
,  // measure 56
0010
0000
0000
0000
,  // measure 57
1000
0000
0000
0000
,  // measure 58
0001
0000
0000
0000
,  // measure 59
0100
0000
0010
0000
,  // measure 60
0110
0000
0000
0000
,  // measure 61
0010
1000
0010
0100
,  // measure 62
0001
0100
0001
1000
,  // measure 63
0001
1000
0001
0000
,  // measure 64
1000
0000
0001
0001
,  // measure 65
0001
0000
0000
0000
,  // measure 66
1000
0000
0000
0000
,  // measure 67
0110
0000
0010
0000
,  // measure 68
0100
0000
0000
0000
,  // measure 69
2000
0000
0000
0000
,  // measure 70
0001
0001
3001
0001
,  // measure 71
0100
0001
0100
0000
,  // measure 72
0011
0000
0100
0100
,  // measure 73
0002
0000
0003
0000
,  // measure 74
2000
0000
3000
0000
,  // measure 75
0010
0000
1000
0000
,  // measure 76
0002
0000
0000
0000
0000
0000
0000
0000
0000
0000
0000
0000
0000
0000
0000
0000
0000
0000
0000
0000
0000
0000
0000
0000
0000
0000
0000
0000
0000
0000
0000
0000
0000
0000
0000
0000
0000
0000
0000
0000
0000
0000
0000
0000
0000
0000
0000
0000
0000
0000
0000
0000
0000
0000
0000
0000
0000
0000
0000
0000
0000
0000
0000
0000
0000
0000
0000
0000
0000
0000
0000
0000
0000
0000
0000
0000
0000
0000
0000
0000
0000
0000
0000
0000
0000
0000
0000
0000
0000
0000
0000
0000
0000
0000
0000
0000
2000
0000
0000
0000
0000
0000
0000
0000
0000
0000
0000
0000
0000
0000
0000
0000
0000
0000
0000
0000
0000
0000
0000
0000
0000
0000
0000
0000
0000
0000
0000
0000
0000
0000
0000
0000
0000
0000
0000
0000
0000
0000
0000
0000
0000
0000
0000
0000
0000
0000
0000
0000
0000
0000
0000
0000
0000
0000
0000
0000
0000
0000
0000
0000
0000
0000
0000
0000
0000
0000
0000
0000
0000
3003
0000
0000
0000
0000
0000
0000
0000
0000
0000
0000
0000
0000
0000
0000
0000
0000
0000
0000
0000
0000
0000
0000
;

//---------------dance-single - ----------------
#NOTES:
     dance-single:
     :
     Beginner:
     1:
     0.074,0.120,0.024,0.000,0.000: // measure 1
0000
0000
0000
0000
,  // measure 2
0000
0000
0000
0000
,  // measure 3
0000
0000
0000
0000
,  // measure 4
0000
0000
0000
0000
,  // measure 5
1000
0000
0000
0000
,  // measure 6
0000
0000
0000
0000
,  // measure 7
0001
0000
0000
0000
,  // measure 8
0000
0000
0000
0000
,  // measure 9
0100
0000
0000
0000
,  // measure 10
0100
0000
0000
0000
,  // measure 11
0100
0000
0000
0000
,  // measure 12
0100
0000
0000
0000
,  // measure 13
1000
0000
0000
0000
,  // measure 14
1000
0000
0000
0000
,  // measure 15
0001
0000
0000
0000
,  // measure 16
0010
0000
0000
0000
,  // measure 17
0100
0000
0000
0000
,  // measure 18
0000
0000
0000
0000
,  // measure 19
1000
0000
0000
0000
,  // measure 20
0000
0000
0000
0000
,  // measure 21
0001
0000
0000
0000
,  // measure 22
0000
0000
0000
0000
,  // measure 23
0010
0000
0000
0000
,  // measure 24
0000
0000
0000
0000
,  // measure 25
0100
0000
0000
0000
,  // measure 26
0100
0000
0000
0000
,  // measure 27
0010
0000
0000
0000
,  // measure 28
0010
0000
0000
0000
,  // measure 29
0001
0000
0000
0000
,  // measure 30
1000
0000
0000
0000
,  // measure 31
0001
0000
0000
0000
,  // measure 32
0100
0000
0000
0000
,  // measure 33
1001
0000
0000
0000
,  // measure 34
0000
0000
0000
0000
,  // measure 35
1000
0000
0000
0000
,  // measure 36
0000
0000
0000
0000
,  // measure 37
0001
0000
0000
0000
,  // measure 38
1000
0000
0000
0000
,  // measure 39
0001
0000
1000
0000
,  // measure 40
0001
0000
0000
0000
,  // measure 41
0100
0000
0000
0000
,  // measure 42
0100
0000
0000
0000
,  // measure 43
0001
0000
0000
0000
,  // measure 44
1000
0000
0000
0000
,  // measure 45
0100
0000
0000
0000
,  // measure 46
0010
0000
0000
0000
,  // measure 47
0001
0000
0000
0000
,  // measure 48
1000
0000
0000
0000
,  // measure 49
0000
0000
0000
0000
,  // measure 50
0000
0000
0000
0000
,  // measure 51
0000
0000
0000
0000
,  // measure 52
0000
0000
0000
0000
,  // measure 53
0010
0000
0000
0000
,  // measure 54
0010
0000
0000
0000
,  // measure 55
0100
0000
0000
0000
,  // measure 56
0100
0000
0000
0000
,  // measure 57
1000
0000
0000
0000
,  // measure 58
0001
0000
0000
0000
,  // measure 59
1000
0000
0000
0000
,  // measure 60
1001
0000
0000
0000
,  // measure 61
0100
0000
0000
0000
,  // measure 62
0100
0000
0000
0000
,  // measure 63
0010
0000
0000
0000
,  // measure 64
0010
0000
0000
0000
,  // measure 65
1000
0000
0000
0000
,  // measure 66
1000
0000
0000
0000
,  // measure 67
0001
0000
0000
0000
,  // measure 68
0000
0000
0000
0000
,  // measure 69
1001
0000
0000
0000
,  // measure 70
0001
0000
0000
0000
,  // measure 71
1000
0000
1000
0000
,  // measure 72
0001
0000
0000
0000
,  // measure 73
0100
0000
0000
0000
,  // measure 74
0010
0000
0000
0000
,  // measure 75
1000
0000
0001
0000
,  // measure 76
1000
0000
0000
0000
;
