#TITLE:Kung-fu Empire;
#SUBTITLE:;
#ARTIST:Nekomata Master;
#TITLETRANSLIT:;
#SUBTITLETRANSLIT:;
#ARTISTTRANSLIT:;
#CREDIT:;
#BANNER:bn.PNG;
#BACKGROUND:bg.PNG;
#LYRICSPATH:;
#CDTITLE:kxlxj.png;
#MUSIC:Kung-fu Empire.mp3;
#OFFSET:-0.060;
#SAMPLESTART:92.120;
#SAMPLELENGTH:12.000;
#SELECTABLE:YES;
#BPMS:0.000=177.000;
#STOPS:;
#BGCHANGES:;

//---------------dance-single - ----------------
#NOTES:
     dance-single:
     :
     Hard:
     8:
     0.489,0.598,0.007,0.051,0.048: // measure 1
0000
0000
0000
0000
,  // measure 2
0000
0000
0000
0000
,  // measure 3
0000
0000
0000
0000
,  // measure 4
0000
0000
0000
0000
,  // measure 5
0000
0000
0000
0000
,  // measure 6
0000
0000
0000
0000
,  // measure 7
0001
0000
1000
0100
0000
0010
0001
0010
,  // measure 8
0100
0000
1000
0001
,  // measure 9
0000
0100
0000
0010
0000
0000
0000
1000
,  // measure 10
0100
0010
0001
0010
0100
1000
0001
1000
,  // measure 11
0100
0000
0000
0000
0000
0000
0010
1000
,  // measure 12
0000
0000
0000
0000
0000
0000
1000
0100
,  // measure 13
0000
0000
0000
0000
,  // measure 14
0000
0000
0000
0001
0010
0100
1000
0100
,  // measure 15
0000
0000
0000
0000
0000
0000
0010
0001
,  // measure 16
0000
0000
0000
0000
0000
0000
0100
0001
,  // measure 17
0000
0000
0000
0000
,  // measure 18
0000
0000
0000
0010
0100
0010
1000
0001
,  // measure 19
0000
0000
0000
0000
0000
0000
1000
0100
,  // measure 20
0000
0000
0010
0001
0000
0000
0100
0001
,  // measure 21
0100
0000
0000
1000
0000
0000
0010
0000
,  // measure 22
0100
0000
0000
1000
0001
1000
0100
0010
,  // measure 23
0000
0000
0001
0000
0100
0000
1000
0100
,  // measure 24
0000
0010
0001
0010
0000
0100
0010
0100
,  // measure 25
1000
0000
0100
1000
0000
1000
0100
0000
,  // measure 26
0010
0000
0001
0000
0100
0001
0100
0000
,  // measure 27
1010
0000
0010
0000
0100
1000
0000
1000
,  // measure 28
0000
0100
0000
1000
0100
0010
0001
0000
,  // measure 29
0010
0000
0100
1000
0000
0100
0000
0001
,  // measure 30
0000
0001
1000
0001
1000
0010
1000
0010
,  // measure 31
1000
0100
1000
0000
0010
0001
0010
0000
,  // measure 32
0100
0001
0100
0000
0010
1000
0010
0000
,  // measure 33
0001
1000
0001
0000
0100
1000
0100
0000
,  // measure 34
0010
0000
0100
0000
0001
1000
0001
0000
,  // measure 35
0100
1000
0100
0010
0001
0010
0200
0000
,  // measure 36
0000
1300
0100
0010
0001
0000
0100
0001
,  // measure 37
0100
0001
1000
0010
1000
0010
1000
0001
,  // measure 38
1000
0100
0010
0001
,  // measure 39
1000
0100
0010
0001
,  // measure 40
0100
0000
0001
0100
0001
0000
0010
1000
,  // measure 41
0010
0000
0001
0100
0001
0000
1000
0100
,  // measure 42
1000
0100
0010
0001
0010
0100
1000
0000
,  // measure 43
0001
1000
0010
1000
0010
1000
0020
0000
,  // measure 44
0000
1030
0100
0010
0001
0000
0001
0100
,  // measure 45
0001
1000
0001
1000
0010
1000
0010
1000
,  // measure 46
0100
0010
0001
0010
0100
1000
0100
0001
,  // measure 47
1000
0001
0100
1000
,  // measure 48
0100
0000
0010
0000
0001
0000
0100
0001
,  // measure 49
0100
0000
0010
1000
0010
0000
0001
0100
,  // measure 50
0001
0100
0001
1000
0010
0100
0001
1000
,  // measure 51
0001
1000
0100
0010
0001
0010
0000
0001
,  // measure 52
0010
0001
0010
0001
0000
1000
0100
1000
,  // measure 53
0100
0010
1000
0010
1000
0010
0001
1000
,  // measure 54
0100
0010
0001
0010
1000
0001
1000
0001
,  // measure 55
1000
0100
0010
0001
0010
0100
0000
1000
,  // measure 56
0100
0010
0001
0010
0000
1000
0001
0100
,  // measure 57
0010
1000
0010
1000
0001
0100
0000
1000
,  // measure 58
0100
0010
0001
0000
1000
0010
1000
0010
,  // measure 59
1000
0100
0010
0001
0010
0000
0000
0010
,  // measure 60
0100
0010
1000
0001
0000
0000
0000
0000
,  // measure 61
1000
0000
0000
0001
0000
0000
0001
1000
,  // measure 62
0100
0010
0100
0010
1000
0010
1000
0010
,  // measure 63
0001
0010
0100
1000
0100
0010
0000
0001
,  // measure 64
1000
0010
1000
0001
0000
0000
0000
0000
,  // measure 65
1000
0000
0000
0001
0000
0000
0000
0000
,  // measure 66
0100
0001
0010
0100
,  // measure 67
1000
0000
0000
0000
,  // measure 68
0000
0000
0000
0000
0000
0000
0000
0000
0001
0000
0000
0000
0000
0000
0000
0001
,  // measure 69
0100
0000
0000
0000
0010
0000
0000
0010
0100
0000
0000
1000
0200
0000
0000
0000
,  // measure 70
0000
1300
0100
0010
0001
0010
0100
0001
,  // measure 71
0100
0000
0000
0010
1000
0000
0000
1000
,  // measure 72
0100
0000
0001
0000
0010
0000
0001
0000
0010
0000
0100
0000
1000
0000
0000
1000
,  // measure 73
0010
0000
0000
0001
0100
0000
0000
0010
0100
0000
0000
0100
1000
0000
0000
0000
,  // measure 74
0000
1000
0100
0010
0001
0010
0100
0001
,  // measure 75
2000
0000
0000
0000
0000
0000
3001
0100
,  // measure 76
0010
0001
0010
0100
1000
0010
1000
0100
,  // measure 77
0001
0000
0000
0000
1000
0000
0000
1000
0001
0000
0000
0100
0002
0000
0000
0000
,  // measure 78
0000
0103
0001
1000
0010
1000
0001
0010
,  // measure 79
0001
0000
0000
1000
0100
0000
0000
0100
,  // measure 80
0001
0000
0010
0000
1000
0000
0010
0000
1000
0000
0001
0000
0100
0000
0000
0100
,  // measure 81
1000
0000
0000
0010
0001
0000
0000
1000
0001
0000
0000
0001
0100
0000
0000
0000
,  // measure 82
0000
0100
0001
1000
0010
1000
0001
0010
,  // measure 83
0200
0000
0000
0000
0000
0000
0310
0001
,  // measure 84
1000
0010
1000
0001
0100
1000
0100
0010
,  // measure 85
0100
1000
0100
0010
,  // measure 86
0001
0000
0100
0010
1000
0010
1000
0010
,  // measure 87
1000
0100
0010
0001
,  // measure 88
0100
1000
0010
1000
,  // measure 89
0001
0100
1000
0100
,  // measure 90
0010
0000
0001
1000
0001
1000
0010
1000
,  // measure 91
0001
0100
1000
0100
,  // measure 92
0010
0001
0010
0100
,  // measure 93
2000
0000
0000
0000
,  // measure 94
0000
0000
0000
0000
,  // measure 95
0000
0000
0000
0000
,  // measure 96
0000
0000
0000
3000
;

//---------------dance-single - ----------------
#NOTES:
     dance-single:
     :
     Medium:
     6:
     0.377,0.563,0.147,0.147,0.000:
0000
0000
0000
0000
,
0000
0000
0000
0000
,
0000
0000
0000
0000
,
0000
0000
0000
0000
,
0000
0000
0000
0000
,
0000
0000
0000
0000
,
0000
0000
0000
0000
,
0000
0000
0000
0000
,
0000
0000
0000
0000
,
0000
0000
0000
0000
1000
0100
0010
0001
,
0000
0000
0000
0000
0000
0000
1000
0100
,
0000
0000
0000
0000
0000
0000
0010
0001
,
0000
0000
0000
0000
,
0000
0000
0000
0000
0001
0010
0100
1000
,
0000
0000
0000
0000
0000
0000
0001
0010
,
0000
0000
0000
0000
0000
0000
0100
1000
,
0000
0000
0000
0000
,
0000
0000
0000
0010
0100
0010
0100
0010
,
0000
0000
0000
0000
0000
0000
1000
0100
,
0000
0000
0010
0001
0000
0000
0001
0100
,
0000
0000
0000
0000
,
0000
0000
0000
0001
1000
0001
1000
0001
,
0000
0000
0000
0000
0000
0000
1000
0100
,
0000
0000
0010
0001
0000
0000
0001
0100
,
0000
0000
0000
0000
,
0000
0000
0000
0000
,
1000
0100
1000
0100
,
0010
0000
0001
0000
0100
0001
0100
0001
,
0100
0001
1000
0001
,
0100
0000
0010
0100
0001
1000
0010
1000
,
0001
1100
0010
0011
,
0100
0101
1000
1100
,
0010
0000
0000
1010
0000
0000
0100
0000
,
0101
1100
0001
1000
,
0001
1000
0001
1000
0001
1000
0001
0000
,
0000
1000
0100
1000
,
0100
0010
0001
0100
,
0001
0100
0001
0100
0010
1000
0010
1000
,
0001
0000
2000
3100
,
0010
0000
0001
0000
0010
0000
0001
0010
,
0001
0000
0100
1000
0100
0000
0001
0000
,
1000
0100
0010
0001
,
0100
0001
0100
0010
1000
0010
1000
0000
,
0000
1000
0001
1000
0001
0000
1000
0100
,
1000
1000
0100
0010
,
0001
0010
0001
0010
0100
1000
0100
1000
,
0100
0000
1000
0100
,
0010
0000
0001
0100
0001
0000
0100
0000
,
1100
0010
0011
0100
,
0010
1000
0001
0100
,
0010
0100
0001
1000
0010
0100
0000
0010
,
0100
0001
1000
0010
0000
1000
0100
1000
,
0100
0010
0001
0010
0001
0010
0100
0000
,
0001
0100
1000
0010
,
1000
0001
1000
0001
1000
0001
0000
1000
,
0100
1000
0100
1000
0000
0010
0001
0010
,
0001
0010
0001
0010
0001
0010
0001
0010
,
0100
1000
0100
0010
0001
0010
0100
0000
,
0001
0000
0000
1001
0000
0000
0000
0000
,
1000
0000
0000
1100
0000
0000
0000
0000
,
1000
0000
0100
0000
0010
0000
0001
0100
,
0001
0010
0100
1000
,
0110
0000
0000
1100
0000
0000
0000
0000
,
0011
0000
0000
1100
0000
0000
0000
0000
,
0101
1000
0100
0010
,
0001
1000
0100
0010
,
1001
0000
0000
0000
,
0000
0000
0200
0301
,
0101
0000
0001
0000
1000
0100
1000
0000
,
0000
0000
1000
0000
0100
0010
0100
0010
,
0200
0000
0301
0000
,
0001
0010
0100
1000
,
0001
0100
2100
0020
,
3030
0000
0001
0000
1000
0000
0100
1000
,
0200
0000
0000
1300
,
0100
0000
0010
0000
0001
0000
0100
0001
,
2000
3001
0200
0310
,
0000
0000
0001
0000
0010
0000
0100
1000
,
0200
0000
1300
0010
,
1000
0001
0100
0001
,
0020
0031
0200
1300
,
0000
0000
2000
0000
3100
0000
1000
0100
,
0020
0000
0000
0031
,
1000
0001
0100
1000
,
0200
0000
1300
0000
,
0000
0000
0001
1000
0100
0010
0001
0010
,
2000
0000
0000
0000
,
3000
0000
0000
0000
,
0002
0000
0000
0000
,
0003
0000
1000
0100
0010
0001
0010
1000
,
0002
0000
2000
3000
,
1003
0100
0010
0001
,
2002
0000
0000
0000
,
0000
0000
0000
0000
,
0000
0000
0000
0000
,
0000
0000
0000
3003
;

//---------------dance-single - ----------------
#NOTES:
     dance-single:
     :
     Easy:
     4:
     0.241,0.406,0.044,0.184,0.000:
0000
0000
0000
0000
,
0000
0000
0000
0000
,
0000
0000
0000
0000
,
0000
0000
0000
0000
,
0000
0000
0000
0000
,
0000
0000
0000
0000
,
0000
0000
0000
0000
,
0000
0000
0000
0000
,
0000
0000
0000
0000
,
0000
0000
0000
1000
,
1000
0000
0000
0001
,
0000
0000
0000
0100
,
0000
0000
0000
0000
,
0000
0000
1000
0001
,
0000
0000
0000
0100
,
0000
0000
0000
0010
,
0000
0000
0000
0000
,
0000
0000
1000
0001
,
0000
0000
0000
1000
,
0000
0001
0000
0100
,
0000
0000
0000
0000
,
0000
0000
0010
1000
,
0100
0000
0000
1000
,
0000
0001
0000
0100
,
0000
0000
0000
0000
,
1000
0000
0000
0000
,
0001
1001
0000
1000
,
0100
0001
0100
1000
,
0010
1010
0000
1000
,
0100
0010
0001
0100
,
0000
1000
0000
0001
,
0000
0100
0000
0010
,
0000
0000
0000
1000
0000
0000
1000
0000
,
0000
0001
0000
1000
,
0001
1000
0001
0100
,
0000
0001
0100
1000
,
0100
0010
0001
0100
,
1000
0001
0100
1000
,
0200
0000
0000
0000
,
1300
0000
0001
0000
,
0100
0000
0010
0000
,
1000
0000
0001
0000
,
0100
0001
0020
2000
,
3030
1000
0100
1000
,
0010
0001
0100
1000
,
0002
1003
2000
3001
,
0202
0000
0000
0000
0000
0000
0000
0300
,
0100
0000
0013
1000
,
1000
0001
0001
1000
,
0001
0100
0010
1000
,
1000
1000
1000
0000
,
0001
0001
0000
1000
,
0100
0100
0100
0010
,
1000
0001
0100
1000
,
0001
0001
0001
0000
,
1000
1000
0000
1000
,
0001
0100
0010
0000
,
1000
0100
0000
0001
,
1000
0100
1000
0100
1000
0000
0000
0010
,
0001
0010
0001
0010
0000
0000
0000
0000
,
0000
0000
0000
0000
,
0000
0000
0000
0000
,
0010
0100
0010
0100
0010
0100
0000
0001
,
1000
0001
1000
0001
0000
0000
0000
0000
,
1000
0000
0000
0000
,
1000
0100
0010
0001
,
1001
0000
0000
0000
,
0000
0000
0000
0000
,
2000
0100
0100
3100
,
0000
0010
0001
0100
,
0002
0000
1000
0000
,
1003
0001
0100
0010
,
1000
0200
1000
1300
,
0000
1000
0100
0020
,
0002
0000
0033
0001
,
0100
0001
1000
0010
,
0001
1000
0002
2000
,
3003
1000
0100
0010
,
0002
0000
0200
0000
,
0000
0000
0303
0000
,
1001
0001
2000
0200
,
3300
1000
0100
0020
,
0002
0000
0000
0000
,
0000
0000
0000
0033
,
2000
0000
3100
0000
,
0000
0010
0001
0200
,
0002
0000
0000
0000
,
0303
0000
0000
0000
,
2000
0000
0000
0000
,
0000
3100
1000
0100
,
0020
0000
0000
0000
,
0030
0000
0000
0000
,
1001
0000
0000
0000
;

//---------------dance-single - ----------------
#NOTES:
     dance-single:
     :
     Beginner:
     2:
     0.085,0.203,0.000,0.000,0.000:
0000
0000
0000
0000
,
0000
0000
0000
0000
,
0000
0000
0000
0000
,
0000
0000
0000
0000
,
0000
0000
0000
0000
,
0000
0000
0000
0000
,
0000
0000
0000
0000
,
0000
0000
0000
0000
,
0000
0000
0000
0000
,
0000
0000
0000
0000
,
0010
0000
0000
0000
,
0000
0000
0000
0000
,
0000
0000
0000
0000
,
0000
0000
0000
0000
,
0100
0000
0000
0000
,
0000
0000
0000
1000
,
0000
0000
0000
0000
,
0000
0000
0000
0000
,
0001
0000
0000
1000
,
0000
1000
0000
1000
,
0000
0000
0000
0000
,
0000
0000
0000
0000
,
0010
0000
0000
0100
,
0000
0100
0000
0100
,
0000
0000
0000
0000
,
0000
0000
0000
0000
,
0001
0000
0000
0000
,
0000
0000
0000
0000
,
1000
0000
0000
0000
,
0000
0000
0000
0000
,
0010
0000
0000
0000
,
0100
0000
0000
0000
,
0010
0000
0000
0000
,
0100
0000
0000
0000
,
1000
0000
0000
0000
,
0000
0000
0000
0001
,
0001
0000
0000
0000
,
0000
0000
0000
0000
,
0010
0000
0000
0000
,
0000
0000
0000
0000
,
0100
0000
0100
0000
,
0100
0000
0000
0000
,
1000
0000
0000
0000
,
0000
0000
0000
0000
,
0001
0000
0000
0000
,
0100
0000
0100
0000
,
0100
0000
0000
0000
,
0000
0000
0000
0000
,
0010
0000
1000
0000
,
0100
0000
0000
0000
,
1000
1000
1000
0000
,
0001
0001
0000
0000
,
0100
0100
0100
0000
,
0000
0000
0000
0000
,
0010
0010
0010
0000
,
0100
0100
0000
0000
,
0001
0001
0001
0000
,
0000
0000
0000
0000
,
1000
1000
1000
0000
,
0001
0001
0000
0000
,
0000
0000
0000
0000
,
0000
0000
0000
0000
,
0010
0010
0010
0000
,
0100
0100
0000
0000
,
0000
0000
0000
0000
,
0000
0000
0000
0000
,
1000
0000
0000
0000
,
0000
0000
0001
0000
,
0001
0000
0000
0000
,
0000
0000
1000
0000
,
0001
0000
0000
0000
,
0000
0000
0000
0000
,
0100
0000
0000
0000
,
0000
0000
0000
0000
,
0010
0000
0000
0000
,
0000
0000
0000
0000
,
1000
0000
0001
0000
,
0000
0001
0000
0000
,
1000
0000
0100
0000
,
0000
0000
0000
0000
,
0010
0000
0010
0000
,
0000
0100
0000
0000
,
0100
0000
0000
0000
,
0000
0000
0000
0000
,
0001
0000
0001
0000
,
0000
0000
0000
0000
,
0100
0000
0000
0000
,
0000
0000
0000
0000
,
1000
0000
0000
0000
,
0000
0000
0010
0000
,
0010
0000
0000
0000
,
0000
0000
0000
0000
,
0001
0000
0000
0000
;

//---------------dance-single - ----------------
#NOTES:
     dance-single:
     :
     Challenge:
     9:
     0.690,0.809,0.147,0.228,0.305: // measure 1
0000
0000
0000
0000
,  // measure 2
0000
0000
0000
0000
,  // measure 3
0000
0000
0000
0000
,  // measure 4
0000
0000
0000
0000
,  // measure 5
0000
0000
0000
0000
,  // measure 6
0000
0000
0000
0000
,  // measure 7
0001
0100
0010
2000
0000
0100
0000
0010
,  // measure 8
0000
0001
0000
0001
3001
0000
0001
0100
,  // measure 9
0001
1000
0000
0010
0000
0000
1000
0001
,  // measure 10
0100
0010
0001
0010
0100
1000
0001
0100
,  // measure 11
0001
0000
0010
0200
0000
0310
1000
0001
,  // measure 12
0100
0000
0001
0100
0000
1000
0100
0010
,  // measure 13
0001
0000
0001
2000
0000
3100
1000
0100
,  // measure 14
1000
0000
1000
0100
0010
0001
0010
0100
,  // measure 15
0001
0000
0001
0200
0000
0310
1000
0001
,  // measure 16
0200
0000
0310
2000
0000
3001
0100
0001
,  // measure 17
1000
0010
0100
0020
0000
0000
0000
0130
,  // measure 18
0010
0100
0010
0100
0001
1000
0010
1000
,  // measure 19
0001
0000
0001
0200
0000
0310
1000
0020
,  // measure 20
0000
0130
0010
0200
0000
0310
1000
0010
,  // measure 21
0100
0000
0010
0011
0000
0001
0100
0000
,  // measure 22
1000
0100
0001
0100
0010
1000
0001
1000
,  // measure 23
0010
0000
0010
0110
0000
0010
1000
0100
,  // measure 24
0000
0001
0100
0001
0000
1000
0100
1000
,  // measure 25
0010
0000
0010
0100
0000
0010
0100
0000
,  // measure 26
0001
0000
0010
0000
0100
0000
1000
0000
0010
1000
0010
0000
0001
0100
0001
0000
,  // measure 27
1001
0000
0001
0100
0001
1000
0000
0110
,  // measure 28
0000
0001
1000
1000
0001
0100
0010
0010
,  // measure 29
0100
0000
0010
0100
0001
1000
0010
0100
,  // measure 30
0000
1000
0100
0010
0001
0010
0100
0000
,  // measure 31
0001
0100
0101
0000
1000
0100
1100
0000
,  // measure 32
0010
0100
0110
0000
0001
1000
1001
0000
,  // measure 33
0001
0100
0001
0101
0000
0100
1100
0000
,  // measure 34
0010
0000
0000
0000
0110
0000
0000
0000
0001
0000
1000
0000
0001
0000
0010
0100
,  // measure 35
0010
0000
0001
0100
0001
0000
1000
0100
1000
0000
0010
0001
0020
0000
0000
0000
,  // measure 36
0030
0000
0001
0100
0001
0000
0001
0100
0001
0000
0000
0000
0001
0000
1000
0000
,  // measure 37
0001
0000
0100
0000
0010
0000
1000
0000
0100
0000
0010
0001
0010
0000
0001
0000
,  // measure 38
0100
0000
0001
0100
0001
0000
1000
0000
0001
0000
0100
0010
0100
0000
0010
0000
,  // measure 39
2000
0000
0000
0000
3001
0000
0001
0100
,  // measure 40
0001
1000
0010
0100
0001
0000
0102
0100
,  // measure 41
0103
0000
2100
0100
3100
0000
0010
0100
,  // measure 42
0010
0000
0100
0000
0010
0000
0010
0000
0100
0000
0010
0000
1000
0000
0001
0010
,  // measure 43
0001
0000
0010
0001
0010
0000
0100
0001
0100
0000
1000
0010
2000
0000
0000
0000
,  // measure 44
3000
0000
0010
0001
0010
0000
0010
0001
0010
0000
0000
0000
0010
0000
0100
0000
,  // measure 45
0010
0000
0001
1000
0001
0000
0100
0000
0001
0000
1000
0010
1000
0000
0001
0010
,  // measure 46
0001
0000
0001
0100
0001
0000
0010
1000
0010
0000
0001
1000
0001
0000
1000
0000
,  // measure 47
0200
0000
0000
0000
0310
0000
0010
0001
,  // measure 48
0010
0100
1000
0001
0010
0000
0021
0001
,  // measure 49
0031
0000
0201
0001
0301
0000
1000
0001
,  // measure 50
1000
0000
0001
1000
0001
0000
1000
0000
0001
0000
1000
0000
0100
0000
0010
0000
,  // measure 51
0001
0000
0001
1000
0001
0000
0010
0100
0010
0100
0000
0000
0000
0000
1000
0100
,  // measure 52
1000
0000
0010
0001
0010
0001
0000
0000
0000
0000
0001
0000
0100
0000
0001
0000
,  // measure 53
0010
0000
0100
0010
0100
0000
0001
1000
0001
1000
0000
0000
1000
0000
0100
0000
,  // measure 54
0010
0001
0100
0001
1000
0010
1000
0001
,  // measure 55
1000
0000
0001
1000
0100
0000
0010
0100
1000
0001
0000
0000
0000
0000
1000
0001
,  // measure 56
0100
0000
0010
0100
1000
0001
1000
0000
0000
0000
0001
0000
1000
0000
0001
0000
,  // measure 57
0100
0000
0010
0100
0010
0000
1000
0100
0010
0001
0100
0000
0000
0000
0001
0100
,  // measure 58
0001
0000
0010
1000
0100
0010
0001
0000
1000
0000
0001
0000
0100
0000
0001
0000
,  // measure 59
0001
0000
1000
0001
0010
0000
0100
0010
0001
1000
0000
0000
0000
0000
0001
1000
,  // measure 60
0010
0000
0100
0010
0001
1000
0001
0000
0000
0000
0000
0000
0000
0000
0000
0000
,  // measure 61
1100
0000
0100
0110
0000
0000
0001
0100
,  // measure 62
1000
0100
0010
0001
0010
1000
0010
1000
,  // measure 63
0010
0000
0100
0010
0100
0000
0001
0010
0100
1000
0010
0000
0000
0000
1000
0010
,  // measure 64
1000
0000
0100
0001
0010
0100
1000
0000
2002
0000
0000
0000
0000
0000
3003
0000
,  // measure 65
0010
0000
0100
0010
0000
1000
0100
0000
,  // measure 66
0001
0100
1000
0010
,  // measure 67
2002
0000
0000
3000
,  // measure 68
0000
0000
0000
0000
0000
0000
0000
0000
2000
0000
0000
0000
3003
0000
0000
0100
,  // measure 69
0001
0000
0000
0001
0010
0000
0000
0100
0010
0000
0000
0100
1000
0000
0000
0000
,  // measure 70
0000
0000
1000
0001
1000
0000
0001
1000
0001
0000
0100
0000
1000
0000
0001
0000
,  // measure 71
0020
0000
0000
0000
0000
0000
0130
0010
0100
0000
0000
0000
0010
0000
0000
0000
,  // measure 72
1000
0000
0100
0000
0001
0000
0100
0000
0010
0000
1000
0000
0001
0000
1000
0001
,  // measure 73
0010
0000
0000
0010
1000
0000
0000
0001
1000
0000
0000
0001
0100
0000
0000
0000
,  // measure 74
0000
0000
0100
0010
0100
0000
0010
0100
0010
0000
0001
0000
0100
0000
0020
0000
,  // measure 75
2000
0000
0000
0000
3030
0000
1000
0001
,  // measure 76
0100
0000
0001
0000
0010
0000
0001
0000
1000
0000
0100
0000
0010
0000
0100
0010
,  // measure 77
1000
0000
0000
1000
0100
0000
0000
0010
0100
0000
0000
0010
0001
0000
0000
0000
,  // measure 78
0000
0000
0001
1000
0001
0000
1000
0001
1000
0000
0010
0000
0001
0000
1000
0000
,  // measure 79
0200
0000
0000
0000
0000
0000
0310
0100
0010
0000
0000
0000
0100
0000
0000
0000
,  // measure 80
0001
0000
0010
0000
1000
0000
0010
0000
0100
0000
0001
0000
1000
0000
0001
1000
,  // measure 81
0100
0000
0000
0100
0001
0000
0000
1000
0001
0000
0000
1000
0010
0000
0000
0000
,  // measure 82
0000
0000
0010
0100
0010
0000
0100
0010
0100
0000
1000
0000
0010
0000
0200
0000
,  // measure 83
0002
0000
0000
0000
0303
0000
0001
1000
,  // measure 84
0010
1000
0100
1000
0001
0010
0100
0010
,  // measure 85
1000
0100
1000
0000
0010
0001
0010
0000
,  // measure 86
0100
0001
0100
0010
1000
0001
0100
0010
,  // measure 87
1000
0001
1000
0000
0100
1000
0100
0000
,  // measure 88
0010
0000
0010
0100
0000
0100
0010
0000
,  // measure 89
0010
0100
0010
0000
1000
0100
1000
0000
,  // measure 90
0010
0000
0001
0010
0100
1000
0010
0100
,  // measure 91
0001
1000
0010
0000
0001
0100
0010
0000
,  // measure 92
1000
0100
0010
0001
,  // measure 93
2002
0000
0000
0000
,  // measure 94
0000
0000
0000
0000
,  // measure 95
0000
0000
0000
0000
,  // measure 96
0000
0000
0000
0000
0000
3000
1003
0000
;
