#TITLE:Keyboard Man;
#SUBTITLE:;
#ARTIST:Simon;
#TITLETRANSLIT:;
#SUBTITLETRANSLIT:;
#ARTISTTRANSLIT:;
#CREDIT:;
#BANNER:bn.bmp;
#BACKGROUND:bg.bmp;
#LYRICSPATH:;
#CDTITLE:Keyboardmania.png;
#MUSIC:18-keyboard_man.mp3;
#OFFSET:-1.000;
#SAMPLESTART:35.820;
#SAMPLELENGTH:12.000;
#SELECTABLE:YES;
#BPMS:0.000=165.020;
#STOPS:;
#BGCHANGES:;

//---------------dance-single - ----------------
#NOTES:
     dance-single:
     :
     Hard:
     6:
     0.398,0.448,0.268,0.368,0.010:
0000
0000
0000
0000
,
0000
0000
0000
0000
,
0000
0000
0000
0000
,
0000
0000
0000
0000
,
0000
0000
0000
0000
,
0000
0000
0000
0000
,
0001
1000
0010
0100
0010
0000
0001
0010
,
0000
2000
0002
0000
0000
0000
3003
0000
,
1010
0000
0000
0002
0000
0000
0200
0000
,
0000
0000
0000
0303
0000
0010
0002
0010
,
0000
0000
0000
0000
0003
0100
1000
0200
,
0000
1000
0000
1000
0000
1000
0000
1300
,
0100
0000
0000
0000
0000
0010
0100
0010
,
1000
0100
0010
0002
0000
0000
0000
0000
,
0100
0000
0103
0000
0000
0000
0000
0010
,
1000
0001
0100
1000
0100
0010
0001
0010
,
0100
0000
0000
2000
0000
0000
0200
0000
,
0000
0000
0000
0000
3300
0010
0100
1000
,
0000
0000
0000
0000
0000
0001
1000
0020
,
0000
0100
0000
0100
0000
0100
0000
0130
,
0100
0000
1000
0000
0000
0100
1000
0100
,
0010
0001
0010
0200
0000
0000
0000
0000
,
1000
0000
1300
0000
0000
0000
0000
0010
,
1000
0100
1000
0100
0010
0001
0010
0100
,
0000
0000
0011
0000
0000
1100
0000
0220
,
0000
0000
0000
0330
,
1010
0000
0011
0000
1100
1100
0000
0010
,
0000
0000
2002
0000
0000
0000
0000
3003
,
0000
0000
0011
0000
0000
1100
0000
2020
,
0000
0000
0000
3030
,
0001
0000
0100
0000
1000
0200
0000
0010
,
0000
0000
0320
0000
0000
0230
0000
0000
,
0301
0000
0000
0020
0000
0000
0000
0032
,
0000
0000
0000
0000
0000
0103
0001
0100
,
0000
0000
0000
0000
0010
0000
0000
0001
0010
0000
0010
0000
0000
0000
0002
0000
,
0000
0100
0000
0100
0000
0100
0000
0000
,
0103
0000
1000
0000
0000
0100
0000
1000
,
0100
0000
0010
0001
0000
0100
1000
0100
,
0010
0001
0010
0100
0000
0001
0010
1000
,
0000
0001
0020
0000
0000
0000
0000
0000
,
0031
0000
0000
0200
0000
0000
0300
2000
,
0000
0000
0000
3000
0000
0100
0001
0100
,
0000
0000
0000
0000
0001
0000
0000
0010
0100
0000
1000
0000
0000
0000
0001
0000
,
0000
0011
0000
0011
0000
0011
0000
0001
,
0010
0000
1100
0000
0000
0010
1000
0100
,
0010
0001
1000
0001
0010
1000
0100
1000
,
0000
0010
1000
0010
0100
0001
0100
0010
,
0001
0010
0100
0000
0000
0000
0000
0000
,
0000
1000
0100
0000
0000
0010
0000
0002
,
0000
0000
0000
0003
,
0101
0000
1010
0000
0010
0100
0000
1100
,
0000
0022
0000
0033
,
0000
0000
0101
0000
0000
1010
0000
0220
,
0000
0000
0000
0330
,
1010
0000
0011
0000
1000
0100
0000
0020
,
0000
0002
0000
0033
,
0000
0001
0010
0100
1000
0100
0010
0001
,
0000
0000
0010
0000
0000
0100
0000
2000
,
0000
0000
0000
3000
,
0001
0001
0001
0001
0001
0001
0000
0001
,
0000
0002
0200
0000
0000
0000
0000
0000
,
0303
0000
1010
0000
0000
0001
0000
0200
,
0000
0000
0000
0000
0000
0000
0000
0300
,
1000
0100
0010
1000
0001
0100
0010
1000
,
0000
0010
1000
1001
0000
0000
0000
0000
;

//---------------dance-single - ----------------
#NOTES:
     dance-single:
     :
     Medium:
     4:
     0.283,0.352,0.089,0.278,0.000:
0000
0000
0000
0000
,
0000
0000
0000
0000
,
0000
0000
0000
0000
,
0000
0000
0000
0000
,
0000
0000
0000
0000
,
0000
0000
0000
0000
,
0001
1000
0001
1000
0001
0000
0100
0001
,
0000
0010
1000
0000
0000
0000
0000
0000
,
1000
0000
0000
0001
0000
0000
0200
0000
,
0000
0000
0300
0000
0000
0010
1000
0010
,
0000
0000
0000
0000
0000
0100
0010
0100
,
0000
0000
0000
0000
,
0001
0001
0000
1000
,
0001
0000
0100
0002
0000
0000
0000
0000
,
0003
0000
0000
0000
,
1000
0001
0100
0010
,
2000
0000
0000
0100
0000
0000
0200
0000
,
0000
3300
0000
0010
,
0001
0000
0000
0001
,
0100
0000
0000
0000
,
0110
0110
0000
0010
,
1000
0000
0002
2000
0000
0000
0000
0000
,
3003
0000
0000
0000
0000
0000
0000
0001
,
0010
0100
1000
0100
,
0000
0000
1100
0000
0000
0002
0000
0200
,
0000
0000
0000
0000
0000
0003
0300
0000
,
0001
0000
0100
0000
0010
0100
0000
1000
,
0000
2002
0000
3003
,
0000
0000
0001
0000
0000
2000
0000
0200
,
0000
0000
0000
3300
,
0010
0000
1000
0000
0010
0200
0000
0010
,
0000
0020
0000
0330
,
0002
0000
0000
1000
0000
0000
0000
2000
,
0000
0000
0000
3003
0000
0000
0001
0000
,
0100
0000
0010
0000
1000
0010
0000
0020
,
0000
0000
0000
0030
,
0000
0000
0000
0000
0000
1000
0000
0001
,
0100
0000
0010
1000
0000
0010
0100
0010
,
0100
0000
0010
1000
0000
0001
1000
0001
,
0000
1000
0000
0001
0100
0000
0000
0000
,
0120
0000
0000
2030
0000
0000
0000
0200
,
0000
0000
0000
3300
0000
0000
0010
0000
,
0001
0000
0100
0000
0001
0100
0000
0200
,
0000
0000
0000
0300
,
0000
0000
0000
0000
0000
0010
0100
0010
,
0100
0010
0100
0010
0100
0010
0100
0010
,
0000
0001
1000
0000
0100
0000
0010
0001
,
0000
0200
0002
0000
0000
0000
0303
0000
,
0000
0000
0001
0000
0000
1000
0000
0002
,
0000
0000
0000
0000
0000
0003
0000
0000
,
0101
0000
0101
0000
0001
0100
0000
0010
,
0000
0200
0000
0300
,
0000
0000
0010
0000
0000
1000
0000
0002
,
0000
0000
0000
0003
,
1100
0000
1100
0000
1000
0100
0000
2000
,
0000
0200
0000
3300
,
0000
0001
0010
0000
0010
0001
0000
0000
,
0000
0000
0001
0000
0000
0100
0000
0010
,
0000
0000
0000
0000
,
1000
0000
1000
0000
0001
1000
0000
0001
,
0000
0100
0000
0000
,
0000
0000
0010
0000
0000
0100
0000
0100
,
0000
0000
0000
0000
,
0010
0100
0001
1000
0010
0001
0010
0100
,
0000
1000
0100
0001
0000
0000
0000
0000
;

//---------------dance-single - ----------------
#NOTES:
     dance-single:
     :
     Easy:
     3:
     0.199,0.288,0.070,0.189,0.000:
0000
0000
0000
0000
,
0000
0000
0000
0000
,
0000
0000
0000
0000
,
0000
0000
0000
0000
,
0000
0000
0000
0000
,
0000
0000
0000
0000
,
1000
0001
0100
0010
,
2000
0200
0000
3300
,
1000
0000
0000
0000
,
0001
0000
0000
0000
,
0100
0000
0000
0000
,
0010
0000
0000
0000
,
1000
1000
0000
0001
,
0100
0020
0000
0030
,
0000
0000
0000
0000
,
0010
0100
0001
1000
,
0002
0000
0000
1000
0000
0000
2000
0000
,
3003
0000
0000
1000
,
0001
0000
0000
0001
,
0100
0000
0000
0000
,
1010
0010
0000
0010
,
1000
0100
0000
0000
,
0010
0000
0000
0000
,
1000
0001
0100
0010
,
0000
0000
1000
0000
0000
1000
0000
2000
,
0000
0000
0000
3000
,
0001
0000
1000
0000
0001
0000
0000
2000
,
0000
0002
0000
3003
,
0000
0000
0100
0000
0000
0001
0000
0001
,
0000
0000
0000
0000
,
1000
0000
0001
0000
0001
0100
0000
0100
,
0000
0200
0000
0300
,
0020
0000
0000
0000
,
0000
0000
0000
0030
,
1000
0000
0001
0000
0100
0000
0000
0020
,
0000
0000
0000
0030
,
0000
0000
0000
1000
,
1000
0001
0100
0010
,
2000
0000
0000
0000
,
0000
0000
3000
0000
,
0002
0000
0000
0000
,
2000
0000
3003
0000
,
0001
0000
0100
0000
0010
0000
0000
2000
,
0000
0000
0000
3000
,
0000
0000
0000
0010
,
1000
0010
0100
0010
,
0000
1000
0001
0100
,
0001
0010
0000
0000
,
0000
0000
0011
0000
0000
1100
0000
2200
,
0000
0000
0000
3300
,
0001
0000
1000
0000
0001
0000
0000
1000
,
0000
0001
0000
0000
,
0000
0000
0101
0000
0000
1010
0000
2020
,
0000
0000
0000
3030
,
0010
0000
1000
0000
0010
0000
0000
0100
,
0000
0010
0000
0000
,
0000
0000
0000
0000
,
0000
0000
1000
0000
0000
1000
0000
1000
,
0000
0000
0000
0000
,
0100
0000
0100
0000
0100
0000
0000
0100
,
0000
0100
0000
0000
,
0000
0000
0010
0000
0000
0010
0000
0010
,
0000
0000
0000
0000
,
0001
1000
0001
0100
,
0000
0001
1000
0100
0000
0000
0000
0000
;

//---------------dance-single - ----------------
#NOTES:
     dance-single:
     :
     Beginner:
     1:
     0.058,0.157,0.000,0.000,0.000: // measure 1
0000
0000
0000
0000
,  // measure 2
0000
0000
0000
0000
,  // measure 3
0000
0000
0000
0000
,  // measure 4
0000
0000
0000
0000
,  // measure 5
0000
0000
0000
0000
,  // measure 6
0000
0000
0000
0000
,  // measure 7
0001
0000
0000
0000
,  // measure 8
0000
0000
0000
0000
,  // measure 9
1000
0000
0000
0000
,  // measure 10
0000
0000
0000
0000
,  // measure 11
0001
0000
0000
0000
,  // measure 12
0000
0000
0000
0000
,  // measure 13
0010
0010
0000
0000
,  // measure 14
0000
0000
0000
0000
,  // measure 15
1000
0000
0000
0000
,  // measure 16
0000
0000
0000
0000
,  // measure 17
0001
0000
0000
0000
,  // measure 18
0000
0000
0000
0000
,  // measure 19
1000
0000
0000
0000
,  // measure 20
0000
0000
0000
0000
,  // measure 21
0100
0100
0000
0000
,  // measure 22
0000
0000
0000
0000
,  // measure 23
0001
0000
0000
0000
,  // measure 24
0000
0000
0000
0000
,  // measure 25
1000
0000
0000
0000
,  // measure 26
0000
0000
0000
0000
,  // measure 27
0001
0001
0001
0000
,  // measure 28
0000
0001
0000
0000
,  // measure 29
0000
0100
0000
0000
,  // measure 30
0000
0000
0000
0000
,  // measure 31
0010
0010
0010
0000
,  // measure 32
0000
0010
0000
0000
,  // measure 33
1000
0000
0000
0000
,  // measure 34
0001
0000
0000
0000
,  // measure 35
0100
0000
0000
0000
,  // measure 36
0000
0000
0000
0000
,  // measure 37
0010
0000
0000
0000
,  // measure 38
0000
0000
0000
0000
,  // measure 39
1000
0000
0000
0000
,  // measure 40
0000
0000
0000
0000
,  // measure 41
0001
0000
0000
0000
,  // measure 42
0000
0000
0000
0000
,  // measure 43
1000
0000
0000
0000
,  // measure 44
0000
0000
0000
0000
,  // measure 45
0010
0000
0000
0000
,  // measure 46
0000
0000
0000
0000
,  // measure 47
0000
0000
0000
0000
,  // measure 48
0000
0000
0000
0000
,  // measure 49
0001
0000
0000
0000
,  // measure 50
0000
0000
0000
0000
,  // measure 51
1000
0000
1000
0000
,  // measure 52
1000
0000
0000
0000
,  // measure 53
0000
0010
0000
0000
,  // measure 54
0000
0000
0000
0000
,  // measure 55
0100
0000
0100
0000
,  // measure 56
0100
0000
0000
0000
,  // measure 57
0000
0000
0000
0000
,  // measure 58
0001
0000
0000
0000
,  // measure 59
0000
0000
0000
0000
,  // measure 60
1000
0000
0000
0000
,  // measure 61
0000
0000
0000
0000
,  // measure 62
0010
0000
0000
0000
,  // measure 63
0000
0000
0000
0000
,  // measure 64
0100
0000
0000
0000
;
