#TITLE:Kaze no tani no DREAM;
#SUBTITLE:;
#ARTIST:Pink Pong;
#TITLETRANSLIT:;
#SUBTITLETRANSLIT:;
#ARTISTTRANSLIT:;
#CREDIT:;
#BANNER:bn.PNG;
#BACKGROUND:bg.PNG;
#LYRICSPATH:;
#CDTITLE:;
#MUSIC:Kaze no tani no DREAM.mp3;
#OFFSET:-5.340;
#SAMPLESTART:103.920;
#SAMPLELENGTH:12.000;
#SELECTABLE:YES;
#BPMS:0.000=146.000;
#STOPS:206.000=0.411
,237.000=0.411
;
#BGCHANGES:;

//---------------dance-single - ----------------
#NOTES:
     dance-single:
     :
     Hard:
     9:
     0.583,0.527,0.058,0.132,0.518:
0010
0001
0010
0100
0000
1000
0100
0000
,
1001
0000
0000
0000
0000
0000
0000
0000
0000
0000
0000
0000
0000
0000
0010
0001
,
0010
0100
0010
1000
0000
0001
0100
1000
,
0002
0000
0000
0000
0003
1000
0100
0010
,
0000
0001
1000
0010
1000
0001
0100
1000
,
0000
1000
0100
0010
0001
0010
0100
0100
,
0000
0010
1000
0010
0100
0100
0001
1000
,
0000
0010
0100
0100
0001
1000
0010
0010
,
0000
0001
1000
1000
0010
0100
0001
0001
,
0000
0010
0100
0001
1000
0010
1000
0100
,
0000
0010
1000
0010
1000
0001
0100
0010
,
0000
0001
0010
0100
1000
0100
0010
1000
,
0000
0001
1000
0010
0100
1000
0100
0010
,
0000
0001
0010
0010
0100
0001
1000
0010
,
0000
0100
1000
1000
0010
0100
0001
0001
,
0000
0001
1000
0010
0010
0001
1000
0100
,
0000
0001
1000
0100
0010
1000
0001
0010
,
0000
1000
0001
0100
0001
0100
0010
0001
,
0000
0001
1000
0010
0100
0010
1000
0010
,
0000
0001
0100
0001
0010
0001
0010
0100
,
1000
0001
1000
0100
0020
0000
0000
0000
,
0030
0001
1000
0100
0020
0000
0000
0000
,
0030
1000
0100
0001
0200
0000
0000
0000
,
0300
0001
1000
0010
0200
0000
0000
0000
,
0000
0301
0010
0100
2000
0000
0000
0000
,
0000
3001
0100
0010
2000
0000
0000
0000
,
3000
0100
0010
1000
0002
0000
0000
0000
,
0003
1000
0100
0010
0002
0000
2003
0000
,
3010
0000
1000
0100
0000
0000
0010
0100
0000
0000
0010
1000
0000
0000
0001
0100
,
0000
0000
0010
0100
0000
0000
0010
1000
0000
0000
0001
0100
0000
0000
1000
0100
,
0000
0000
0010
0100
0000
0000
0001
1000
0000
0000
0010
1000
0000
0000
0001
0100
,
0000
0000
1000
0100
0000
0000
0010
0001
0000
0000
0010
0100
0000
0000
0001
0100
,
0000
0000
0010
1000
0000
0000
0001
0100
0000
0000
1000
0100
0000
0000
0010
0001
,
0000
0000
0001
0100
0000
0000
0010
1000
0000
0000
0010
1000
0000
0000
0001
0100
,
0000
0000
0010
0100
0000
0000
1000
0100
0000
0000
0010
0100
0000
0000
0001
0010
,
0100
0000
0000
1001
0000
0000
1000
0000
0002
0000
0000
0000
2000
0000
0003
0000
,
3001
0000
0000
0100
0000
0010
0000
1000
0000
0010
1000
0000
0001
0000
0010
0000
,
1000
0000
0000
0010
0000
1000
0000
0001
0000
0010
0100
0000
1000
0000
1000
0000
,
0100
0000
0000
0010
0000
0001
0000
1000
0000
0001
0100
0000
0001
0000
1000
0000
,
0100
0000
0000
1000
0000
0001
0000
1000
0000
0100
1000
0000
0100
0000
0010
0000
,
0001
0000
0000
0010
0000
0100
0000
0001
0000
1000
0010
0000
0100
0000
0001
0000
,
1000
0000
0000
0010
0000
1000
0000
0001
0000
0100
0010
0000
0001
0000
0010
0000
,
0100
0000
0000
0010
0000
0001
0000
0010
0000
1000
0100
0000
0001
0000
0100
0000
,
0010
0000
0000
1000
0000
0001
0000
0100
0000
1000
0010
0000
0001
0000
0010
0000
,
0010
0000
0100
1000
0000
0010
0000
0100
0000
0010
0001
0000
1000
0000
0100
0000
,
0010
0000
0100
0001
0000
0010
0000
1000
0000
0001
0010
0000
0100
0000
1000
0000
,
0001
0000
0010
0100
0000
1000
0000
0010
0000
0001
0100
0000
1000
0000
0001
0000
,
0010
0000
1000
0100
0000
0010
0000
0001
0000
0010
1000
0000
0010
0000
0001
0000
,
0100
0000
0010
0100
0000
1000
0000
0001
0000
1000
0001
0000
0010
0000
0100
0000
,
1000
0000
0100
0001
0000
0010
0000
0001
0000
0100
1000
0000
0001
0000
1000
0000
,
0010
0000
0001
1000
0000
0010
0000
1000
0000
0001
0100
0000
0001
0000
0100
0000
,
1000
0000
0100
0001
0000
1000
0000
0100
0000
0000
0000
0000
0010
0000
0000
0000
,
1000
0010
0001
0100
,
1000
0000
0010
0100
1000
0001
0200
0000
,
1300
0020
0031
0200
,
0310
0000
1000
0001
0100
0010
1000
0000
,
0001
0010
0100
1000
,
0100
0000
0001
0100
0010
1000
0020
0000
,
1030
0000
0000
0000
0001
0000
1000
0000
0001
0000
0100
0000
0010
0100
0010
0100
,
0010
0100
0010
0100
0010
0000
0000
0000
1000
0000
0100
0001
0000
1000
0000
0010
,
0000
1000
0001
0000
0100
0000
0010
0000
0001
0000
1000
0100
0000
0010
0000
0001
,
0000
0010
0001
0000
0010
0000
0001
0000
0100
0000
0010
0100
0000
0001
0000
0100
,
0000
1000
0001
0000
1000
0000
0010
0000
1000
0000
0001
0100
0000
0001
0000
0010
,
0000
1000
0010
0000
0100
0000
0001
0000
0010
0000
0100
1000
0000
0100
0000
0010
,
0000
0001
1000
0000
0010
0000
0001
0000
0010
0000
0001
0100
0000
0010
0000
0100
,
0000
0010
0001
0000
1000
0000
0100
0000
0001
0000
0010
0100
0000
1000
0000
0010
,
0000
1000
0001
0000
0010
0000
1000
0000
0110
0000
0000
0000
1010
0000
0000
0000
,
0101
0000
0000
1100
0000
0000
1001
0000
0000
0000
0000
0000
0000
0000
0000
0000
;

//---------------dance-single - ----------------
#NOTES:
     dance-single:
     :
     Medium:
     5:
     0.397,0.416,0.304,0.230,0.004:
1000
0100
0010
0001
0000
0010
0100
0000
,
1001
0000
0000
0000
,
1000
0100
1000
0100
0000
0010
0001
1000
,
0001
0000
0000
0000
,
0000
0010
0000
1000
0000
0100
0000
0010
,
0000
1000
0000
0001
0000
0100
1000
0100
,
0000
1000
0000
0100
0000
0010
0000
1000
,
0000
0001
0000
0100
0000
0010
0100
0010
,
0000
0100
0000
1000
0000
0001
0000
0100
,
0000
1000
0000
0010
0000
0001
1000
0010
,
0000
0100
0000
1000
0000
0001
0000
0010
,
0000
1000
0000
0100
0000
0001
0100
1000
,
0000
0010
0000
1000
0000
0001
0000
0010
,
0000
0100
0000
0001
0000
1000
0100
0010
,
0000
0001
0000
1000
0000
0010
0000
0100
,
0000
1000
0000
0010
0000
0001
1000
0010
,
0000
0100
0000
0100
0000
0010
0000
1000
,
0000
0001
0000
0100
0000
1000
0100
1000
,
0000
0100
0000
0010
0000
1000
0000
0100
,
0000
0010
0000
0100
0000
1000
0000
1000
,
0100
0000
1000
0100
2000
0000
0100
0000
,
0000
3010
0100
0010
0200
0000
0310
0000
,
0000
0010
0100
0010
0200
0000
0301
0000
,
0000
0010
0001
0010
0200
0000
1300
0000
,
0000
0010
1000
0001
2000
0000
3100
0000
,
0000
0100
0010
0100
0020
0000
0130
0000
,
0000
1000
0001
1000
0002
0000
1003
0000
,
0000
1000
0100
0010
0001
0000
0010
0000
,
0000
1100
0000
0101
0000
1100
0000
0101
,
0000
0010
0000
0100
0000
1000
0000
0001
,
0000
0011
0000
1010
0000
0101
0000
1100
,
0000
0010
0000
0100
0000
1000
0000
0001
,
0000
1001
0000
0110
0000
1010
0000
0101
,
0000
1000
0000
0100
0000
0001
0000
0010
,
0000
0110
0000
1010
0000
0101
0000
0100
,
2000
3100
0010
0011
,
2002
0000
0000
0000
0000
0000
0000
3000
,
0200
0000
0000
0300
0010
0000
0000
0000
,
0200
0000
0000
0000
0000
0003
0000
0000
,
0020
0300
0000
0000
0230
0000
0320
0000
,
0230
0000
0000
0000
,
0302
0000
2003
0000
,
3002
0000
0000
0000
,
2000
0000
0000
3003
,
0110
0000
0010
0000
1000
0000
1000
0100
,
0010
0000
0012
0000
,
0013
0100
0010
0000
0100
0000
1000
0100
,
0011
0000
1001
0110
,
1020
0230
0301
0100
,
1100
0000
0000
0000
1020
0000
1030
0100
,
0020
0001
0100
1030
,
1000
0100
0010
0001
0010
0000
0000
0100
,
0000
1000
0000
0100
0000
0010
0000
0001
,
0000
0100
0000
1000
0100
1000
0000
0010
,
0000
1000
0000
0100
0000
0010
0000
0100
,
0000
1000
0000
0001
0100
0010
0000
0100
,
0000
1000
0000
0001
0000
0100
0000
0010
,
0000
0100
0000
1000
0100
1000
0000
0100
,
0000
0010
0000
1000
0000
0100
0000
1000
,
0000
0010
1001
0000
0110
0000
0010
0000
,
1000
0100
0012
0103
,
1020
0000
0130
0100
0010
0000
0010
0000
,
1000
0000
0020
0000
0100
0000
0000
0030
,
0110
0000
0010
0100
0110
0000
1000
0000
,
0100
0010
0011
0100
,
0101
0000
0010
1000
1010
0000
0010
0000
,
0100
0000
1000
0100
0010
0000
1000
0000
,
0101
0000
0000
0100
0000
0000
1001
0000
0000
0000
0000
0000
0000
0000
0000
0000
;

//---------------dance-single - ----------------
#NOTES:
     dance-single:
     :
     Beginner:
     1:
     0.061,0.137,0.016,0.000,0.000:
0001
0000
0000
0000
,
0000
0000
0000
0000
,
1000
0000
0000
0000
,
0000
0000
0000
0010
,
0000
0000
0000
0000
,
0000
0000
0000
0100
,
0000
0000
0000
0000
,
0000
0000
0000
1000
,
0000
0000
0000
0000
,
0000
0000
0000
0001
,
0000
0000
0000
0000
,
0000
0000
0000
0100
,
0000
0000
0000
0000
,
0000
0000
0000
0010
,
0000
0000
0000
0000
,
0000
0000
0000
1000
,
0000
0000
0000
0000
,
0000
0000
0000
0001
,
0000
0000
0000
0000
,
0000
0000
0000
0000
,
0000
1000
0000
0000
,
0000
0001
0000
0000
,
0000
0100
0000
0000
,
0000
0010
0000
0000
,
0000
1000
0000
0000
,
0000
0001
0000
0000
,
0000
1000
0000
0000
,
0000
0000
0000
0000
,
0001
0000
0000
0000
,
0000
0000
0000
0000
,
1000
0000
0000
0000
,
0000
0000
0000
0000
,
0100
0000
0000
0000
,
0000
0000
0000
0000
,
0010
0000
0000
0000
,
0001
0000
1000
0000
,
1001
0000
0000
0000
,
0000
0000
0000
0000
,
0000
0000
0000
0000
,
0000
0000
0000
0000
,
0000
0000
0000
0000
,
0000
0000
0000
0000
,
0000
0000
0000
0000
,
0000
0000
0000
0000
,
0010
0000
0000
0000
,
0100
0000
0100
0000
,
0100
0000
0000
0000
,
1000
0000
1000
0000
,
1000
0000
0000
0000
,
0001
0000
0001
0000
,
0001
0000
0000
0000
,
0100
0000
0000
0100
,
0000
0000
0000
0000
,
0000
0000
0010
0000
,
0000
0000
0000
0000
,
0000
0000
1000
0000
,
0000
0000
0000
0000
,
0000
0000
0001
0000
,
0000
0000
0000
0000
,
0000
0000
0100
0000
,
0000
0000
1000
0000
,
1000
0000
1000
0000
,
0000
0000
0001
0000
,
0001
0000
0001
0000
,
0000
0000
0100
0000
,
0100
0000
0100
0000
,
0000
0000
1001
0000
;

//---------------dance-single - ----------------
#NOTES:
     dance-single:
     :
     Easy:
     4:
     0.306,0.360,0.123,0.296,0.000: // measure 1
0001
1000
0100
0001
,  // measure 2
0100
0000
0000
0000
,  // measure 3
0010
0100
1000
0001
,  // measure 4
1000
0000
0000
0000
,  // measure 5
0000
0001
0000
1000
0000
0001
0000
1000
,  // measure 6
0000
0010
0000
0100
0000
0010
0000
1000
,  // measure 7
0000
0100
0000
1000
0000
0100
0000
0010
,  // measure 8
0000
0001
0000
0010
0000
1000
0000
0100
,  // measure 9
0000
0001
0000
1000
0000
0001
0000
1000
,  // measure 10
0000
0100
0000
0010
0000
1000
0000
0100
,  // measure 11
0000
0010
0000
0001
0000
0100
0000
1000
,  // measure 12
0000
0100
0000
0010
0000
2000
0000
3100
,  // measure 13
0000
0010
0000
0100
0000
0010
0000
1000
,  // measure 14
0000
0001
0000
0100
0000
0002
0000
0103
,  // measure 15
0000
0010
0000
1000
0000
0001
0000
1000
,  // measure 16
0000
0001
0000
0010
0000
0200
0000
0310
,  // measure 17
0000
0001
0000
1000
0000
0100
0000
0010
,  // measure 18
0000
0001
0000
0100
0000
0020
0000
1030
,  // measure 19
0000
0001
0000
1000
0000
0100
0000
0010
,  // measure 20
0000
0001
0000
0010
0000
0100
0000
0000
,  // measure 21
0000
2000
0200
3300
,  // measure 22
0000
0002
0020
0033
,  // measure 23
0000
0002
0200
0303
,  // measure 24
0000
0020
2000
3030
,  // measure 25
0000
0200
0020
0330
,  // measure 26
0000
0002
2000
3003
,  // measure 27
0000
2000
0200
3300
,  // measure 28
0000
0020
0032
0013
,  // measure 29
0000
1000
0000
1000
0000
1000
0000
1000
,  // measure 30
0000
1000
0000
1000
0000
1000
0000
1000
,  // measure 31
0000
0001
0000
0001
0000
0001
0000
0001
,  // measure 32
0000
0001
0000
0001
0000
0001
0000
0001
,  // measure 33
0000
0100
0000
0100
0000
0100
0000
0100
,  // measure 34
0000
0100
0000
0100
0000
0100
0000
0100
,  // measure 35
0000
0010
0000
0010
0000
0010
0000
0010
,  // measure 36
0000
0010
0000
0010
0000
0010
0000
0000
,  // measure 37
2002
0000
0000
0000
,  // measure 38
0000
0000
0000
0000
,  // measure 39
0000
0000
0000
0000
,  // measure 40
0000
0000
0000
0000
,  // measure 41
3000
0000
0000
0000
,  // measure 42
0000
0000
0000
0000
,  // measure 43
0203
0000
0000
0000
,  // measure 44
0020
0000
0000
0330
,  // measure 45
1001
0010
0100
0010
,  // measure 46
1100
0100
0011
0001
,  // measure 47
0101
0001
0100
1000
,  // measure 48
1001
0010
0110
0010
,  // measure 49
0110
1000
0100
0010
,  // measure 50
0011
0100
1100
0010
,  // measure 51
0110
1000
0100
0010
,  // measure 52
0002
0000
0000
0003
0000
0000
1000
0000
,  // measure 53
1000
0001
0001
0100
,  // measure 54
0100
0000
0000
0010
,  // measure 55
1000
0001
0100
1000
,  // measure 56
0100
0000
0000
0001
,  // measure 57
1000
0010
1000
0001
,  // measure 58
0100
0000
0000
0001
,  // measure 59
1000
0100
0010
0001
,  // measure 60
0100
1001
0001
1000
,  // measure 61
0100
0010
0002
0013
,  // measure 62
0200
1300
0020
1030
,  // measure 63
0100
0010
0002
1003
,  // measure 64
2000
3001
0200
0310
,  // measure 65
1000
0100
0020
0031
,  // measure 66
0200
0301
0020
1030
,  // measure 67
0001
0100
1001
1100
,  // measure 68
0022
0000
0000
0033
0000
0000
0000
0000
;
