#TITLE:KIGONSHU;
#SUBTITLE:;
#ARTIST:Asaki;
#TITLETRANSLIT:;
#SUBTITLETRANSLIT:;
#ARTISTTRANSLIT:;
#CREDIT:;
#BANNER:bn.PNG;
#BACKGROUND:bg.PNG;
#LYRICSPATH:;
#CDTITLE:;
#MUSIC:Kigonshu.mp3;
#OFFSET:-3.060;
#SAMPLESTART:70.400;
#SAMPLELENGTH:12.000;
#SELECTABLE:YES;
#BPMS:0.000=250.001;
#STOPS:3.000=0.240
,80.500=0.720
,405.000=2.640
;
#BGCHANGES:;

//---------------dance-single - ----------------
#NOTES:
     dance-single:
     :
     Hard:
     8:
     0.523,0.829,0.145,0.073,0.012:
0000
0000
0000
0000
,
1000
0100
0010
0001
,
0100
0001
0100
0000
,
0010
0100
0010
1000
,
0001
0100
1000
0000
,
0101
0000
1000
0100
,
0000
1000
0000
0100
,
0000
0000
0000
0000
0000
0000
0000
0110
,
0000
0000
0000
0000
0001
0100
0001
0000
,
1000
0001
0010
0100
,
1000
0100
1000
0000
,
0010
1000
0010
1000
,
0001
0100
0001
0000
,
0001
1000
0010
0100
,
0001
0100
0001
0000
,
1000
0100
0010
0001
,
0010
0100
1000
0000
,
0001
0000
0000
1000
0000
1000
0100
0010
,
0001
0010
0000
0000
0011
0000
0000
0000
,
1000
0000
0000
1000
0000
0000
1000
0000
0000
0001
0000
0000
0001
0000
0000
0001
,
0000
0000
1000
0000
0001
1000
0001
0000
,
1000
0110
0000
0010
,
0100
0000
1000
0100
,
0000
0010
0001
0000
,
0001
0100
0010
1000
,
0000
0000
0001
0100
0001
0100
0001
0100
,
0001
0100
0001
0100
0001
0100
0001
0100
,
0001
0010
1000
0010
1000
0010
1000
0010
,
1000
0010
1000
0010
1000
0010
1000
0010
,
1000
0001
2002
0000
0000
0000
0000
0000
,
0000
3003
0000
0001
,
0000
0010
0000
0010
,
0100
0000
1000
0100
,
0010
0000
0001
1000
0001
1000
0001
1000
,
0001
1000
0001
1000
0001
1000
0001
1000
,
0001
1000
0001
1000
0001
1000
0001
1000
,
0001
1000
0001
1000
0001
1000
0001
1000
,
0001
1000
0001
0000
0100
0000
0010
0000
,
0000
1000
0001
0100
,
0000
1000
0100
0010
,
0001
0010
1000
0010
,
0000
0000
0001
0100
0001
0100
0001
0100
,
0001
0100
0001
0100
0001
0100
0000
0100
,
0001
0000
0010
0100
0010
0100
0010
0100
,
0010
0100
0010
0100
0010
0100
0000
0000
,
0010
1001
0000
0000
,
0001
0000
0100
0010
,
0000
1000
0100
0000
,
0010
0001
0000
0010
,
0100
0010
1000
0001
,
0100
0001
1000
0010
,
1000
0001
0010
0100
,
1000
0100
0010
0001
,
1000
0000
0001
0000
0010
0100
0010
0000
,
1000
0001
0100
0001
,
0100
0000
0010
0100
,
0001
1000
0010
0100
,
1000
0000
1000
0100
,
0010
0001
0100
0010
,
1000
0000
2002
0000
,
0000
0000
0000
3003
,
0000
0001
0100
0010
,
1000
0001
0100
1000
,
0001
0100
0000
0010
,
0000
0100
1000
0010
,
0000
1001
1001
0110
,
0110
1100
1100
0011
,
0011
0000
0001
0000
0000
0100
0000
0000
,
1000
0000
0000
0100
0000
0000
0010
0000
,
0000
0010
0001
0000
0010
0000
0100
1000
,
0000
0100
0000
0000
1000
0000
0100
0000
,
1000
0000
0010
0100
,
0001
1000
0010
1000
,
0001
0000
0100
0000
0000
0100
0000
0000
,
0000
1000
0000
0100
,
0000
0000
1000
0000
0000
0100
0000
0000
,
0010
0000
0000
0001
,
0000
0001
0000
0100
,
0000
0010
0100
0010
,
0001
1000
0001
0000
0000
0000
0010
0000
,
0000
0000
0100
0000
0000
1000
0000
0000
,
0100
0010
0000
1001
,
0000
0001
0100
0001
,
0000
0001
0010
0100
,
1000
0100
0010
1000
,
0001
0100
0010
1000
,
0010
1000
0001
0100
,
0001
0000
1000
0100
,
0010
0001
0010
1000
,
0001
0000
0100
0000
0000
0100
0000
0000
,
0000
0000
0000
0000
0000
0000
0010
0100
,
0010
0100
0010
0000
0000
0000
1000
0000
,
0000
0100
0000
1100
,
0000
0010
0001
0010
,
0100
1000
0100
0010
,
0001
0001
1000
0001
,
1000
0001
0100
0001
,
0100
0020
0000
0000
,
0000
0000
0000
0000
,
0100
0200
0000
0000
,
0030
0002
0000
0303
,
0000
0000
0000
0000
1000
0000
0000
0001
,
0000
0100
0000
0010
,
0000
0100
0000
0000
1000
0000
0001
0000
,
0100
0000
0000
0010
0000
0000
1001
0000
,
0000
0000
0001
0000
0000
0100
0000
0000
,
0010
0000
1000
0000
1000
0000
0000
0010
,
0000
0001
0000
0001
,
0000
1000
0000
0000
0001
0000
0000
0000
,
1000
0000
0000
0100
0000
0000
0010
0000
,
0000
0000
0001
0000
0000
0100
0000
0000
,
1000
0100
0010
0001
1000
0000
0001
0000
,
0100
0001
0010
1000
,
0001
0010
0100
1000
,
0100
0010
0001
0010
,
0100
0001
1000
0010
,
1000
0100
0010
0001
,
0010
0100
1000
0001
,
1000
0000
0001
0000
0100
0010
0100
0020
,
0000
0000
0000
1000
0000
0000
0002
0000
,
0000
0000
0000
0000
0000
0033
0000
0000
;

//---------------dance-single - ----------------
#NOTES:
     dance-single:
     :
     Medium:
     6:
     0.391,0.536,0.081,0.251,0.000:
0000
0000
0000
0000
,
0001
0000
1000
0000
,
0001
0100
0001
0000
,
0010
0000
0100
0000
,
0010
0100
0010
0000
,
1001
0000
0001
0001
,
0000
1000
0000
0001
,
0000
0000
0000
0100
,
0000
0000
0010
0100
,
0010
0000
0010
0000
,
0001
1000
0001
0000
,
1000
0000
0100
0000
,
0010
0001
0010
0000
,
0001
0000
0100
0000
,
0010
0100
0010
0000
,
1000
0000
0001
0000
,
0100
0001
0100
0000
,
0001
1000
0010
1000
,
0001
0000
1001
0000
,
0101
0000
1100
0000
,
0000
0001
0000
1000
,
0000
0001
0000
0100
,
0020
0000
0130
0020
,
0000
0130
0020
0000
,
0130
0010
0000
1000
,
0000
0001
0100
0001
,
1000
0001
1000
0001
,
0010
0100
1000
0100
,
0010
0001
0010
0100
,
0010
2002
0000
0000
,
0000
3003
0000
0002
,
0000
0103
0000
0000
,
0020
0000
0000
0130
,
0000
1000
0001
1000
,
0010
1000
0001
0100
,
1000
0100
0001
0010
,
0100
1000
0100
0010
,
0001
0200
0000
0000
,
0320
0000
0000
2030
,
0000
0000
3001
0100
,
0001
0200
0000
0302
,
0000
1003
0001
1000
,
0010
1000
0001
1000
,
0000
0001
1000
0010
,
1000
0001
0100
1000
,
0000
2000
0000
0000
,
3002
0000
0000
0203
,
0000
0000
0000
0000
,
0320
0000
0000
0130
,
0000
0001
1000
0010
,
1000
0001
0000
0100
,
0000
1000
0100
0010
,
0000
0001
0000
0100
,
0000
0001
1000
0010
,
1000
0001
0100
1000
,
0100
0010
0001
0010
,
0100
1000
0100
0010
,
0001
0000
0001
1000
,
0010
0100
1000
0010
,
0001
0000
0202
0000
,
0000
0000
0000
0303
,
0000
0001
0000
1000
,
0000
0001
0100
0010
,
0000
1000
0000
0001
,
0000
1000
0001
1000
,
0000
0001
0001
0010
,
0010
0100
0100
1000
,
1000
0000
1100
0000
0000
0110
0000
0000
,
0011
0000
0000
0110
0000
0000
0001
0000
,
0000
1000
0001
0100
,
0010
1000
0010
1000
,
0010
0000
0001
0100
,
0001
1000
0001
1000
,
0010
0001
0000
0001
,
0000
1000
0001
1000
,
0000
0000
0100
0000
0000
1000
0000
0000
,
0100
0000
0000
0000
,
0000
0010
0000
0100
,
0000
1000
0000
0000
,
0001
1000
0001
0000
0000
0000
0000
0000
,
0000
0010
0100
0010
,
0000
1000
0000
0001
,
0000
0010
0100
0010
,
0000
2000
0000
3100
,
0000
0020
0000
0031
,
0000
0001
0100
0001
,
0000
1000
0000
0001
,
1000
0000
0000
0001
,
1000
0001
0000
0100
,
0010
0200
0000
0310
,
0000
0001
0000
1000
,
0001
1000
0000
0100
,
0000
0010
0000
0001
,
0000
0200
0000
0301
,
0000
0020
0000
1030
,
0000
0200
0000
1300
,
0000
0020
0000
0032
,
0000
0200
0000
0000
,
0000
0000
0000
0003
,
0000
0020
0300
0000
,
0000
2030
0000
0000
,
0000
3001
0001
0000
,
1000
0000
0001
0000
,
0100
0000
0010
0100
,
0010
0000
0100
0000
,
1000
0000
0001
0000
,
0100
0010
0100
0000
,
1000
0000
0001
0000
,
0100
0010
0100
0010
,
0100
0000
0010
0000
,
1000
0000
0001
0000
,
0100
1000
0100
0000
,
0100
0000
1000
0100
,
1000
0000
0010
0000
,
0100
0000
0001
0100
,
0001
0000
0010
0000
,
0001
0000
0100
0001
,
0100
0000
0010
0000
,
1000
0000
0001
2000
,
0002
0000
0000
0000
,
0000
0000
0000
0000
0000
3003
0000
0000
;

//---------------dance-single - ----------------
#NOTES:
     dance-single:
     :
     Easy:
     5:
     0.323,0.341,0.032,0.178,0.000: // measure 1
0000
0000
0000
0000
,  // measure 2
0001
0000
1000
0000
,  // measure 3
0001
0000
0100
0001
,  // measure 4
0100
0000
0010
0000
,  // measure 5
0100
0000
1000
0000
,  // measure 6
0001
0000
1000
0100
,  // measure 7
0000
0000
0000
0000
,  // measure 8
0000
0000
0000
1000
,  // measure 9
0000
0000
0001
0000
,  // measure 10
0100
0000
0010
0000
,  // measure 11
0100
0000
0010
1000
,  // measure 12
0001
0000
1000
0000
,  // measure 13
0100
0000
0010
0001
,  // measure 14
0010
0000
0100
0000
,  // measure 15
0001
0000
0100
0000
,  // measure 16
0010
0000
1000
0000
,  // measure 17
0001
0000
0100
0000
,  // measure 18
1000
0000
0001
0100
,  // measure 19
0001
0000
0100
0000
,  // measure 20
0110
0000
0110
0000
,  // measure 21
0000
0010
0000
0010
,  // measure 22
0000
1000
0000
0000
,  // measure 23
0002
0000
0000
0103
,  // measure 24
0000
0000
0020
0000
,  // measure 25
0000
0130
0000
0010
,  // measure 26
0000
1000
0100
1000
,  // measure 27
0000
0001
0000
0100
,  // measure 28
0000
0010
0100
0010
,  // measure 29
0000
1000
0001
1000
,  // measure 30
0000
2002
0000
0000
,  // measure 31
3003
0000
0000
0001
,  // measure 32
0000
0100
0000
0010
,  // measure 33
0100
0000
0010
0100
,  // measure 34
0000
0020
0000
0130
,  // measure 35
0000
2000
0000
3100
,  // measure 36
0000
0001
0100
0001
,  // measure 37
0000
0010
1000
0000
,  // measure 38
1000
0100
0000
1000
,  // measure 39
0100
0000
0010
0001
,  // measure 40
0000
0000
0002
0000
,  // measure 41
0000
0000
0000
0103
,  // measure 42
0000
0010
0000
0100
,  // measure 43
0000
0010
1000
0001
,  // measure 44
0000
0100
0000
1000
,  // measure 45
0000
0001
0100
0001
,  // measure 46
0000
0002
0000
0000
,  // measure 47
1003
0000
0000
2000
,  // measure 48
0000
0000
0000
0000
,  // measure 49
3100
0000
0000
0010
,  // measure 50
0100
0010
0000
0010
,  // measure 51
0000
0100
0000
0100
,  // measure 52
0000
1000
0000
0001
,  // measure 53
0000
0100
0000
0010
,  // measure 54
0000
1000
0001
1000
,  // measure 55
0000
0001
0100
0001
,  // measure 56
0000
0010
1000
0010
,  // measure 57
0000
0010
0100
0010
,  // measure 58
0000
0001
1000
0001
,  // measure 59
0000
1000
1000
0001
,  // measure 60
0000
0000
0202
0000
,  // measure 61
0000
0000
0000
0303
,  // measure 62
0000
0001
0000
1000
,  // measure 63
0000
0001
0000
0100
,  // measure 64
0000
0010
0000
0100
,  // measure 65
0000
1000
0000
0001
,  // measure 66
0000
1000
0100
0010
,  // measure 67
0001
1000
0100
0010
,  // measure 68
0001
0010
0000
0001
,  // measure 69
0000
0100
0000
0010
,  // measure 70
1000
0001
0000
1000
,  // measure 71
0000
0001
0000
0100
,  // measure 72
0001
0100
0000
0010
,  // measure 73
0000
1000
0000
0001
,  // measure 74
2000
0100
0000
0200
,  // measure 75
0000
0000
3300
0010
,  // measure 76
0100
0010
0000
0010
,  // measure 77
0000
0010
0000
0000
,  // measure 78
0000
0001
0000
1000
,  // measure 79
0000
0001
0000
0100
,  // measure 80
0010
0100
0000
0010
,  // measure 81
0000
1000
0000
0001
,  // measure 82
0100
0001
0000
0010
,  // measure 83
0000
0100
0000
1000
,  // measure 84
0100
1000
0100
0010
,  // measure 85
0001
0010
0000
0100
,  // measure 86
0000
0001
1000
0001
,  // measure 87
0000
0100
0000
0010
,  // measure 88
0100
0010
0000
1000
,  // measure 89
0000
0001
0000
0001
,  // measure 90
0100
0002
0000
0103
,  // measure 91
0000
0000
0000
1000
,  // measure 92
0100
1000
0000
0010
,  // measure 93
0000
0100
0000
0010
,  // measure 94
0000
0002
0000
0000
,  // measure 95
0000
2003
0000
0000
,  // measure 96
0000
3002
0000
0000
,  // measure 97
0000
0203
0000
0000
,  // measure 98
0000
0302
0000
0000
,  // measure 99
0000
2000
0003
0000
,  // measure 100
0000
3010
0000
0010
,  // measure 101
0000
0010
0000
0010
,  // measure 102
0000
0010
0001
0000
,  // measure 103
1000
0000
0001
0000
,  // measure 104
0000
0000
0100
0000
,  // measure 105
0010
0000
0100
0000
,  // measure 106
0000
0000
0010
0000
,  // measure 107
0100
0000
1000
0000
,  // measure 108
0001
0000
0100
0000
,  // measure 109
1000
0000
0000
0000
,  // measure 110
0010
0000
0100
0000
,  // measure 111
0010
0000
0000
1000
,  // measure 112
0000
0000
0001
0100
,  // measure 113
0001
0000
1000
0100
,  // measure 114
1000
0000
0010
0100
,  // measure 115
0010
0000
0001
1000
,  // measure 116
0001
0000
1000
0100
,  // measure 117
1000
0000
0010
0001
,  // measure 118
0010
0000
0001
0100
,  // measure 119
0001
0000
0010
2000
,  // measure 120
0002
0000
0000
0000
,  // measure 121
0000
0000
0000
0000
0000
0000
0000
0000
0000
0000
0000
0000
0000
0000
0000
0000
0000
0000
0000
0000
0000
0000
0000
0000
0000
0000
0000
0000
0000
0000
0000
0000
0000
0000
0000
0000
0000
0000
0000
0000
0000
0000
0000
0000
0000
0000
0000
0000
0000
0000
0000
0000
0000
0000
0000
0000
0000
0000
0000
0000
0000
0000
0000
0000
0000
0000
0000
0000
0000
0000
0000
0000
0000
0000
0000
0000
0000
0000
0000
0000
0000
0000
0000
0000
0000
0000
0000
0000
0000
0000
0000
0000
0000
0000
0000
0000
0000
0000
0000
0000
0000
0000
0000
0000
0000
0000
0000
0000
0000
0000
0000
0000
0000
0000
0000
0000
0000
0000
0000
0000
0000
3003
0000
0000
0000
0000
0000
0000
0000
0000
0000
0000
0000
0000
0000
0000
0000
0000
0000
0000
0000
0000
0000
0000
0000
0000
0000
0000
0000
0000
0000
0000
0000
0000
0000
0000
0000
0000
0000
0000
0000
0000
0000
0000
0000
0000
0000
0000
0000
0000
0000
0000
0000
0000
0000
0000
0000
0000
0000
0000
0000
0000
0000
0000
0000
0000
0000
0000
0000
0000
0000
0000
;

//---------------dance-single - ----------------
#NOTES:
     dance-single:
     :
     Beginner:
     2:
     0.095,0.192,0.065,0.000,0.000:
0000
0000
0000
0000
,
0001
0000
0000
0000
,
0000
0000
0000
0000
,
1000
0000
0000
0000
,
0000
0000
0000
0000
,
0010
0000
0000
0000
,
0000
0000
0000
0000
,
0000
0000
0000
0000
,
0100
0000
0000
0000
,
1000
0000
0000
0000
,
0000
0000
0000
0000
,
0001
0000
0000
0000
,
0000
0000
0000
0000
,
0010
0000
0000
0000
,
0000
0000
0000
0000
,
0100
0000
0000
0000
,
0000
0000
0000
0000
,
1000
0000
0000
0000
,
0000
0000
0000
0000
,
1001
0000
1001
0000
,
0000
0000
0000
0000
,
0000
0100
0000
0000
,
0000
0000
0000
0000
,
0000
0000
0000
0000
,
0000
0000
0000
0000
,
0000
0010
0000
0000
,
0000
0000
0000
0000
,
0000
0100
0000
0000
,
0000
0000
0000
0000
,
0000
1001
0000
0000
,
0000
0000
0000
1000
,
0000
1000
0000
0000
,
0000
0000
0000
0001
,
0000
0001
0000
0000
,
0000
0000
0000
0000
,
0000
0100
0000
0000
,
0000
0000
0000
0000
,
0000
0010
0000
0000
,
0000
0000
0000
0000
,
0000
0000
0000
0000
,
0000
0000
0000
0000
,
0000
0100
0000
0000
,
0000
0000
0000
0000
,
0000
1000
0000
0000
,
0000
0000
0000
0000
,
0000
1001
0000
0000
,
0000
0000
0000
0000
,
0000
0001
0000
0000
,
0000
0000
0000
0000
,
0000
0010
0000
0000
,
0000
0000
0000
0000
,
0000
0100
0000
0000
,
0000
0000
0000
0000
,
0000
1000
0000
0000
,
0000
0001
0000
0000
,
0000
0100
0000
0000
,
0000
0010
0000
0000
,
0000
1000
0000
0000
,
0000
0001
0000
0000
,
0000
0000
1001
0000
,
0000
0000
0000
0000
,
0000
1000
0000
0000
,
0000
0000
0000
0000
,
0000
0000
0000
0000
,
0000
0000
0000
0000
,
0000
0001
0000
0001
,
0000
1000
0000
1000
,
0000
0110
0000
0000
,
0000
0000
0000
0000
,
0000
1001
0000
0000
,
0000
0000
0000
1000
,
0000
0000
0000
0000
,
0000
0000
0000
0000
,
0000
0001
0000
0001
,
0000
0000
0000
1000
,
0000
1000
0000
0000
,
0000
0000
0000
0000
,
0000
0100
0000
0000
,
0000
0000
0000
0000
,
0000
0010
0000
0000
,
0000
0100
0000
0100
,
0000
0100
0000
0000
,
0000
0000
0000
0000
,
0000
1000
0000
0000
,
0000
0001
0000
0000
,
0000
1001
0000
0000
,
0000
0000
0000
0010
,
0000
0010
0000
0000
,
0000
0000
0000
0000
,
0000
0100
0000
0000
,
0000
0000
0000
0000
,
0000
1000
0000
0000
,
0000
0000
0000
0000
,
0000
0001
0000
0000
,
0000
1000
0000
0000
,
0000
1000
0000
0000
,
0000
0000
0000
0000
,
0000
0100
0000
0000
,
0000
0000
0000
0000
,
0000
0010
0000
0000
,
0000
0100
0000
0000
,
0000
1000
1000
0000
,
0000
0000
0000
0000
,
0000
0000
0000
0000
,
0001
0000
0000
0000
,
0000
0000
0000
0000
,
0000
0000
0010
0000
,
0000
0000
0000
0000
,
0000
0000
0000
0000
,
0100
0000
0000
0000
,
0000
0000
0000
0000
,
0000
0000
1000
0000
,
0000
0000
0000
0000
,
0000
0000
0001
0000
,
0000
0000
0000
0000
,
0000
0000
0100
0000
,
0000
0000
0000
0000
,
0000
0000
0010
0000
,
0000
0000
0000
0000
,
1000
0000
0000
0000
;
