#TITLE:Jingle bell rock;
#SUBTITLE:;
#ARTIST:Speedomaster;
#TITLETRANSLIT:;
#SUBTITLETRANSLIT:;
#ARTISTTRANSLIT:;
#CREDIT:;
#BANNER:bn.png;
#BACKGROUND:bg.png;
#LYRICSPATH:;
#CDTITLE:;
#MUSIC:15_speedomaster_-_jingle_bell_rock.mp3;
#OFFSET:-0.240;
#SAMPLESTART:11.280;
#SAMPLELENGTH:12.000;
#SELECTABLE:YES;
#BPMS:0.000=173.720;
#STOPS:;
#BGCHANGES:;

//---------------dance-single - ----------------
#NOTES:
     dance-single:
     :
     Hard:
     8:
     0.520,0.573,0.475,0.241,0.004:
0000
0000
0000
0000
,
0000
0000
0000
0000
,
0000
0000
0000
0000
,
0000
0000
0000
0000
,
0000
0000
0000
0000
,
0000
0000
0000
0000
,
0000
0000
0000
0000
,
0000
0000
0000
0000
,
1000
0001
0100
0000
0100
0010
1000
0000
,
0010
0100
0001
0000
1001
0000
0000
0000
,
1000
0100
1000
0000
1100
0000
0011
0000
,
0001
0100
0001
0000
0101
0000
0000
0000
,
1000
0100
0000
0100
1000
0100
0000
0001
,
0100
0010
0100
0001
0000
0000
0000
0000
,
0000
1000
0000
0001
0100
0010
0100
0000
,
0110
0000
1000
0100
0000
0000
0000
0000
,
0001
0010
0001
0000
1000
0100
1000
0000
,
0001
1000
0001
0000
0110
0000
0000
0000
,
0010
0100
0002
0000
0013
0000
0001
0000
,
1000
0001
0200
0000
0310
0000
0000
0000
,
1000
0100
0000
0010
0001
0100
0000
0010
,
0100
0010
1000
0000
1100
0000
0000
0000
,
0000
1000
0000
0001
0100
0000
0020
2000
,
0000
0000
0000
0000
3030
0000
1000
0010
,
0200
0000
0000
0310
0000
0000
1000
0001
,
0020
0000
0000
0031
0000
0000
0000
0001
,
0101
0000
0110
0000
1100
0000
2000
0200
,
0000
0000
0000
0000
0000
0000
0000
0000
3300
0000
0000
1000
0001
0000
0100
0000
,
0020
0000
0000
1030
0000
0001
1000
0000
,
0000
0100
0000
0100
0000
0000
0000
0000
,
1001
0000
0110
0000
,
1100
0011
0101
1010
,
1000
0001
0100
0000
0010
1000
0001
0000
,
0001
1000
0001
0020
0000
0001
0031
0000
,
0001
0100
0020
0000
0100
0000
0100
0000
,
0200
0000
0330
0000
,
1001
0000
0110
0000
0010
1000
0001
0000
,
1001
1100
0011
0000
,
0000
1000
0000
0001
0100
0010
2000
0000
,
0200
0000
0000
3300
,
1000
0001
1000
0000
0001
0100
0001
0000
,
0001
0010
0001
0000
0011
0000
1100
0000
,
1000
0001
0100
0000
0110
0000
0110
0000
,
0010
1000
0100
0000
1100
0000
1100
0000
,
0010
0001
0100
0001
0010
0001
0000
1000
,
0100
0010
0100
1000
0001
0000
0101
0000
,
0101
0001
0010
0100
0010
0002
0000
1000
,
1000
0000
1000
1000
0000
1000
1003
0000
,
1000
0001
1000
0000
0001
0100
0001
0000
,
0010
1000
0100
0000
2100
0000
0100
0000
,
3100
1000
0200
0000
1000
0000
1300
0000
,
0001
0100
0020
0000
0100
0000
0130
0000
,
1001
0010
1001
0100
,
0110
1000
0110
0001
,
1001
1100
0011
1001
,
1001
0110
0110
0010
,
1000
0001
0200
0000
0310
1000
0002
0000
,
1003
0001
0200
0000
0301
0000
0000
0000
,
0000
1000
0000
1000
0000
0001
0000
0001
,
0000
0100
0000
0010
0000
0100
0000
0010
,
1000
0100
1000
0000
0001
0100
0001
0000
,
0001
1000
0010
0000
1010
0000
1010
0000
,
0000
1000
0000
0001
0000
0100
0000
0010
,
0000
1000
0000
0100
0000
0010
0001
1000
,
0001
0000
0101
0000
0001
0000
0001
1000
,
0001
0000
0000
1000
0000
0100
0000
1000
,
0100
0000
0010
0000
0001
0000
1000
0001
,
1000
0000
0100
0001
0000
0100
0000
0010
,
0100
0000
0110
0000
0110
0000
0010
1000
,
0010
0000
0000
1000
0000
0001
0000
0001
,
0100
0000
0001
0000
0100
0000
0010
1000
,
0010
0000
1000
0100
0000
0010
0000
0001
,
1000
0000
0001
0000
1000
0000
0001
0100
,
0001
0000
0100
0001
0000
0100
0000
0001
,
0101
0000
0101
0000
0101
0000
0001
0100
,
0010
0000
1000
0010
0000
0010
0000
0010
,
1010
0000
1010
0000
1010
0000
1000
0001
,
1000
0000
0001
0100
0000
0010
0000
0010
,
1010
0000
0110
0000
0011
0000
0001
1000
,
0001
0000
0001
0100
0000
0010
1000
0001
,
2000
0000
0000
3100
0000
0000
1000
0100
,
0020
0000
0000
0031
0000
0000
0000
0001
,
0100
0000
0010
0000
1000
0000
0002
2000
,
0000
0000
0000
0000
3003
1001
1001
0001
,
0200
0000
0000
0310
0000
0010
1000
0200
,
0000
1000
0000
1300
0000
0000
0000
0000
,
1100
0000
0011
0000
,
0000
0110
0110
0000
2002
0000
3003
0000
,
1000
1000
1000
0000
0001
0001
0001
0000
,
0001
1000
0001
0000
1001
0000
0000
0000
,
0010
0100
0002
0000
0010
0000
0100
0000
,
0020
0000
0033
0000
,
1001
0000
1100
0000
0001
0100
0010
0000
,
0010
1000
0001
1000
0000
0000
0000
0000
,
0000
1000
0000
1000
0100
0010
0001
0000
,
0000
0001
0000
0001
0010
0100
1000
0000
,
0000
1000
0000
1000
0100
0010
0002
0000
,
0200
0000
0000
0000
,
0303
0000
0000
0000
;

//---------------dance-single - ----------------
#NOTES:
     dance-single:
     :
     Medium:
     6:
     0.422,0.573,0.417,0.219,0.000:
0000
0000
0000
0000
,
0000
0000
0000
0000
,
0000
0000
0000
0000
,
0000
0000
0000
0000
,
0000
0000
0000
0000
,
0000
0000
0000
0000
,
0000
0000
0000
0000
,
0000
0000
0000
0000
,
1000
0001
1000
0000
0001
0100
0001
0000
,
0010
1000
0010
0000
1010
0000
0000
0000
,
1000
0100
1000
0000
1000
0000
1000
0000
,
0001
0100
0001
0000
0001
0000
0000
0000
,
1000
0000
0001
0000
,
1000
0001
0100
0001
0000
0000
0000
0000
,
1001
0010
1010
0010
,
0010
0000
0010
0100
0000
0000
0000
0000
,
0010
0100
0010
0000
1000
0010
1000
0000
,
0001
1000
0001
0000
1100
0000
0000
0000
,
1000
0100
1000
0000
0001
0000
0001
0000
,
1000
0001
0100
0000
0100
0000
0000
0000
,
1001
0010
1001
0100
,
1001
1001
1001
0000
,
1100
0010
0011
0100
,
0202
0000
0000
0000
0303
0000
1000
0001
,
2000
0000
0000
3001
0000
0000
0001
0100
,
0002
0000
0000
0103
0000
0000
0000
0010
,
1000
0000
0010
0000
0100
0000
0010
2000
,
0000
0000
0000
0000
3000
0000
0001
1000
,
0002
0000
0000
0103
0000
0000
0010
1000
,
0000
0010
0000
0020
0000
0000
0030
0000
,
0110
0000
0110
0000
,
0010
0010
0010
0000
,
0001
1000
0001
0000
0100
0001
0100
0000
,
0001
1000
0001
1000
0000
0000
0000
0000
,
0001
1000
0001
0000
0100
0000
1000
0000
,
0020
0000
0000
0030
,
0001
1000
0001
0000
0100
0010
0001
0000
,
0010
0001
0010
0100
0000
0000
0000
0000
,
0000
1000
0000
0001
0100
0001
0100
0000
,
0202
0000
0000
0303
,
1000
0100
1000
0000
0001
0100
0001
0000
,
1000
0001
1001
1001
,
0001
0100
0001
0000
0101
0000
0101
0000
,
0001
1000
0001
0000
1001
0000
1001
0000
,
1100
0100
1100
0000
,
0010
1000
1010
0000
,
1001
0001
1000
0001
,
0200
0000
0000
0300
,
0002
1003
2000
3100
,
0200
1000
1300
0000
,
2000
3100
0200
1300
,
0002
0103
0002
0103
,
1002
0000
2003
0000
,
0001
0001
3001
0000
,
1001
0010
1001
0010
,
2002
0000
0000
3003
,
0001
1000
0001
0100
,
0010
0010
1010
0000
,
1000
0000
0001
0000
,
0100
0000
0010
0000
,
1010
0101
1010
1100
,
0011
1001
1001
0000
,
0101
0000
1000
0000
,
0001
1000
0100
0001
,
1000
0000
1000
0000
1000
0000
0001
1000
,
0001
0000
0000
1000
0000
1000
0000
0001
,
0100
0010
1000
0010
,
1000
0000
0000
0001
0000
1000
0000
0000
,
0001
0100
0010
1000
,
0010
0000
0000
1000
0000
1000
0000
0000
,
1000
0001
0100
0010
,
1000
0000
0000
1000
0000
1000
0000
0000
,
1010
1010
1010
1000
,
0100
0000
0000
1000
0000
1000
0000
0000
,
1001
1001
1001
1001
,
0001
0000
0000
0100
0000
0100
0000
0000
,
0101
1010
0110
1001
,
1100
0000
0000
1000
0000
1000
0000
0000
,
0101
0000
1010
0000
,
0110
0000
1100
0000
0011
0000
1000
0001
,
0200
0000
0000
0301
0000
0000
1000
0000
,
0002
0000
0000
1003
0000
0000
0000
0000
,
1000
0000
1000
0000
1000
0000
0001
0200
,
0000
0000
0000
0000
0300
0000
0001
1000
,
0002
0000
0000
1003
0000
0000
1000
0100
,
0000
1000
0000
1000
0000
0000
0000
0000
,
1000
0000
0001
0000
,
1000
1000
1000
0000
,
0001
1000
0001
0000
0100
0001
0100
0000
,
0010
1000
0010
0000
1010
0000
0000
0000
,
1000
0100
1000
0000
1000
0000
0002
0000
,
0200
0000
0000
0303
,
0001
0000
1000
0000
0100
0010
0100
0000
,
0010
1000
0010
0000
,
0000
1000
0000
0000
0001
0000
0100
0000
,
0000
0010
0000
0000
1000
0000
0001
0000
,
0000
1001
0000
0000
0010
0000
2000
0000
,
0200
0000
0000
0000
,
3300
0000
0000
0000
;

//---------------dance-single - ----------------
#NOTES:
     dance-single:
     :
     Easy:
     4:
     0.241,0.573,0.146,0.139,0.000:
0000
0000
0000
0000
,
0000
0000
0000
0000
,
0000
0000
0000
0000
,
0000
0000
0000
0000
,
0000
0000
0000
0000
,
0000
0000
0000
0000
,
0000
0000
0000
0000
,
0000
0000
0000
0000
,
0001
0001
1000
1000
,
0001
1000
1001
0000
,
0001
0100
0100
0001
,
0100
0001
0100
0000
,
0010
0000
0010
0000
,
1000
1000
1000
0000
,
0001
1000
0100
0010
,
0011
1100
0011
0000
,
0001
0001
1000
1000
,
0001
1000
1001
0000
,
0010
0000
0100
0000
,
0010
0010
0010
0000
,
1000
0000
1000
0000
,
0001
0001
0001
0000
,
0100
0000
0010
0000
,
1000
0000
0000
0001
,
0002
0000
0003
1000
,
2000
0000
3000
0000
,
0010
0000
0010
0000
,
0010
0000
0000
0100
,
0200
0000
0300
0000
,
0100
0000
0000
0000
,
1000
0000
0000
0000
,
1001
0000
0100
0000
,
1010
0000
0010
0000
,
0010
0010
0010
0000
,
1000
0001
0100
0010
,
2000
0000
0000
3000
,
0001
0000
1000
0000
,
1000
0100
1000
0000
,
0011
0000
1100
0000
,
2002
0000
0000
3003
,
0001
0000
0001
0000
,
0001
0001
0001
0000
,
1000
0000
1000
1000
,
1000
0000
0010
0000
,
0100
0000
0100
0000
,
0010
0010
0010
0000
,
1000
0000
0001
0000
,
2002
0000
3003
0000
,
0002
0000
0000
0000
,
2003
0000
3001
0000
,
2000
0000
0000
3000
,
0020
0000
0030
0000
,
0200
0000
0000
0300
0000
0000
0000
0000
,
0020
0000
0030
0000
,
2000
0000
0000
0000
,
0002
0000
0000
3003
,
0001
0001
0001
0001
,
1000
0001
0100
0000
,
0000
0000
0000
0000
,
0000
0000
0000
0000
,
1100
1010
1100
1010
,
1100
1010
1100
1000
,
1000
1000
1000
1000
,
1000
0001
0100
0010
,
0100
0000
0100
0000
,
0100
0000
0000
0000
,
0010
0000
0010
0000
,
0010
0000
0000
0000
,
1000
0000
1000
0000
,
1000
0000
0000
0000
,
0001
0000
0001
0000
,
0001
0000
0000
0000
,
1000
0001
0100
0001
,
0100
0000
0000
0000
,
0010
1000
0010
0100
,
0010
0000
0000
0000
,
1000
0100
0010
0001
,
0100
0000
0000
0000
,
1000
0001
0100
0010
,
1000
0000
1000
0000
,
0001
0000
0000
0000
,
0001
0000
0000
0000
,
1000
0000
1000
0000
,
1000
0000
0000
0000
,
0110
0000
0000
0000
,
0010
0000
0000
0000
,
0100
0000
0000
0000
,
0000
0000
0000
0000
,
1000
0000
1000
0000
,
1000
0001
0100
0000
,
0010
1000
0100
0010
,
0002
0000
0000
0003
,
1000
0000
0001
0000
,
0100
0000
0010
0000
,
0000
1000
0000
0000
0001
0000
0001
0000
,
0000
0001
0000
0000
1000
0000
1000
0000
,
0000
1000
0000
0000
0001
0000
0100
0000
,
2020
0000
0000
0000
,
3030
0000
0000
0000
;

//---------------dance-single - ----------------
#NOTES:
     dance-single:
     :
     Beginner:
     1:
     0.077,0.177,0.029,0.000,0.000: // measure 1
0000
0000
0000
0000
,  // measure 2
0000
0000
0000
0000
,  // measure 3
0000
0000
0000
0000
,  // measure 4
0000
0000
0000
0000
,  // measure 5
0000
0000
0000
0000
,  // measure 6
0000
0000
0000
0000
,  // measure 7
0000
0000
0000
0000
,  // measure 8
0000
0000
0000
0000
,  // measure 9
0010
0000
0000
0000
,  // measure 10
0000
0000
0000
0000
,  // measure 11
1000
0000
0000
0000
,  // measure 12
0000
0000
0000
0000
,  // measure 13
0001
0000
0000
0000
,  // measure 14
0001
0000
0000
0000
,  // measure 15
1000
0000
0000
0000
,  // measure 16
0010
0000
0000
0000
,  // measure 17
0100
0000
0000
0000
,  // measure 18
0000
0000
0000
0000
,  // measure 19
0010
0000
0000
0000
,  // measure 20
0000
0000
0000
0000
,  // measure 21
1000
0000
0000
0000
,  // measure 22
1000
0000
0000
0000
,  // measure 23
0000
0000
0000
0000
,  // measure 24
0000
0000
0000
0000
,  // measure 25
0010
0000
0000
0000
,  // measure 26
0010
0000
0000
0000
,  // measure 27
1000
0000
1000
0000
,  // measure 28
1000
0000
0000
0000
,  // measure 29
0001
0000
0000
0000
,  // measure 30
0001
0000
0000
0000
,  // measure 31
0100
0000
0000
0000
,  // measure 32
0000
0000
0000
0000
,  // measure 33
0010
0000
0000
0000
,  // measure 34
0000
0000
0000
0000
,  // measure 35
0010
0000
0000
0000
,  // measure 36
0000
0000
0000
0000
,  // measure 37
1000
0000
0000
0000
,  // measure 38
0001
0000
0000
0000
,  // measure 39
1000
0000
0001
0000
,  // measure 40
1001
0000
0000
0000
,  // measure 41
0010
0000
0000
0000
,  // measure 42
0000
0000
0000
0000
,  // measure 43
0100
0000
0000
0000
,  // measure 44
0000
0000
0000
0000
,  // measure 45
1000
0000
0000
0000
,  // measure 46
0000
0000
0000
0000
,  // measure 47
0001
0000
0000
0000
,  // measure 48
0000
0000
0000
0000
,  // measure 49
1000
0000
1000
0000
,  // measure 50
1000
0000
0000
0000
,  // measure 51
0001
0000
0001
0000
,  // measure 52
0001
0000
0000
0000
,  // measure 53
0010
0000
0010
0000
,  // measure 54
0010
0000
0000
0000
,  // measure 55
0100
0000
0100
0000
,  // measure 56
0100
0000
0000
0000
,  // measure 57
1000
0000
0000
0000
,  // measure 58
0000
0000
0000
0000
,  // measure 59
0000
0000
0000
0000
,  // measure 60
0000
0000
0000
0000
,  // measure 61
0110
0000
0000
0000
,  // measure 62
0000
0000
0000
0000
,  // measure 63
0000
0000
0000
0000
,  // measure 64
0000
0000
0000
0000
,  // measure 65
0001
0000
0000
0000
,  // measure 66
0000
0000
0000
0000
,  // measure 67
1000
0000
0000
0000
,  // measure 68
0010
0000
0000
0000
,  // measure 69
0100
0000
0000
0000
,  // measure 70
0000
0000
0000
0000
,  // measure 71
0010
0000
0000
0000
,  // measure 72
0000
0000
0000
0000
,  // measure 73
1000
0000
0000
0000
,  // measure 74
0001
0000
0000
0000
,  // measure 75
0100
0000
0000
0000
,  // measure 76
0010
0000
0000
0000
,  // measure 77
1000
0000
0000
0000
,  // measure 78
0001
0000
0000
0000
,  // measure 79
1000
0000
0000
0000
,  // measure 80
0001
0000
0000
0000
,  // measure 81
0110
0000
0000
0000
,  // measure 82
0000
0000
0000
0000
,  // measure 83
0000
0000
0000
0000
,  // measure 84
0000
0000
0000
0000
,  // measure 85
1000
0000
0000
0000
,  // measure 86
0000
0000
0000
0000
,  // measure 87
0001
0000
0000
0000
,  // measure 88
0000
0000
0000
0000
,  // measure 89
0010
0000
0000
0000
,  // measure 90
0010
0000
0000
0000
,  // measure 91
1000
0000
1000
0000
,  // measure 92
1000
0000
0000
0000
,  // measure 93
0001
0000
0000
0000
,  // measure 94
0001
0000
0000
0000
,  // measure 95
1000
0000
0000
0000
,  // measure 96
1000
0000
0000
0000
,  // measure 97
1000
0000
0000
0000
,  // measure 98
1001
0000
0000
0000
;
