#TITLE:Ixion;
#SUBTITLE:;
#ARTIST:L.E.D.;
#TITLETRANSLIT:;
#SUBTITLETRANSLIT:;
#ARTISTTRANSLIT:;
#CREDIT:;
#BANNER:bn.PNG;
#BACKGROUND:bg.PNG;
#LYRICSPATH:;
#CDTITLE:Beatmania IIDX.png;
#MUSIC:Ixion.mp3;
#OFFSET:-8.130;
#SAMPLESTART:28.850;
#SAMPLELENGTH:12.720;
#SELECTABLE:YES;
#BPMS:0.000=75.000,24.000=150.000;
#STOPS:24.000=1.180
,153.000=2.800
;
#BGCHANGES:;

//---------------dance-single - ----------------
#NOTES:
     dance-single:
     :
     Hard:
     7:
     0.421,0.434,0.168,0.208,0.060:
0000
0000
0000
0000
,
0000
0000
0000
0000
,
0001
0000
0000
0000
1000
0000
0000
0100
0000
0000
0010
0000
0000
0001
0000
0001
,
0100
0000
0000
0000
0010
0000
0000
0100
0000
0000
1000
0000
0000
0000
0000
0001
,
1001
0000
0000
0000
0000
0000
0000
0010
0110
0000
0000
0000
0000
0000
0000
1000
,
1100
0000
0000
0000
0000
0000
0010
0000
0010
0000
0000
0000
0000
0000
0001
0000
0100
0000
1000
0000
0000
0100
0000
0000
0010
0000
0000
0001
0000
0000
1000
0000
,
0000
0000
0001
0100
0010
0000
0120
0000
,
0130
0000
1000
0100
1000
0000
0020
0000
,
0130
0000
0001
1000
0010
0000
0102
0000
,
1003
0000
0010
1000
0010
0000
2100
0000
,
3010
0000
0001
0100
0020
0000
0130
0000
,
1001
0000
0010
1000
0100
0000
2100
0000
,
3010
0000
0001
0100
0010
0000
0120
0000
,
0130
1001
0000
0000
,
0000
0000
0001
1000
0010
0000
0100
0000
,
1000
0000
1000
0000
0100
1000
0000
1000
,
0100
0010
0001
0000
0100
0000
0001
1000
,
0001
0000
0010
0000
0010
0200
0000
0310
,
1000
0000
0001
0000
1000
0100
0000
0010
,
0001
0010
0001
0000
0010
0100
0000
0001
,
1000
0001
1000
0000
0100
0000
1000
0100
,
0010
0100
0002
0000
0000
0000
0000
0000
,
1000
1003
1000
0000
0001
0100
0000
0010
,
0100
0000
1000
0001
1000
0020
0000
1030
,
0001
1000
0010
0000
0001
0100
0000
1000
,
0100
0010
0001
0010
0100
2000
0000
3001
,
0100
0010
1000
0000
1000
1000
0000
0000
,
0000
0000
0010
0100
0010
1000
0000
0001
,
0100
0010
1000
0100
1000
0100
0000
1000
,
0100
0010
0002
0000
0000
2000
0000
0000
,
3003
0002
0000
0203
,
0000
0320
0000
2030
,
0000
3020
0000
0230
,
0000
0302
0003
2002
,
3000
2000
0000
0000
,
3003
0110
0000
0000
,
0000
1000
1100
0000
0000
0010
0011
0000
,
0000
0000
0001
0000
0101
0000
0110
0000
0000
1100
0000
0000
0011
0000
0000
0110
,
0000
1001
0000
0000
0001
1000
0001
0100
,
1000
0100
1000
0000
1000
0100
0010
1000
,
0001
0100
0010
0000
0001
0100
0010
1000
,
0001
0100
1000
0000
1000
0001
0100
0010
,
1000
0100
0010
0000
0001
1000
0010
1000
,
0010
0100
1000
0000
0001
1000
0010
0100
,
0001
0010
0100
0000
1000
0001
0100
1000
,
0100
0010
0001
0010
2000
0000
0000
0000
,
0100
0000
0010
0000
3001
0100
0010
1000
,
0010
0100
0001
0000
0001
0100
1000
0100
,
0010
0001
0010
0001
0100
0000
0001
0000
,
1000
0010
0100
0000
1000
0001
1000
0010
,
0100
1000
0100
0010
0001
0010
0100
0001
,
1000
0010
0100
0000
1000
0010
0100
0001
,
1000
0010
0100
0001
1000
0100
0010
0000
,
0001
1000
0010
0000
0100
1000
0001
1000
,
0010
0100
0001
0000
1000
0000
0100
1000
,
0100
0000
0010
0001
0000
0100
0010
0000
,
1000
0001
0000
0001
0100
0000
0001
0100
,
0010
0000
0010
1000
0000
0001
1000
0000
,
0001
0100
0000
0010
0100
0000
1000
0100
,
1000
0000
1000
0100
0000
0100
0010
0000
,
0010
0001
0000
0001
0100
0000
0010
0100
,
0010
0000
1000
0001
0000
0100
0010
0000
,
1000
0100
0000
0010
2002
0000
0000
0000
,
0000
0000
0000
0000
,
3003
0000
0000
0000
;

//---------------dance-single - ----------------
#NOTES:
     dance-single:
     :
     Medium:
     5:
     0.311,0.380,0.064,0.200,0.008:
0000
0000
0000
0000
,
0000
0000
0000
0000
,
1000
0000
0000
0000
,
0001
0000
0000
0000
,
0110
0000
1100
0000
,
0011
0000
1100
0000
0110
0010
1000
0001
,
1100
0001
0100
0010
,
1000
0100
1000
0000
0010
0000
1000
0000
,
0001
0100
0001
0000
1000
0000
0001
0000
,
0010
0100
0010
0000
1000
0000
0100
0000
,
0001
1000
0010
0000
0100
0000
1000
0000
,
1000
0100
1000
0000
0100
0000
0010
0000
,
0001
1000
0010
0000
1000
0000
0001
0000
,
0100
2000
0002
0000
0000
0000
0000
0000
,
3003
0000
0001
0100
0001
0000
0010
0000
,
1000
0000
0100
1000
0100
0000
1000
0000
,
0100
0000
0001
1000
0001
0000
0010
0000
,
0100
0000
1000
0100
1000
0000
0020
0000
,
0130
0000
0001
0100
0001
0000
1000
0000
,
0100
0000
1000
0100
1000
0000
0010
0000
,
0100
0000
0001
1000
0010
0000
0001
0000
,
0100
2200
0000
0000
,
3300
0000
0001
0000
0000
0010
0000
0001
,
0010
0100
1000
0100
,
0010
0000
0001
0000
0000
1000
0000
0001
,
1000
0000
1000
0000
0100
1000
0000
0000
,
0100
0000
1000
0000
0010
0100
0000
0010
,
0100
0000
0001
0000
1000
0001
0000
0001
,
1000
0000
0010
0000
0100
1000
0000
0010
,
0001
0000
0200
0000
0000
0020
0000
0000
,
0330
0002
0000
0000
,
0000
0000
0000
0000
,
0000
2003
0000
0000
,
0000
0000
0000
3002
,
0000
0100
0000
0000
,
0000
0010
0000
0000
,
0000
1003
0001
0000
0000
0100
0010
0000
,
0000
0000
1000
0000
0100
0000
0001
0000
0000
1000
0000
0000
0001
0000
0000
0100
,
0000
1000
0000
0000
1000
0100
1000
0000
,
0020
0000
0130
0000
0001
0100
0001
0000
,
0020
0000
0031
0000
0010
0100
0010
0000
,
0200
0000
0310
0000
1000
0001
1000
0000
,
0002
0000
0103
0000
0010
1000
0010
0000
,
0200
0000
0310
0000
1000
0100
2000
0000
,
0100
0000
3010
0000
0001
0100
0010
0000
,
0001
1000
0010
0000
0001
0000
1000
0000
,
0001
0000
0100
0000
0001
0100
0002
0000
,
0100
0000
0013
0000
1000
0100
2000
0000
,
0100
0000
3010
0000
0001
1000
0002
0000
,
0100
0000
0013
0000
0010
0100
0020
0000
,
0100
0000
1030
0000
0001
1000
0002
0000
,
0100
0000
0103
0000
1000
0100
2000
0000
,
0100
0000
3100
0000
0010
0100
0010
0000
,
0002
0000
1003
0000
1000
0100
0010
0001
,
0010
0100
1000
0000
0001
0000
1000
0000
,
0100
0000
0000
0010
0000
0000
0001
0000
,
0000
0010
0000
1000
0100
0000
0000
0001
,
1000
0000
0000
0001
0000
0000
0010
0000
,
0000
0100
0000
1000
0100
0000
0000
0000
,
0010
0000
0000
0001
0000
0000
0100
0000
,
0000
0010
0000
1000
0001
0000
0000
0000
,
1000
0000
0000
0100
0000
0000
0001
0000
,
0000
1000
0000
0000
2002
0000
0000
0000
,
0000
0000
3003
0000
;

//---------------dance-single - ----------------
#NOTES:
     dance-single:
     :
     Easy:
     3:
     0.235,0.279,0.024,0.192,0.000:
0000
0000
0000
0000
,
0000
0000
0000
0000
,
1000
0000
0000
0000
,
0000
0000
0000
0000
,
0001
0000
1000
0000
,
0001
0000
1000
0000
0001
1000
0001
1000
,
0000
0001
0100
0010
,
1000
0100
1000
0200
,
0310
0001
1000
0010
,
0100
0001
0010
0200
,
1300
0010
1000
0001
,
0100
0010
1000
0001
,
0100
1000
0100
0010
,
0001
2002
0000
0000
,
3003
0001
0100
0001
,
0100
0010
1000
0010
,
1000
0001
1000
0001
,
1000
0010
0100
0010
,
0100
0001
0010
1000
,
0010
0001
0100
1000
,
0100
0001
1000
0010
,
0100
2002
0000
0000
,
3003
0001
1000
0010
,
0100
0100
0010
1000
,
0001
0001
1000
0010
,
0100
0100
0010
1000
,
0001
0001
1000
0000
,
0000
1000
0100
0010
,
0001
0010
1000
0000
,
0001
0000
0200
0000
0000
0020
0000
0000
,
0330
0002
0000
0000
,
0000
0000
0000
0000
,
0000
0000
0000
0000
,
0000
0000
0000
0000
,
0000
2003
0000
0000
,
0000
3002
0000
0000
,
0000
0203
0000
0320
,
0000
2030
0000
3002
,
0000
0103
0001
1000
,
0001
1000
0010
1000
,
0010
1000
0100
0010
,
0100
0010
0100
0001
,
0100
0001
1000
0001
,
1000
0010
0001
1000
,
0001
0100
0001
1000
,
0001
0100
0010
1000
,
0200
1300
0010
0001
,
0200
0301
0010
1000
,
0002
0103
0010
1000
,
0100
0010
0001
0100
,
0002
0000
1003
0001
,
0100
0010
1000
0100
,
0010
0001
2000
3100
,
0020
0031
0002
0000
,
0000
0003
1000
0000
,
0001
0000
0100
0000
,
0010
0000
1000
0000
,
0001
0000
0100
0000
,
0010
0000
1000
0000
,
0001
0000
0100
0000
,
0010
0000
1000
0000
,
0001
0000
0100
0000
,
0010
0000
2200
0000
,
0000
0000
3300
0000
;

//---------------dance-single - ----------------
#NOTES:
     dance-single:
     :
     Beginner:
     1:
     0.063,0.125,0.024,0.000,0.000: // measure 1
0000
0000
0000
0000
,  // measure 2
0000
0000
0000
0000
,  // measure 3
0001
0000
0000
0000
,  // measure 4
0000
0000
0000
0000
,  // measure 5
1000
0000
1000
0000
,  // measure 6
1000
0000
0000
0000
,  // measure 7
1001
0001
0000
0000
,  // measure 8
0000
0000
0000
0000
,  // measure 9
0000
1000
0000
0000
,  // measure 10
0000
0000
0000
0000
,  // measure 11
0000
0010
0000
0000
,  // measure 12
0000
0000
0000
0000
,  // measure 13
0000
0100
0000
0000
,  // measure 14
0000
0100
0000
0000
,  // measure 15
0000
1000
0000
0000
,  // measure 16
0000
0001
0000
0000
,  // measure 17
0000
0100
0000
0000
,  // measure 18
0000
0010
0000
0000
,  // measure 19
0000
0010
0000
0000
,  // measure 20
0000
0100
0000
0000
,  // measure 21
0000
1000
0000
0000
,  // measure 22
0000
0001
0000
0000
,  // measure 23
0000
0100
0000
0000
,  // measure 24
0000
0100
0000
0000
,  // measure 25
0000
0010
0000
0000
,  // measure 26
0000
0010
0000
0000
,  // measure 27
0000
1000
0000
0000
,  // measure 28
0000
1000
0000
0000
,  // measure 29
0000
0001
0000
0000
,  // measure 30
0000
0001
0000
0000
,  // measure 31
0000
0100
0000
0000
,  // measure 32
0000
0000
0000
0000
,  // measure 33
0000
0000
0000
0000
,  // measure 34
0000
0000
0000
0000
,  // measure 35
0000
0010
0000
0000
,  // measure 36
0000
0010
0000
0000
,  // measure 37
0000
0010
0000
0010
,  // measure 38
0000
0010
0000
0000
,  // measure 39
0000
0000
0001
0000
,  // measure 40
0000
0000
0001
0000
,  // measure 41
0000
0000
1000
0000
,  // measure 42
0000
0000
1000
0000
,  // measure 43
0000
0000
0010
0000
,  // measure 44
0000
0000
0010
0000
,  // measure 45
0000
0000
0100
0000
,  // measure 46
0000
0000
0000
0000
,  // measure 47
0000
0000
0110
0000
,  // measure 48
0000
0000
0010
0000
,  // measure 49
0000
0000
0100
0000
,  // measure 50
0000
0000
1000
0000
,  // measure 51
0000
0000
0001
0000
,  // measure 52
0000
0000
0001
0000
,  // measure 53
0000
0000
1000
0000
,  // measure 54
0000
0000
0100
0000
,  // measure 55
0000
0000
0010
0000
,  // measure 56
0000
0000
0000
0000
,  // measure 57
0000
0000
0100
0000
,  // measure 58
0000
0000
0000
0000
,  // measure 59
0000
0000
1000
0000
,  // measure 60
0000
0000
0000
0000
,  // measure 61
0000
0000
0001
0000
,  // measure 62
0000
0000
0000
0000
,  // measure 63
0000
0000
1001
0000
;
