#TITLE:INORI;
#SUBTITLE:;
#ARTIST:dj TAKA feat.HAL;
#TITLETRANSLIT:;
#SUBTITLETRANSLIT:;
#ARTISTTRANSLIT:;
#CREDIT:Stepfile created by Digi379 aka DHB;
#BANNER:bn.PNG;
#BACKGROUND:bg.PNG;
#LYRICSPATH:INORI.lrc;
#CDTITLE:IIDX RED.png;
#MUSIC:INORI.mp3;
#OFFSET:-0.040;
#SAMPLESTART:25.520;
#SAMPLELENGTH:13.000;
#SELECTABLE:YES;
#BPMS:0.000=146.000;
#STOPS:192.000=1.233
;
#BGCHANGES:;

//---------------dance-single - ----------------
#NOTES:
     dance-single:
     :
     Hard:
     7:
     0.403,0.641,0.102,0.086,0.059:
0000
0000
0000
0000
,
0000
0000
0000
0000
,
0000
0000
0000
0000
,
0000
0000
0000
0000
,
0000
0000
0000
0000
,
0000
0000
0000
0000
,
0000
0000
0000
0000
,
0000
0000
0000
0000
,
0001
0000
1000
0000
0001
1000
0001
0000
,
0100
0000
0010
0000
0010
1000
0010
0000
,
0100
0000
0010
0000
0001
1000
0001
0000
,
0100
0000
0010
0000
0001
1000
0010
0000
,
1001
0000
0010
0000
0100
0010
1000
0000
,
1010
0000
0010
0000
0100
0010
1000
0000
,
0001
0001
0001
0001
,
0001
0001
0001
1000
,
0001
0100
0001
0000
0010
1000
0010
0000
,
0010
0100
0010
0000
0010
1000
0001
1000
,
0010
0000
0000
0000
0001
0100
0001
0000
,
1000
0100
1000
0000
0010
1000
0001
1000
,
0010
0100
0010
0000
0010
1000
0010
0000
,
0001
0000
0001
0100
0000
0010
0000
2000
,
0000
0000
0000
0000
,
3000
0000
0010
0010
,
0010
0100
0010
0000
0001
1000
0001
0000
,
1000
0100
1000
0000
0001
0100
0010
0100
,
0001
1000
0001
0000
0010
1000
0010
0000
,
0001
0100
0001
0000
0010
0100
0010
0000
,
1001
0000
0010
0000
1000
0100
1000
0000
,
0011
0000
0010
0000
0100
0010
0100
0000
,
0110
0010
2000
0001
,
0002
0000
0000
3003
,
0001
0000
0100
0000
0001
0000
0000
0100
0000
0000
0010
0000
0100
0000
0000
0000
,
0010
0000
0000
0000
1000
0000
0000
0100
0000
0000
1000
0000
0100
0000
0000
0000
,
0010
0000
0000
0000
0001
0000
0000
1000
0000
0000
0001
0000
0100
0000
0000
0000
,
0010
0000
0000
0000
1000
0000
0000
0010
0000
0000
0010
0000
0100
0000
0000
0000
,
0010
0000
0000
0000
1000
0000
0000
0001
0000
0000
1000
0000
0100
0000
0000
0000
,
1000
0000
0000
0000
0100
0000
0000
1000
0000
0000
0100
0000
1000
0000
0000
0000
,
0010
0000
0000
0000
0100
0000
0000
0010
0000
0000
0100
0000
0010
0000
0000
0000
,
1000
0001
0100
0010
,
1010
0000
0010
0100
0010
0000
0001
0000
,
0011
0000
0001
0010
0100
0000
0001
0000
,
1001
0000
0001
1000
0100
0000
1001
0000
,
0010
0000
0100
0010
0100
0000
0010
0000
,
1010
0000
0010
0100
0110
0000
0010
0000
,
0011
0000
0001
1000
0100
0000
0010
0000
,
0010
0100
0010
0100
0010
0100
0010
0100
,
0001
1000
0010
1000
0001
0010
0100
1000
,
0100
0000
1000
0100
1000
0000
0001
0100
,
0001
0000
0010
0001
0010
0000
0010
0100
,
0010
1000
0001
0100
0001
0000
0010
0001
,
0010
0000
0010
1000
0010
0000
0100
0010
,
0001
0010
0100
1000
0100
0000
0010
0100
,
0010
0000
1000
0000
0001
0100
0000
0010
,
0000
0100
0010
0000
0200
0000
0000
0000
,
0010
0020
0330
0010
,
1000
0000
0001
1000
0100
0000
0001
1000
,
0010
0000
0001
1000
0100
0000
0001
1000
,
0010
1000
0010
1000
0010
0000
0010
0100
,
0010
0000
0001
1000
0001
0000
1000
0100
,
1000
0100
2000
0000
0100
0000
0100
0000
,
3100
0002
0100
0100
,
0103
0002
0000
0000
,
0000
0020
0000
0000
,
0033
0000
1100
0000
0000
0000
0000
0010
,
0100
0010
0000
0000
0000
0000
1000
0001
,
1000
0010
0000
0000
0000
0000
0100
0010
,
1000
0100
0000
0000
0000
0000
0000
0001
,
1000
0020
0000
0000
0030
0000
0000
0010
,
0100
0002
0000
0000
0000
0000
0000
1003
,
0001
1000
0001
0000
0001
0000
0001
0000
,
0001
0001
1000
0010
,
0100
0000
1000
0100
1000
0100
0001
0100
,
0001
0000
0100
0000
0010
1000
0010
1000
0010
1000
0010
1000
0010
1000
0010
1000
,
0010
1000
0010
1000
0010
0000
0000
0000
0000
0000
0000
0000
0000
0000
0000
0000
;

//---------------dance-single - ----------------
#NOTES:
     dance-single:
     :
     Medium:
     5:
     0.333,0.496,0.133,0.243,0.000:
0000
0000
0000
0000
,
0000
0000
0000
0000
,
0000
0000
0000
0000
,
0000
0000
0000
0000
,
0000
0000
0000
0000
,
0000
0000
0000
0000
,
0000
0000
0000
0000
,
0000
0000
0000
0000
,
0001
0001
1000
1000
,
0010
0010
0100
0100
,
0010
0010
1000
1000
,
0001
0001
0100
0100
,
0102
0000
0000
0000
,
2003
0000
0000
0000
,
0020
0000
0000
0000
,
0000
0000
3000
0030
,
0100
0010
0100
0000
0010
0000
1000
0000
,
0001
1000
0001
0000
1000
0000
0100
2000
,
0000
0000
0000
0000
0000
0000
3100
2000
,
0000
0000
0000
3000
0000
0010
0100
0020
,
0000
0000
0000
0030
,
0200
0000
0000
0010
0000
0010
0000
0020
,
0000
0000
0000
0000
,
0330
0000
0001
1000
,
0001
0100
0001
0000
1000
0000
0100
0000
,
1000
0100
1000
0000
0010
0100
0001
1000
,
0002
0000
0000
0000
0000
0000
1003
0002
,
0000
0000
0000
0000
0000
1003
0001
1000
,
0001
0001
1000
0001
,
1001
0001
0100
0010
,
0010
0000
1000
0000
0010
0000
1000
0002
,
0200
0000
0000
0303
,
0001
1000
0001
0000
1000
0000
0001
0000
,
0010
0100
1000
0001
,
0100
0001
0100
0000
0010
0000
1000
0000
,
0001
0000
1000
0000
0100
1000
0100
0000
,
0010
1000
0010
0000
0100
0000
0001
0000
,
0001
1000
0100
0000
0001
0000
1000
0000
,
0010
0100
1000
0000
0001
0000
1000
0000
,
0200
1000
1000
1300
,
1010
0000
0110
0000
0010
0100
0010
0000
,
0011
0000
0110
0000
0001
1000
0010
1000
,
0001
0000
0001
0000
1000
0001
0100
0000
,
0010
0000
0100
0000
0010
0100
0010
1000
,
1010
0010
0110
0001
,
0011
0100
1100
0100
,
0110
1001
1010
0011
,
1000
0100
0010
0001
1000
0001
0100
0001
,
1000
2000
0100
0100
,
0100
0100
0100
3100
,
0001
0100
0002
0000
0100
0000
0100
0000
,
0103
0001
0200
0000
0001
0000
0301
1000
,
0001
1000
0002
0000
1000
0000
1000
0000
,
1000
0000
2003
0000
0000
0100
0000
0100
,
0000
3100
0000
0000
2200
0000
0000
0000
,
0000
0000
3300
0010
,
0100
0000
0010
0100
0020
0000
0100
0000
,
0130
0000
0001
1000
0002
0000
1000
0000
,
1003
0000
1000
0100
2000
0000
0100
0000
,
3100
0000
0010
0100
0020
0000
0100
0000
,
0130
0000
0001
0100
0002
0000
0100
0000
,
0103
0000
0001
0010
0001
0000
0020
0000
,
0031
0000
2000
0000
0000
3000
0000
0000
,
0001
2000
0000
3000
,
0000
1001
0000
0001
,
0100
0000
0000
0000
0000
0000
0010
0100
,
0010
0100
0000
0000
0000
0000
0100
1000
,
0100
1000
0000
0000
0000
0000
0000
0010
,
0001
0010
0000
0000
0000
0000
0000
0001
,
1000
0001
0000
0000
0000
0000
0000
1000
,
0100
2000
0000
0000
0000
0000
0000
0000
,
0000
0000
0000
0000
,
0000
3020
0000
2030
,
0000
0000
3010
1000
0001
0100
0010
1000
,
0001
1000
1001
0000
0000
0000
0000
0000
;

//---------------dance-single - ----------------
#NOTES:
     dance-single:
     :
     Easy:
     3:
     0.162,0.408,0.094,0.243,0.000:
0000
0000
0000
0000
,
0000
0000
0000
0000
,
0000
0000
0000
0000
,
0000
0000
0000
0000
,
0000
0000
0000
0000
,
0000
0000
0000
0000
,
0000
0000
0000
0000
,
0000
0000
0000
0000
,
2000
0000
0000
0000
,
0000
0000
0000
0000
,
3002
0000
0000
0000
,
0000
0000
0000
0000
,
0103
0000
0000
0000
,
0010
0000
0000
0000
,
2000
0000
0000
0000
,
3000
0000
0000
0000
,
0002
0000
0000
0000
,
0000
0000
0003
0000
,
1000
0000
0000
0010
,
0000
0000
0000
0100
,
0010
0000
0000
0000
,
1000
0001
1000
0001
,
0200
0000
0000
0000
,
0300
0000
0010
0200
,
0020
0000
0000
0000
,
0000
0330
0000
2000
,
0000
0000
0000
0002
,
0000
3003
0000
0001
,
0100
0000
0000
0000
,
0110
0000
0010
0000
,
2000
0000
0000
0000
,
3000
0000
0000
0000
,
0001
0000
1000
0000
,
0001
0000
0100
0000
,
0010
0000
1000
0000
,
0010
0100
0001
1000
,
0001
0000
1000
0000
,
0001
0000
0100
0000
,
0010
0000
1000
0000
,
0002
0000
0200
0303
,
1100
1000
0100
1000
,
0100
0010
0001
0010
,
0011
0001
0100
0001
,
0100
0010
0100
1000
,
1001
0000
0110
0000
,
1001
0000
0110
0000
,
0010
0010
0100
0100
,
0110
0110
1001
1001
,
1001
2000
0000
0000
,
0000
0000
0000
0000
,
0000
0002
0000
3000
,
0000
0200
0000
0303
,
0000
0020
0000
0000
,
0000
0200
0000
0000
,
0330
0000
0002
0000
,
2000
0000
3003
0001
,
2000
0200
0000
0000
,
0000
0000
0000
3300
,
0020
0002
0000
0033
,
0200
0020
0000
0330
,
0020
2000
0000
0000
,
3030
0002
0000
0000
,
0000
0200
0000
0000
,
0000
0303
0000
0000
,
0000
0001
0000
0000
,
1000
0000
0000
0001
,
0100
0000
0000
0010
,
0100
0000
0000
0000
,
0010
0000
0000
0000
,
1000
0000
0000
0000
,
0002
1000
0000
0000
,
0000
0000
0000
0000
,
0000
2000
0000
0000
,
0000
0000
0000
0000
,
0000
0000
0000
0000
0000
0000
0000
0000
0000
0000
0000
0000
0000
0000
0000
0000
0000
0000
0000
0000
0000
0000
0000
0000
0000
0000
0000
0000
0000
0000
0000
0000
0000
0000
0000
0000
0000
0000
0000
0000
0000
0000
0000
0000
0000
0000
0000
0000
0000
3003
0000
0000
0000
0000
0000
0000
0000
0000
0000
0000
0000
0000
0000
0000
0000
0000
0000
0000
0000
0000
0000
0000
0000
0000
0000
0000
0000
0000
0000
0000
0000
0000
0000
0000
0000
0000
0000
0000
0000
0000
0000
0000
0000
0000
0000
0000
0000
0000
0000
0000
0000
0000
0000
0000
0000
0000
0000
0000
0000
0000
0000
0000
0000
0000
0000
0000
0000
0000
0000
0000
0000
0000
0000
0000
0000
0000
0000
0000
0000
0000
0000
0000
0000
0000
0000
0000
0000
0000
0000
0000
0000
0000
0000
0000
0000
0000
0000
0000
0000
0000
0000
0000
0000
0000
0000
0000
0000
0000
0000
0000
0000
0000
0000
0000
0000
0000
0000
0000
0000
0000
0000
0000
0000
0000
0000
0000
0000
0000
0000
0000
0000
0000
0000
0000
0000
0000
0000
0000
0000
0000
0000
0000
;

//---------------dance-single - ----------------
#NOTES:
     dance-single:
     :
     Beginner:
     1:
     0.066,0.173,0.000,0.000,0.000: // measure 1
0000
0000
0000
0000
,  // measure 2
0000
0000
0000
0000
,  // measure 3
0000
0000
0000
0000
,  // measure 4
0000
0000
0000
0000
,  // measure 5
0000
0000
0000
0000
,  // measure 6
0000
0000
0000
0000
,  // measure 7
0000
0000
0000
0000
,  // measure 8
0000
0000
0000
0000
,  // measure 9
1000
0000
0000
0000
,  // measure 10
0000
0000
0000
0000
,  // measure 11
0001
0000
0000
0000
,  // measure 12
0000
0000
0000
0000
,  // measure 13
0010
0000
0000
0000
,  // measure 14
0100
0000
0000
0000
,  // measure 15
0010
0000
0000
0000
,  // measure 16
0000
0000
0000
0000
,  // measure 17
1000
0000
0000
0000
,  // measure 18
0000
0000
0000
0000
,  // measure 19
0001
0000
0000
0000
,  // measure 20
0100
0000
0000
0000
,  // measure 21
0010
0000
0000
0000
,  // measure 22
1000
0000
0000
0000
,  // measure 23
0000
0000
0000
0000
,  // measure 24
0000
0000
0000
0000
,  // measure 25
0001
0000
0000
0000
,  // measure 26
0000
0000
0000
0000
,  // measure 27
1000
0000
0000
0000
,  // measure 28
0010
0000
0000
0000
,  // measure 29
0100
0000
0000
0000
,  // measure 30
0100
0000
0000
0000
,  // measure 31
0010
0000
0000
0000
,  // measure 32
0000
0000
0000
0000
,  // measure 33
1000
0000
0000
0000
,  // measure 34
1000
0000
0000
0000
,  // measure 35
0001
0000
0000
0000
,  // measure 36
0001
0000
0000
0000
,  // measure 37
0100
0000
0000
0000
,  // measure 38
0100
0000
0000
0000
,  // measure 39
0010
0000
0000
0000
,  // measure 40
0010
0000
0000
0000
,  // measure 41
1000
0000
0000
0000
,  // measure 42
0001
0000
0000
0000
,  // measure 43
0100
0000
0000
0000
,  // measure 44
0010
0000
0000
0000
,  // measure 45
1000
0000
0001
0000
,  // measure 46
1000
0000
0001
0000
,  // measure 47
1000
0000
0001
0000
,  // measure 48
1000
0001
1000
0001
,  // measure 49
0000
0100
0000
0000
,  // measure 50
0000
0000
0000
0000
,  // measure 51
0010
0000
0000
0000
,  // measure 52
0100
0000
0000
0000
,  // measure 53
0000
1000
0000
0000
,  // measure 54
0000
0001
0000
0000
,  // measure 55
0000
0000
0100
0000
,  // measure 56
0000
0000
0000
0000
,  // measure 57
0000
0010
0000
0000
,  // measure 58
0000
0000
0000
0000
,  // measure 59
1000
0000
0000
0000
,  // measure 60
0001
0000
0000
0000
,  // measure 61
0000
0100
0000
0000
,  // measure 62
0000
0010
0000
0000
,  // measure 63
0000
1000
0000
0000
,  // measure 64
0000
0001
0000
0000
,  // measure 65
0000
1000
0000
0000
,  // measure 66
0000
0000
0000
0001
,  // measure 67
0000
0000
0000
0100
,  // measure 68
0000
0000
0000
0000
,  // measure 69
0010
0000
0000
0000
,  // measure 70
1000
0000
0000
0000
,  // measure 71
0001
0000
0000
0000
,  // measure 72
0000
0000
0000
0000
,  // measure 73
0000
1000
0000
0000
,  // measure 74
0000
0001
0000
0000
;
