#TITLE:INNOCENCE OF SILENCE;
#SUBTITLE:(The Sparky Forbidden Remix);
#ARTIST:nc ft NRG Factory;
#TITLETRANSLIT:;
#SUBTITLETRANSLIT:;
#ARTISTTRANSLIT:;
#CREDIT:;
#BANNER:bn.PNG;
#BACKGROUND:bg.PNG;
#LYRICSPATH:;
#CDTITLE:Konami Original.png;
#MUSIC:INNOCENCE OF SILENCE (The Sparky Forbidden Remix).mp3;
#OFFSET:-0.040;
#SAMPLESTART:68.560;
#SAMPLELENGTH:12.000;
#SELECTABLE:YES;
#BPMS:0.000=140.000,32.000=35.000,48.000=70.000,64.000=140.000,160.000=70.000;
#STOPS:;
#BGCHANGES:;

//---------------dance-single - ----------------
#NOTES:
     dance-single:
     :
     Hard:
     9:
     0.475,0.748,0.019,0.029,0.816:
0000
0000
0000
0000
,
0000
0000
0000
0000
,
0000
0000
0000
0000
,
0000
0000
0000
0000
,
0001
0000
0100
0000
0010
0000
0010
0100
0000
0010
0000
1000
0000
0001
1000
0001
,
1000
0000
0001
0000
0010
0100
0000
0001
0000
1000
0000
0010
0000
0001
0100
0001
,
0100
0000
0001
0000
0010
1000
0000
0001
0000
0100
0000
0010
0000
0010
1000
0001
,
1000
0100
0010
0001
0010
0100
0002
1000
,
1003
1000
1000
0000
0000
0000
0000
0000
1010
0010
0010
0000
0000
0000
0000
0000
,
0101
0100
0100
0000
0000
0000
0000
0000
1000
0100
0010
0001
0010
0000
0100
0000
,
1000
0000
0001
0010
0000
0000
0000
0000
0000
0000
1000
0100
0000
0001
1000
0010
1000
0001
0100
0010
0000
0000
0000
0000
0000
0000
1000
0100
0000
0010
0001
0010
,
0100
1000
0100
0010
0000
0000
0000
0000
0001
0001
1000
0001
0000
0010
0100
0010
0000
0000
1000
1000
0000
0000
0000
0000
1000
0100
0010
0001
0000
0010
0100
0001
,
1000
0000
0010
0001
0000
0000
0000
0000
0000
0000
1000
0100
0000
0010
0001
0010
,
0100
1000
0001
1000
0000
0000
0000
0000
0000
0000
0010
0100
0000
1000
0100
0001
,
0100
0100
0010
1000
0000
0000
0000
0000
0001
0001
1000
0010
0000
1000
0100
0010
,
0000
0000
0001
0001
0000
0000
0000
0000
1000
0001
0100
0010
0000
1000
0100
0010
,
0001
0000
1000
0100
0000
0000
0000
0000
,
0000
0000
0001
0100
0000
0010
0100
0001
,
1000
0001
0100
0010
0000
0000
0000
0000
,
0000
0000
1000
0100
0000
0001
0100
1000
,
0100
0010
0001
1000
0000
0000
0000
0000
,
0010
0100
0001
1000
0000
0010
1000
0010
,
0000
0000
1000
0100
0000
0000
0000
0000
,
1000
0100
0010
0001
0000
0001
0010
0100
,
0000
0001
0100
0000
0010
1000
0000
0001
0100
0000
0010
1000
0000
0001
1000
0001
,
0000
0010
0100
0000
0001
1000
0000
0010
1000
0000
0001
0100
0000
1000
0100
1000
,
0000
0001
1000
0000
0010
1000
0000
0001
0100
0000
0010
0100
0000
0001
0100
0001
,
0000
0010
1000
0000
0001
0100
0000
1000
0100
0000
0010
0001
0000
0001
1000
0001
,
0000
1000
0010
0000
0010
1000
0000
0001
0100
0000
1000
0100
0000
1000
0100
1000
,
0000
0010
0100
0000
0001
1000
0000
0010
1000
0000
0001
0100
0000
0010
0100
0010
,
0000
0010
1000
0000
0001
0100
0000
1000
0100
0000
0010
0001
0000
0010
0100
0010
,
0000
0001
1000
0000
0010
1000
0000
0001
0100
0000
0010
1000
0000
0001
1000
0001
,
0000
0010
0001
0000
1000
0100
0000
0010
0001
0000
1000
0100
0000
0010
0100
0010
,
0000
1000
0001
0000
0010
0100
0000
1000
0100
0000
0010
0001
0000
0100
0001
0100
,
0000
0010
0100
0000
1000
0100
0000
0010
0001
0000
1000
0001
0000
0010
0001
0010
,
0000
1000
0100
0000
0010
0001
0000
0100
0001
0000
1000
0010
0000
0010
0100
0010
,
0000
0100
1000
0000
1000
0100
0000
0010
0001
0000
0100
0001
0000
0100
0001
0100
,
0000
1000
0001
0000
0010
0100
0000
1000
0100
0000
0010
0001
0000
1000
0001
1000
,
0000
1000
0100
0000
0010
0001
0000
0100
0001
0000
1000
0010
0000
1000
0001
1000
,
0000
0010
0100
0000
1000
0100
0000
0010
0001
0000
1000
0100
0000
0010
0100
0020
,
0200
0000
0000
0000
,
0330
0000
0000
0000
;

//---------------dance-single - ----------------
#NOTES:
     dance-single:
     :
     Medium:
     5:
     0.283,0.453,0.048,0.134,0.120:
0000
0000
0000
0000
,
0000
0000
0000
0000
,
0000
0000
0000
0000
,
0000
0000
0000
0000
,
1000
0000
0000
0000
0100
0000
0000
0010
0000
0100
0000
0010
0000
0000
0000
0000
,
0001
0000
0000
0000
1000
0000
0000
0100
0000
1000
0000
0100
0000
0000
0000
0000
,
0010
0000
0000
0000
0100
0000
0000
0010
0000
1000
0000
0010
0000
0000
0000
0000
,
0001
0010
0100
1000
0001
0010
0100
0010
,
2002
0000
0000
0000
3003
0000
0000
0000
1000
1000
1000
0000
0000
0000
0000
0000
,
0001
0001
0001
0000
0000
0000
0000
0000
0001
0010
0100
1000
0100
0000
1000
0000
,
0100
1000
0000
0000
0000
0010
0000
0100
0010
1000
0000
0000
0000
0001
0000
1000
,
0001
0100
0001
0000
0010
0100
1000
0100
0010
0001
0000
0000
1000
0001
0100
0010
,
1010
1000
0000
0000
0000
0001
0000
0010
,
0100
1000
0000
0000
0000
0001
0000
1000
,
0001
0100
0000
0000
0010
0100
1000
0001
,
1000
0100
0000
0000
1000
0100
0010
0001
,
0100
0000
0010
0100
0000
0000
0000
0000
,
0000
0000
0001
1000
0000
1000
0100
0000
,
1000
0000
0100
1000
0000
0000
0000
0000
,
0000
0000
0010
0100
0000
0010
0100
0000
,
1001
0010
0100
1000
,
0100
0000
0010
0000
0001
0000
0010
0001
,
0010
0100
1000
0100
,
2002
0000
0000
3003
,
0001
0000
1000
0000
0100
1000
0100
0000
,
0010
0000
0100
0000
0001
1000
0010
0000
,
0001
0000
0100
0000
1000
0001
1000
0000
,
0010
0000
0100
0000
1000
0100
0001
0000
,
0001
1000
0010
0000
1000
0000
0100
0000
,
0001
0100
1000
0000
0010
0000
0100
0000
,
1000
0100
0001
0000
0010
0000
1000
0000
,
0001
0010
1000
0000
0001
1000
0010
0000
,
0001
0100
0002
0000
1000
0000
1003
0000
,
1000
0100
0020
0000
0100
0000
0130
0000
,
1000
0001
0200
0000
0010
0000
0301
0000
,
0001
1000
0020
0000
0100
0000
1030
0000
,
0001
1000
0200
0000
1000
0000
1300
0000
,
1000
0010
0200
0000
0010
0000
0301
0000
,
0001
0010
0200
0000
0010
0000
0301
0000
,
1000
0001
0200
0000
0010
0000
1300
0000
,
2002
0000
0000
0000
,
3003
0000
0000
0000
;

//---------------dance-single - ----------------
#NOTES:
     dance-single:
     :
     Easy:
     3:
     0.187,0.250,0.029,0.077,0.000:
0000
0000
0000
0000
,
0000
0000
0000
0000
,
0000
0000
0000
0000
,
0000
0000
0000
0000
,
0002
0000
0000
0003
,
2000
0000
0000
3000
,
0020
0000
0000
0030
,
0100
0010
1000
0001
,
0202
0000
0000
0303
0100
0000
0000
0000
,
1000
0000
0000
0000
0001
0010
0100
1000
,
1001
0100
0010
1000
,
0001
0001
0010
0100
,
1000
0100
0000
0000
0000
0000
0000
0000
,
0001
1000
0100
0010
,
0001
0000
0100
0000
0010
1000
0010
1000
,
0001
1000
0000
0000
1000
0100
0010
0001
,
1000
0001
0000
0000
,
0000
0001
0000
0010
,
0100
1000
0000
0000
,
0000
0001
0000
1000
,
0100
0010
0000
0000
,
0001
1000
0001
0100
,
0010
1000
0100
0010
,
0022
0000
0000
0033
,
0001
0100
0010
1000
,
0100
1000
0100
0010
,
0001
1000
0001
0100
,
0010
1000
0100
0010
,
0001
0100
0010
1000
,
0001
1000
0100
0010
,
0001
0010
0100
1000
,
0001
1000
0010
0100
,
0020
1030
0100
0010
,
0001
0100
1000
0001
,
0100
0010
1000
0100
,
0010
0001
0100
0010
,
1000
0001
1000
0001
,
0100
0010
1000
0100
,
0010
0001
0010
0100
,
1000
0000
0001
0000
0100
0000
0010
1000
,
0001
0000
0000
0000
;

//---------------dance-single - ----------------
#NOTES:
     dance-single:
     :
     Beginner:
     1:
     0.055,0.134,0.019,0.000,0.000: // measure 1
0000
0000
0000
0000
,  // measure 2
0000
0000
0000
0000
,  // measure 3
0000
0000
0000
0000
,  // measure 4
0000
0000
0000
0000
,  // measure 5
0000
0000
0000
0000
,  // measure 6
0000
0000
0000
0000
,  // measure 7
0000
0000
0000
0000
,  // measure 8
0000
0000
0000
0000
,  // measure 9
1001
0000
0010
0000
,  // measure 10
0010
0000
0000
0000
,  // measure 11
1000
0000
0001
0000
,  // measure 12
0100
0100
0100
1000
,  // measure 13
0001
0000
0000
0000
,  // measure 14
1000
0000
0000
0000
,  // measure 15
0100
0000
0100
0000
,  // measure 16
0100
0000
0001
0000
,  // measure 17
1000
0000
0000
0000
,  // measure 18
0000
0000
0000
0000
,  // measure 19
0001
0000
0000
0000
,  // measure 20
0000
0000
0000
0000
,  // measure 21
0010
0000
0000
0000
,  // measure 22
0010
0000
0000
0000
,  // measure 23
0010
0000
0000
0000
,  // measure 24
0100
0000
0000
0000
,  // measure 25
1000
0000
0000
0000
,  // measure 26
1000
0000
0000
0000
,  // measure 27
1000
0000
0000
0000
,  // measure 28
1000
0000
0000
0000
,  // measure 29
0001
0000
0000
0000
,  // measure 30
0001
0000
0000
0000
,  // measure 31
0001
0000
0000
0000
,  // measure 32
0001
0000
0000
0000
,  // measure 33
0100
0000
0000
0000
,  // measure 34
0100
0000
0000
0000
,  // measure 35
0100
0000
0000
0000
,  // measure 36
0100
0000
0000
0000
,  // measure 37
0010
0000
0000
0000
,  // measure 38
0010
0000
0000
0000
,  // measure 39
0010
0000
0000
0000
,  // measure 40
0010
0000
0000
0000
,  // measure 41
1001
0000
0000
0000
;
