#TITLE:INFINITE PRAYER;
#SUBTITLE:-Ryu* Remix-;
#ARTIST:Remixed by Ryu;
#TITLETRANSLIT:;
#SUBTITLETRANSLIT:;
#ARTISTTRANSLIT:;
#CREDIT:;
#BANNER:INFINITE PRAYER.png;
#BACKGROUND:INFINITE PRAYER-bg.png;
#LYRICSPATH:;
#CDTITLE:;
#MUSIC:INFINITE PRAYER -Ryu Remix-.mp3;
#OFFSET:-12.967;
#SAMPLESTART:14.268;
#SAMPLELENGTH:12.000;
#SELECTABLE:YES;
#BPMS:0.000=177.000,188.000=354.000,252.000=177.000;
#STOPS:0.000=1.000
,93.000=1.020
,122.000=1.020
,155.000=0.980
,252.000=1.020
;
#BGCHANGES:;

//---------------dance-single - ----------------
#NOTES:
     dance-single:
     :
     Hard:
     9:
     0.571,0.610,0.152,0.102,0.047:
0000
0000
0001
0100
0001
0100
0010
1000
,
0010
1000
0010
0100
0010
0100
0001
0100
,
0001
0100
0010
1000
0010
0001
1000
0100
,
0010
1000
0001
1000
0010
1000
0001
1000
,
0100
0010
0001
0100
0001
0100
0010
1000
,
0010
1000
0010
0100
0010
0100
0001
1000
,
0001
1000
0010
1000
0001
1000
0100
0001
,
1000
0001
0010
0100
0020
0000
0100
0000
,
0100
0000
0130
0000
0100
1000
0000
0010
,
1000
0010
0000
0100
0000
1000
0100
0000
,
0010
0001
0100
1000
,
0010
0000
0000
0000
0001
0000
0000
0010
0000
0000
0200
0000
0000
0000
0000
0000
,
1300
0000
0011
0000
1000
0001
0000
0010
,
1000
0001
0000
0010
0000
0100
1000
0000
,
0010
0000
0110
0000
0010
1000
0000
0010
,
0100
0000
1000
0000
1001
0000
0000
1100
0000
0000
0011
0000
0000
0101
0000
0000
,
1100
0000
1000
0100
1000
0000
0010
0001
,
0010
0000
1000
0001
1000
0000
0010
1000
,
0010
0000
0010
0100
0002
0000
0100
0000
,
1000
0010
0010
0010
,
0010
0000
0013
0010
0100
0000
1000
0100
,
0010
0000
0001
0100
1000
0000
0010
1000
,
0010
0000
0001
0100
0001
0100
0010
0001
,
0010
0001
0010
0000
1000
0100
0010
0001
,
0010
0100
1000
0100
0000
0000
0000
0000
,
0000
0000
0000
0000
0001
1000
0010
1000
,
0100
1000
0100
0010
0000
0000
0000
0000
,
0000
0000
0000
0000
0001
0100
0010
1000
,
0100
0010
0001
0010
0000
0000
0000
0000
,
0000
0000
0000
0000
0001
0100
0010
1000
,
0100
0010
0001
0010
0000
0000
1000
0100
,
0010
0001
0000
0010
0100
0000
1000
0100
,
0010
1000
0000
0001
1000
0000
1000
0100
,
0010
0001
0000
0001
0010
0000
0001
0100
,
0001
0100
0000
0010
1000
0000
1000
0100
,
0010
0000
0001
0100
0010
0000
1000
0100
,
0010
0000
0001
0100
0010
0000
1000
0100
,
0010
0001
0010
0100
1000
0100
0010
0001
,
0010
0100
1000
0100
0010
0001
0000
0000
,
1000
0100
0010
1000
0010
1000
0010
0100
,
0010
0001
0010
0100
0001
0100
0010
0100
,
0001
0010
1000
0100
0010
0001
0100
0010
,
0100
1000
0100
0010
0001
0001
1000
1000
,
0010
1000
0010
1000
0010
0100
0010
0100
,
0010
0001
0010
0100
0001
0100
0001
0100
,
0001
0010
0100
1000
0100
0010
1000
0001
,
0100
0010
1000
0100
1000
1000
0001
0001
,
0100
1000
0100
1000
,
0100
1000
0100
1000
,
0001
0100
0001
0100
,
0001
0100
0001
0100
,
0010
0001
0010
0001
,
0010
0001
0010
0001
,
0010
1000
0010
1000
,
0010
1000
0010
1000
,
0001
0000
1000
0001
1000
0000
1000
0001
,
1000
0000
1000
0001
1000
0000
1000
0001
,
1000
0000
1000
0001
1000
0000
1000
0001
,
1000
0000
1000
0001
1000
0000
1000
0001
,
1000
0000
0100
0000
0010
0001
0000
0001
,
0010
0000
0100
0000
1000
0100
0000
0002
,
2000
3003
2002
3003
,
1000
0000
0001
0000
0010
0000
0100
0000
1000
0000
0001
0000
,
1000
0000
0100
0000
0001
0100
0000
1000
,
0100
1000
0000
0001
0000
0100
0001
0000
,
1000
0010
0001
0100
,
1000
0000
0000
0000
0010
0000
0000
1000
0000
0000
0002
0000
0000
0000
0000
0000
,
0103
0000
1010
0000
0100
0010
0000
1000
,
0100
0010
0000
1000
0000
0001
0100
0000
,
1000
0000
1001
0000
1000
0100
0000
1000
,
0001
0000
0000
0020
0000
0000
0030
0000
0000
1000
0001
1000
,
0001
0000
0010
0100
0010
1000
0000
0100
,
0000
1000
0100
0000
0010
0000
0100
0000
,
0001
0100
0010
0000
1000
0000
0100
0000
,
0010
0000
1000
0000
0001
0000
0000
1000
0000
0000
0200
0000
0000
0000
0000
0000
,
0310
0000
0110
0000
1000
0100
0000
0010
,
0001
0010
0100
0000
1000
0000
0100
0000
,
0010
1000
0010
0000
0000
0011
0000
0000
,
1100
0000
0000
1010
0000
0000
0101
1100
,
0011
2002
0000
0000
,
3003
0000
0000
0000
;

//---------------dance-single - ----------------
#NOTES:
     dance-single:
     :
     Medium:
     7:
     0.421,0.440,0.169,0.169,0.000:
0000
0001
0010
0100
,
1000
0010
0100
1000
,
1000
0100
0010
0000
0001
0000
0100
0000
,
1000
0000
0100
0000
0010
0000
0001
0100
,
0001
0100
0001
0000
1000
0000
0100
0000
,
0010
1000
0001
0100
,
1000
0000
0010
1000
0000
0100
1000
0000
,
1000
0000
0010
0100
0020
0000
1000
0000
,
1000
0030
1000
0000
0010
0000
0100
0000
,
0001
0000
1000
0200
0000
0000
0310
0000
,
1000
0100
0010
0001
,
0100
0020
2030
3020
,
0130
0000
0110
0000
0010
0100
0000
0100
,
0000
1000
0000
0200
0000
0000
0310
0000
,
0000
1000
0100
0010
,
0001
2002
0000
0000
,
3003
0010
0001
0010
,
0100
1000
0010
0100
,
0001
1000
0100
0010
,
0001
1000
0001
0100
,
1000
0100
0010
0000
0001
0000
1000
0000
,
0001
0100
1000
0010
,
0100
0001
0010
0100
,
1000
0000
0000
0000
0001
0010
0001
0010
,
0001
0010
0001
0010
0000
0000
0000
0000
,
0000
0000
0000
0000
1000
0100
1000
0100
,
1000
0100
1000
0100
0000
0000
0000
0000
,
0000
0000
0000
0000
0001
0100
0001
0100
,
0001
0100
0001
0100
0000
0000
0000
0000
,
0000
0000
0000
0000
0010
1000
0010
1000
,
0010
1000
0010
1000
0000
0000
1000
0000
,
0000
0010
0000
0000
0011
0000
0001
0000
,
0000
0100
0000
0000
1010
0000
1000
0000
,
0000
0100
0000
0000
0110
0000
0001
0000
,
0000
0010
0000
0000
0110
0000
2000
0000
,
0000
3100
0000
0000
0011
0000
0002
0000
,
0000
0103
0000
0000
0010
0000
0100
0000
,
1000
0100
0010
0001
,
0100
0000
1000
0100
0010
0001
0000
0000
,
0001
1000
0100
0010
,
0001
1000
0100
0010
,
0001
1000
0001
1000
0100
1000
0100
1000
,
0100
1000
0100
1000
0100
0010
0001
0010
,
0100
1000
0100
0010
,
0001
1000
0100
0010
,
0001
0100
0001
0100
0010
1000
0010
0100
,
0001
1000
0010
0100
0001
1000
0010
0100
,
0001
1000
0001
0000
,
0100
1000
0100
0000
,
0010
0001
0010
0000
,
0001
0100
0001
0000
,
1000
0100
0010
0001
,
0010
0100
1000
0100
,
0010
0001
0010
0100
,
1000
0100
1000
0100
,
0010
0000
1000
0000
,
0100
0000
0001
0000
,
0100
0000
1000
0000
,
0100
0000
0010
0000
,
0001
1000
0010
1000
,
0100
0010
0001
0010
,
0100
1000
0100
0010
,
1000
0001
0100
0010
,
1000
0000
0001
0000
1000
0100
0000
1000
,
0000
0010
0000
0200
0000
0000
0310
0000
,
0000
0011
0000
0000
,
0000
0002
0000
0000
,
1003
0000
0010
0000
1000
0001
0000
0001
,
1000
0100
0000
2000
0000
0000
3010
0000
,
0100
1000
0010
0001
,
0010
0202
0000
0303
,
0000
0000
1010
0000
1000
0100
0000
0010
,
0000
0001
0000
1000
0000
0000
0001
0000
,
0100
0011
1000
0100
,
0010
0000
0202
0000
0000
0003
0300
0000
,
0010
0000
1010
0000
1000
0100
0000
0010
,
0000
0001
0000
2000
0000
0000
3001
0000
,
0100
0000
0101
0000
0000
1010
0000
0000
,
1100
0000
0000
0011
0000
0000
1010
0000
,
0101
2002
0000
0000
,
3003
0000
0000
0000
;

//---------------dance-single - ----------------
#NOTES:
     dance-single:
     :
     Easy:
     5:
     0.327,0.373,0.169,0.076,0.000:
0000
0001
0010
0100
,
0010
0001
1000
0100
,
1000
0010
1000
0010
,
1000
0010
1000
0010
,
0001
0010
0100
1000
,
0100
1000
0100
1000
,
0100
0001
0100
0001
,
0100
0020
0000
0000
,
0000
0130
1000
0100
,
0010
0000
0001
0010
,
0000
1000
0000
0000
,
0000
0100
0100
0100
,
0000
0001
1000
0100
,
0010
0001
0100
1000
,
0010
0100
0000
0000
,
0000
2002
0000
3003
,
0000
0001
0001
0010
,
0100
1000
0001
0010
,
0100
1000
0100
1000
,
0100
0010
0001
0100
,
0001
0100
1000
0100
,
0010
0001
1000
0001
,
0100
1000
0100
0010
,
0001
1001
0001
0010
,
0100
1000
0000
0000
,
0000
0000
1000
0100
,
0010
0001
0000
0000
,
0000
0000
0010
0100
,
1000
0001
0000
0000
,
0000
0000
0100
0010
,
0001
1000
0001
1000
,
0000
0100
0000
0000
0000
0000
0010
0000
,
0000
0001
0000
0000
0000
0000
0100
0000
,
0000
1000
0000
0000
0000
0000
0010
0000
,
0000
0100
0000
0000
0000
0000
1001
0000
,
0000
1100
0000
0000
0000
0000
0011
0000
,
0000
0101
0000
0000
0000
0000
2000
0000
,
0000
0100
0000
0000
0100
0000
0000
0100
,
0000
0100
0100
3100
,
0001
0010
1000
0100
,
0010
0001
1000
0100
,
0001
1000
0010
0100
,
1000
0100
0010
0001
,
0101
0100
1000
0010
,
0001
1000
0010
0100
,
1000
0100
0010
0001
,
1000
0100
0010
0001
,
1000
0000
0001
0000
,
0010
0000
0100
0000
,
1000
0000
0010
0000
,
0001
0000
1000
0000
,
0100
0000
0010
0000
,
0001
0000
0010
0000
,
0100
0000
1000
0000
,
0010
0000
0001
0000
,
1001
0000
1001
0000
,
1001
0000
1001
0000
,
1001
0000
1001
0000
,
1001
0000
1001
0000
,
1000
0100
1000
0000
,
0001
0100
0001
0000
,
0010
1000
0010
0000
,
0001
0010
0100
1000
,
0000
1000
0100
0010
,
0001
0100
2000
3010
,
0100
0001
0000
0000
,
0000
1000
0010
0100
,
0001
1000
0010
1000
,
0100
0010
0002
0013
,
0100
1000
0010
0100
,
0001
2000
0000
3000
,
0000
0010
0100
0001
,
1000
0100
0010
0001
,
0100
1000
0010
0100
,
1000
0010
0001
0010
,
0100
1000
0001
0100
,
1000
0100
0010
0001
,
0100
0000
1001
0000
0000
0110
0000
0000
,
1001
0000
0000
0110
0000
0000
1000
0001
,
1000
0022
0000
0000
,
0033
0000
0000
0000
;

//---------------dance-single - ----------------
#NOTES:
     dance-single:
     :
     Beginner:
     2:
     0.099,0.201,0.025,0.000,0.000: // measure 1
0000
0001
0000
0000
,  // measure 2
0000
0000
0000
0000
,  // measure 3
0000
1000
0000
0000
,  // measure 4
0000
0000
0000
0010
,  // measure 5
0010
0010
0000
0000
,  // measure 6
0000
0000
0000
0000
,  // measure 7
0000
0100
0000
0000
,  // measure 8
0000
0000
0000
0000
,  // measure 9
0000
0001
0000
0000
,  // measure 10
0000
0000
0000
0000
,  // measure 11
0000
1000
0000
0000
,  // measure 12
0000
0000
0000
0000
,  // measure 13
0000
0010
0000
0000
,  // measure 14
0000
0000
0000
0000
,  // measure 15
0000
0100
0000
0000
,  // measure 16
0000
0000
0000
0000
,  // measure 17
0000
0001
0000
0000
,  // measure 18
0000
1000
0000
0000
,  // measure 19
0000
0001
0000
0000
,  // measure 20
0000
1000
0000
0000
,  // measure 21
0000
0010
0000
0000
,  // measure 22
0000
0010
0000
0000
,  // measure 23
0000
0100
0000
0000
,  // measure 24
0000
0110
0010
0010
,  // measure 25
0010
0000
0000
0000
,  // measure 26
0000
0000
1000
1000
,  // measure 27
1000
0000
0000
0000
,  // measure 28
0000
0000
0001
0001
,  // measure 29
0001
0000
0000
0000
,  // measure 30
0000
0000
0010
0010
,  // measure 31
0010
0000
0000
0100
,  // measure 32
0000
0000
0000
0100
,  // measure 33
0000
0000
0000
0100
,  // measure 34
0000
0000
0000
0100
,  // measure 35
0000
0000
0000
0010
,  // measure 36
0000
0000
0000
1000
,  // measure 37
0000
0000
0000
0001
,  // measure 38
0000
0000
0000
1000
,  // measure 39
0000
0000
0000
0000
,  // measure 40
0001
0000
0000
0000
,  // measure 41
0000
0000
0000
0000
,  // measure 42
1000
0000
0000
0000
,  // measure 43
0000
0000
0000
0000
,  // measure 44
0010
0000
0000
0000
,  // measure 45
0001
0000
0000
0000
,  // measure 46
0100
0000
0000
0000
,  // measure 47
1000
0000
0000
0000
,  // measure 48
0001
0000
0000
0000
,  // measure 49
0001
0000
0000
0000
,  // measure 50
0001
0000
0000
0000
,  // measure 51
0001
0000
0000
0000
,  // measure 52
1000
0000
0000
0000
,  // measure 53
1000
0000
0000
0000
,  // measure 54
1000
0000
0000
0000
,  // measure 55
1000
0000
0000
0000
,  // measure 56
0010
0000
0000
0000
,  // measure 57
0010
0000
0000
0000
,  // measure 58
0010
0000
0000
0000
,  // measure 59
0010
0000
0000
0000
,  // measure 60
0100
0000
0000
0000
,  // measure 61
0100
0000
0000
0000
,  // measure 62
0100
0000
0000
0000
,  // measure 63
0100
0000
0000
0000
,  // measure 64
0000
1000
0000
0000
,  // measure 65
0000
0000
0001
0000
,  // measure 66
0000
0100
0000
0000
,  // measure 67
0000
0010
0000
0000
,  // measure 68
0000
0100
0000
0010
,  // measure 69
0000
0010
0000
0000
,  // measure 70
0000
1000
0000
0000
,  // measure 71
0000
0000
0000
0001
,  // measure 72
0000
1000
0000
1000
,  // measure 73
0000
0000
0100
0000
,  // measure 74
0000
0010
0000
0000
,  // measure 75
0000
0100
0000
0000
,  // measure 76
0000
0010
0000
0000
,  // measure 77
0000
0000
0000
0000
,  // measure 78
0000
1001
0000
0000
,  // measure 79
0000
0000
0000
0010
,  // measure 80
0010
1001
0000
0000
;
