#TITLE:IKO IKO;
#SUBTITLE:(140 BPM trance remix);
#ARTIST:CAPTAIN JACK;
#TITLETRANSLIT:;
#SUBTITLETRANSLIT:;
#ARTISTTRANSLIT:;
#CREDIT:;
#BANNER:bn.PNG;
#BACKGROUND:bg.PNG;
#LYRICSPATH:;
#CDTITLE:CDTITLE.PNG;
#MUSIC:IKO IKO (140 BPM trance remix).mp3;
#OFFSET:-0.060;
#SAMPLESTART:49.977;
#SAMPLELENGTH:12.000;
#SELECTABLE:YES;
#BPMS:0.000=140.000;
#STOPS:;
#BGCHANGES:;

//---------------dance-single - ----------------
#NOTES:
     dance-single:
     :
     Hard:
     8:
     0.503,0.511,0.128,0.128,0.506:
0000
0000
0000
0000
,
0000
0000
0000
0000
,
0000
0000
0000
0000
,
0000
0000
0000
0000
,
0000
0000
0000
0000
,
0000
0000
0000
0000
0000
0000
0000
0000
0001
0000
1000
0000
0010
0000
0010
0100
,
0000
0100
0010
0000
0010
0000
1000
0000
0100
0000
0010
0000
0001
0000
0001
0010
,
0000
0010
0100
0000
0001
0000
1000
0000
0010
0000
0100
0000
0001
0000
0010
1000
,
0000
0001
0100
0000
0001
0000
1000
0000
0010
0000
0100
0000
0010
0000
1000
0100
,
0000
0100
0010
0000
0001
0000
1000
0000
0010
0000
0100
0000
0001
0000
0001
0100
,
0000
0100
0001
0000
0010
0000
1000
0000
0001
0000
0010
0000
0100
0000
1000
0100
,
0000
0100
1000
0000
0010
0000
1000
0000
0001
0000
0100
0000
0010
0000
0010
0100
,
0000
0100
0010
0000
0010
0000
1000
0000
0001
0000
1000
0100
0000
0010
0001
0000
,
1001
0000
0000
0010
0000
0010
0100
0000
0001
0000
1000
0000
0000
0000
0000
0000
,
0001
0000
0100
0000
0000
0000
0000
0000
0010
0000
0010
0100
0000
0100
0010
0000
,
1000
0000
0000
0000
0000
0000
0000
0000
0001
0100
0001
0000
0010
1000
0000
0001
,
0000
1000
0000
0100
0000
0000
0000
0001
0000
0010
0100
0000
0001
1000
0000
0010
,
0000
0000
0000
0001
0000
0001
0100
0000
0010
0000
0010
0000
0000
0000
0000
0000
,
0100
0000
0100
0000
0000
0000
0000
0000
0010
0000
0010
0100
0000
0100
0010
0000
,
1000
0000
0000
0000
0000
0000
0000
0000
0001
0100
0001
0000
0010
1000
0000
0001
,
0000
0100
0000
1000
0000
0000
0000
0010
0000
0010
1000
0000
0001
0200
0000
0001
,
0000
0000
0000
0000
0301
0000
0000
0000
0001
0000
0100
0000
0010
0000
0010
0100
,
0000
0010
0000
0100
0000
0000
0000
0000
1000
0000
0100
0000
0010
0000
0001
0000
,
0010
0000
0000
0000
0100
0000
0000
0000
0001
0000
0100
0000
0010
0000
0010
0100
,
0000
0010
0000
0100
0000
0000
0000
0000
1000
0000
0000
0000
0001
0000
0100
0000
,
0010
0000
1000
0000
0001
1000
0010
1000
,
0001
0000
1000
0000
0010
0000
0000
0000
0001
0000
0001
0100
0000
0100
0001
0000
,
0101
0000
0000
0000
0000
0000
0000
0000
0001
0100
0001
0000
0100
0000
0010
0000
,
1000
0001
0010
0000
0001
1000
0010
0000
,
0200
0000
0301
0000
1000
1000
0000
0000
,
0001
0000
0001
0000
0000
0000
0000
0000
0001
0000
0001
1000
0000
1000
0001
0000
,
0001
0000
0000
0000
0000
0000
0000
0000
0001
0100
0001
0000
0010
1000
0000
0001
,
0000
0010
0000
1000
0000
0000
0000
0010
0000
0010
0100
0000
0010
1000
0000
0001
,
0000
0000
0000
1000
0000
1000
0100
0000
1100
0000
1100
0000
0000
0000
0000
0000
,
0011
0000
0011
0000
0000
0000
0000
0000
0001
0000
0001
0100
0000
0100
0010
0000
,
0010
0000
0000
0000
0000
0000
0000
0000
0001
1000
0001
0000
0001
1000
0000
0001
,
0000
1000
0000
0100
0000
0000
0000
1000
0000
1000
0100
0000
0010
0100
0000
0001
,
0000
0000
1000
0100
1000
0100
1000
0100
1000
0000
0000
0100
0000
0000
0020
0000
,
0002
0000
0000
0000
0033
0000
0000
0000
0000
0000
0001
0000
0000
1000
0000
0000
,
1000
0000
0000
0100
0000
0000
0020
0000
2000
0000
0000
0000
0000
0000
0000
0000
,
0000
0000
3030
0000
0000
0000
0000
0000
0010
0000
0010
0100
0000
0100
0010
0000
,
0010
0000
0000
0000
0001
0100
0001
0100
0002
0000
0000
0003
0100
0000
0010
0000
,
2000
0000
0000
0000
3000
0000
0000
0000
0000
0000
0010
0000
0000
0100
0000
0000
,
1000
0000
0000
0100
0000
0000
2000
0000
0200
0000
0000
0000
0000
0000
0000
0000
,
0000
0000
0000
0000
3300
0000
0000
0000
0010
0000
0010
0100
0000
0100
0010
0000
,
0010
0000
0001
0100
0010
0010
0000
0000
,
1000
1000
0000
0000
0000
1001
0000
1100
,
0000
0011
0000
0010
0110
0000
0000
0110
,
0000
0000
0000
0000
0000
0000
0000
0000
0010
0000
0010
0100
0000
0100
0010
0000
,
0010
0000
0000
0000
0001
0100
0001
0100
0001
0000
0001
0000
0000
0000
0000
0000
,
1000
2000
0000
0000
0000
0100
0000
0010
,
0000
0001
0000
0001
0002
0000
0000
0000
,
0000
0000
0000
0000
3003
0000
0000
0000
0001
0000
0001
0100
0000
0010
1000
0000
,
0010
1001
0000
0000
;

//---------------dance-single - ----------------
#NOTES:
     dance-single:
     :
     Medium:
     5:
     0.329,0.397,0.139,0.085,0.000:
0000
0000
0000
0000
,
0000
0000
0000
0000
,
0000
0000
0000
0000
,
0000
0000
0000
0000
,
0000
0000
0000
0000
,
0000
0000
0000
0000
1000
0100
1000
0000
,
0001
0000
0100
0000
0010
0001
0010
0000
,
0001
0000
0100
0000
0010
1000
0010
0000
,
1000
0000
0001
0000
0001
0100
1000
0000
,
0010
0000
1000
0000
0001
0010
1000
0000
,
0001
0000
0100
0000
0001
0100
0001
0000
,
0010
0000
1000
0000
0100
1000
0100
0000
,
1000
0010
2002
0000
,
3003
0000
0001
0000
1000
1000
0000
0000
,
0001
0001
0000
0000
0001
0000
0100
0000
,
0010
0000
1000
0100
,
0010
0001
0010
0000
0001
0100
0010
1000
,
0010
0000
0001
0000
1000
1000
0000
0000
,
0001
0001
0000
0000
1000
0000
0001
0000
,
1001
0000
0100
0010
,
1000
0100
1000
0000
0001
0010
0100
1000
,
0001
0000
0000
0000
1000
0001
1000
0000
,
0100
0010
0001
0100
,
0010
0000
1000
0001
,
0100
0000
0010
0000
1000
0100
1000
0000
,
0001
0000
0001
1000
,
0100
0000
0010
0000
0001
0000
0100
0010
,
1000
0000
0001
1000
,
0001
0000
0100
0000
0010
0000
1000
0100
,
1000
0000
0000
0000
0001
0001
0000
0000
,
1000
1000
0000
0000
0010
0000
0100
0000
,
0010
0000
0000
0000
1000
0100
1000
0000
,
0001
0000
0010
0000
0001
0010
0100
1000
,
0001
0000
1000
0000
1001
1001
0000
0000
,
1001
1001
0000
0000
1001
0000
1001
0000
,
1001
0000
0000
0000
0001
0100
0010
0000
,
1000
0000
0001
0000
1000
0100
1000
0100
,
1000
0000
0001
0100
,
0020
0000
0030
0000
0000
1000
0000
0001
,
0000
1000
0000
0001
1000
0000
0000
0000
,
0000
0000
1000
0100
,
0010
0000
0001
0100
0020
0000
0000
0000
,
2000
3030
0000
0001
,
1000
0000
0100
1000
0200
0000
0000
0000
,
0000
0300
0000
0000
1000
0000
0001
0000
,
0100
0000
0010
1000
0001
0001
0000
0000
,
1000
1000
0000
0000
0000
1001
0000
1001
,
0000
1001
0000
0001
0000
0000
0000
1000
,
0000
0000
0000
0000
1000
0100
1000
0100
,
1000
0000
0001
0100
0010
0010
0000
0000
,
0100
0100
0000
0000
0000
1000
0000
0001
,
0000
0100
0000
0020
2000
0000
0000
0000
,
3030
0000
0000
0000
0001
1000
0100
0010
,
0001
0101
0000
0000
;

//---------------dance-single - ----------------
#NOTES:
     dance-single:
     :
     Easy:
     3:
     0.259,0.312,0.117,0.085,0.000:
0000
0000
0000
0000
,
0000
0000
0000
0000
,
0000
0000
0000
0000
,
0000
0000
0000
0000
,
0000
0000
0000
0000
,
0000
0000
1000
0100
,
0001
0100
1000
0010
,
0001
1000
0001
0100
,
0010
1000
0001
0100
,
0010
1000
0001
0100
,
0001
0010
0100
1000
,
0001
1000
0010
0100
,
0001
1000
2002
0000
,
3003
0000
0001
0000
,
1000
0000
0001
0100
,
1000
0000
0010
0100
,
1000
0001
0100
0010
,
1000
0001
0100
0000
,
0100
0000
0100
0100
,
0100
0000
0010
1000
,
0001
0100
1000
0100
,
0001
1001
0001
1000
,
0100
0001
0010
0100
,
1000
0000
0001
1000
,
0100
0010
0001
0100
,
0010
0000
0010
0100
,
1000
0001
1000
0100
,
0010
0000
0001
1000
,
0010
0100
0001
1000
,
0001
0100
0110
0000
,
0110
0000
0010
0010
,
0010
0000
1000
0001
,
0100
0010
1000
0100
,
0010
0001
0011
0000
,
1100
0000
0110
1001
,
1100
0000
0010
1000
,
0100
0001
0010
0100
,
1000
0000
0001
1000
,
0200
0300
0000
0010
,
1000
0001
0200
0000
,
0300
0000
0001
1000
,
0100
1000
0010
0100
,
0002
0003
0000
0001
,
1000
0100
0020
0000
,
0030
0000
0001
1000
,
0100
0010
0001
0000
,
0001
0000
0000
1000
,
0001
0100
0020
0000
,
0030
0000
1000
0001
,
0100
0010
1100
0000
,
0011
0000
0000
0010
,
0100
0100
0100
0000
,
0000
0000
1000
0001
,
0200
0310
0000
0000
;

//---------------dance-single - ----------------
#NOTES:
     dance-single:
     :
     Beginner:
     1:
     0.067,0.114,0.011,0.000,0.000: // measure 1
0000
0000
0000
0000
,  // measure 2
0000
0000
0000
0000
,  // measure 3
0000
0000
0000
0000
,  // measure 4
0000
0000
0000
0000
,  // measure 5
0000
0000
0000
0000
,  // measure 6
0000
0000
1000
0000
,  // measure 7
0000
0000
0001
0000
,  // measure 8
0000
0000
1000
0000
,  // measure 9
0000
0000
0001
0000
,  // measure 10
0000
0000
0010
0000
,  // measure 11
0000
0000
0100
0000
,  // measure 12
0000
0000
1000
0000
,  // measure 13
0000
0000
0001
0000
,  // measure 14
0000
0000
0010
0000
,  // measure 15
0010
0000
0010
0000
,  // measure 16
0000
0000
0100
0000
,  // measure 17
0000
0000
0000
0000
,  // measure 18
0000
0000
1000
0000
,  // measure 19
1000
0000
1000
0000
,  // measure 20
0000
0000
0001
0000
,  // measure 21
0000
0000
0000
0000
,  // measure 22
0000
0000
0010
0000
,  // measure 23
0000
0000
0000
0000
,  // measure 24
0000
0000
0100
0000
,  // measure 25
0000
0000
0000
0000
,  // measure 26
0000
0000
1000
0000
,  // measure 27
0000
0000
0000
0000
,  // measure 28
0000
0000
0001
0000
,  // measure 29
0000
0000
0000
0000
,  // measure 30
0000
0000
0010
0000
,  // measure 31
0010
0000
0010
0000
,  // measure 32
0000
0000
0100
0000
,  // measure 33
0000
0000
0000
0000
,  // measure 34
0000
0000
1000
0000
,  // measure 35
1000
0000
1000
0000
,  // measure 36
0000
0000
0001
0000
,  // measure 37
0000
0000
0000
0000
,  // measure 38
0000
0000
0010
0000
,  // measure 39
0000
0000
0000
0000
,  // measure 40
0000
0000
0100
0000
,  // measure 41
0000
0000
0000
0000
,  // measure 42
0000
0000
1000
0000
,  // measure 43
0000
0000
0000
0001
,  // measure 44
0000
0000
0000
0000
,  // measure 45
0000
0000
0010
0000
,  // measure 46
0000
0000
0100
0000
,  // measure 47
0100
0000
0000
0000
,  // measure 48
0000
0000
0000
0000
,  // measure 49
0000
0000
0001
0000
,  // measure 50
1000
0000
0001
0000
,  // measure 51
0001
0000
0000
0000
,  // measure 52
0000
0000
0010
0000
,  // measure 53
0000
0000
1000
0000
,  // measure 54
0001
1001
0000
0000
;
