#TITLE:ICARUS;
#SUBTITLE:;
#ARTIST:Eagle;
#TITLETRANSLIT:;
#SUBTITLETRANSLIT:;
#ARTISTTRANSLIT:;
#CREDIT:;
#BANNER:bn.PNG;
#BACKGROUND:bg.png;
#LYRICSPATH:;
#CDTITLE:15 trooper.png;
#MUSIC:ICARUS.mp3;
#OFFSET:-1.000;
#SAMPLESTART:45.540;
#SAMPLELENGTH:12.000;
#SELECTABLE:YES;
#BPMS:0.000=176.000,162.000=126.000,198.000=131.000,206.000=136.000,214.000=141.000,218.000=146.000,222.000=151.000,226.000=156.000,230.000=161.000,232.000=166.000,240.000=171.000,242.000=176.000,246.000=181.000,248.000=186.000,251.000=191.000,253.000=196.000,255.000=201.000,257.000=211.000,259.000=220.999,270.000=231.000,279.500=175.999;
#STOPS:;
#BGCHANGES:;

//---------------dance-single - ----------------
#NOTES:
     dance-single:
     :
     Hard:
     8:
     0.466,0.573,0.100,0.139,0.277:
0000
0000
0000
0000
,
0000
0000
0000
0000
,
0000
0000
0000
0000
,
0000
0000
0000
0000
,
0000
0000
0000
0000
,
0000
0000
0000
0000
,
0000
0000
0000
0000
1100
0000
0000
0101
,
0000
0110
0010
1000
,
0100
0010
0002
0000
,
0000
0000
0203
0000
,
0000
0000
0320
0000
,
0000
0000
2030
0000
,
0000
0000
3100
0000
,
1000
0000
0001
0000
,
0100
0000
0010
0000
,
1000
0000
0001
0000
,
1000
0000
0001
1000
,
0100
0010
0001
0010
,
0100
1000
0001
1000
,
0010
1000
0001
0100
,
0010
0000
1000
0000
0001
0010
0100
1000
,
0100
0010
0001
1000
0001
0100
0001
0100
,
0010
1000
0001
0100
0001
0010
0100
1000
,
0100
0010
0001
0010
1000
0001
0100
0010
,
1000
0000
0001
0000
1000
0001
0000
0000
1000
0000
0000
0100
0000
0000
0010
0000
,
0000
0001
0000
0000
0001
0000
0100
0000
0001
0000
0000
0010
0000
0000
1000
0000
,
0000
0100
0000
0000
1000
0000
0100
0000
0010
0000
0000
0001
0000
0000
1000
0000
,
0000
0010
0000
0000
0010
0000
0100
0000
0010
0000
0000
1000
0000
0000
0100
0000
,
0000
0010
0000
0000
0001
0000
0100
0000
0001
0000
0000
1000
0000
0000
0001
0000
,
0000
1000
0000
0000
0001
0000
0100
0000
0001
0000
0000
0010
0000
0000
1000
0000
,
0000
0100
0000
0000
0010
0000
0001
0000
0010
0000
0000
0100
0000
0000
1000
0000
,
0000
0100
0000
0000
1000
0000
0100
0000
1100
0000
0000
0001
0000
0000
0100
0000
,
1010
0000
0000
0010
0000
0000
0001
0000
0011
0000
0000
1000
0000
0000
0100
0000
,
0000
0010
0000
0000
0001
0100
0001
0100
0001
0000
0000
1000
0000
0000
0100
0000
,
0000
0010
0000
0000
0001
1000
0001
1000
0001
0000
0000
0010
0000
0000
0100
0000
,
0000
1000
0000
0000
0010
1000
0010
1000
0010
0000
0000
1000
0000
0000
0100
0000
,
0000
0010
0000
0000
0001
0100
0001
0100
0001
0000
0000
0010
0000
0000
1000
0000
,
0000
0001
0000
0000
0010
0001
0010
0001
0010
0000
0000
0001
0000
0000
1000
0000
,
0000
0001
0000
0000
1000
0100
0010
0001
2000
0000
0000
0000
3100
0000
1000
0000
,
0200
0000
0020
0000
0000
0330
0010
0000
,
2002
0000
3003
0000
,
0000
0000
0000
0000
,
0000
0000
0000
0000
,
0000
0000
0000
0000
,
0000
0000
0000
0000
0001
1000
0200
0000
,
0000
0000
0000
0000
0310
0100
0000
0001
,
0000
0100
0000
1000
0000
0100
0000
0010
,
1000
0001
1000
0001
0000
1000
0000
0100
,
0000
1000
0000
0100
0010
0001
0000
1000
,
0000
0001
0000
0000
1001
0000
0010
0100
,
0000
1000
0100
0000
0010
0000
0001
0100
,
0000
0000
0010
0000
0000
1000
0000
0000
0001
0000
0000
0000
1000
0000
0100
0000
,
0000
0010
0001
0000
0010
0000
0100
1000
,
0000
0000
0001
0000
0000
0010
0100
0010
0100
0000
0000
0000
0010
0000
1000
0000
,
0000
1000
0100
0000
0010
0000
0001
0100
,
0000
0000
0010
0000
0000
0001
0000
0000
1000
0000
0000
0000
0100
0000
1000
0000
,
0000
0000
0100
0000
0000
0000
0001
0000
1001
0000
0000
0001
0000
0000
0100
0000
,
0110
0000
0000
0100
0000
0000
0010
0000
1010
0000
0000
0000
1000
0000
0100
0000
,
1000
0000
0010
0100
0010
0000
0001
1000
,
0001
0000
0100
0000
0010
0000
0010
1000
,
0010
0000
1000
0000
0100
0000
1000
0100
,
1000
0010
0001
0100
,
0010
1000
0001
1000
0010
0000
1000
0100
,
1000
0000
0010
0001
0010
0000
0001
0000
,
1000
0000
0010
1000
0001
0000
0010
1000
,
0001
0000
0001
0010
0001
1000
0001
1000
,
0001
1000
0001
1000
0001
1000
0001
1000
,
0001
1000
0001
1000
0001
0010
0100
1000
,
0100
0010
0001
0010
0100
1000
0100
0010
,
0001
0010
0100
2200
0000
0000
0000
0000
,
0000
0000
0000
3300
0001
0010
0100
1000
,
0001
0000
1000
0000
0001
0100
0000
0000
1000
0000
0000
0100
0000
0000
0010
0000
,
0000
0001
0000
0000
0001
0000
0100
0000
0001
0000
0000
0010
0000
0000
1000
0000
,
0000
0001
0000
0000
0100
0000
0010
0000
1000
0000
1000
0000
2000
0000
0000
0000
,
0000
0000
0000
0002
0000
0000
0000
0000
,
0000
0000
0000
0000
3003
0000
0000
0000
0010
0000
0000
0100
0000
0000
1000
0000
,
0000
0100
0000
0000
0010
0000
0001
0000
0010
0000
0000
0100
0000
0000
0001
0000
,
0000
1000
0000
0000
0010
0000
1000
0000
1010
0000
0000
0000
0000
0000
0001
0000
,
0002
0000
0100
0200
0000
0000
0000
0000
,
0000
0000
0000
0000
0000
0000
0303
0000
1000
0000
0000
0100
0000
0000
0010
0000
,
0000
0001
0000
0000
0100
0000
0001
0000
1000
0000
0000
0001
0000
0000
0100
0000
,
0000
1000
0000
0000
0100
1000
0100
1000
0100
0000
0000
0010
0000
0000
0001
0000
,
0000
0010
0000
0000
0001
0000
1000
0000
0001
0000
0000
1000
0000
0000
0001
0000
,
0000
1000
0000
0000
1000
0000
0100
0000
0010
0000
0000
0001
0000
0000
1000
0000
,
0000
0100
0000
0000
1000
0000
0100
0000
0010
0000
0000
0001
0000
0000
0010
0000
,
0000
0100
0000
0000
0001
0100
0010
2000
0002
0000
0000
0000
0000
0000
0000
0000
,
0000
0000
0000
0000
,
0000
0000
3003
0000
;

//---------------dance-single - ----------------
#NOTES:
     dance-single:
     :
     Challenge:
     11:
     0.737,1.000,0.701,0.323,0.601: // measure 1
0000
0000
0000
0000
,  // measure 2
0000
0000
0000
0000
,  // measure 3
0000
0000
0000
0000
,  // measure 4
0000
0000
0000
0000
,  // measure 5
0000
0000
0000
0000
,  // measure 6
0000
0000
0000
0000
,  // measure 7
0000
0000
0000
0000
1001
0000
1000
1100
,  // measure 8
0000
0000
0010
0000
0110
0000
0001
1000
0200
0000
1000
0000
1000
0000
1000
0000
,  // measure 9
1000
1000
1000
1000
2300
0000
0000
0000
,  // measure 10
0000
0000
3002
0000
,  // measure 11
0000
0000
0203
0000
,  // measure 12
0000
0000
0320
0000
,  // measure 13
0000
0000
0130
0010
,  // measure 14
1010
0010
0011
0100
,  // measure 15
1100
0100
0110
0010
,  // measure 16
0011
0001
0101
0010
,  // measure 17
0110
0010
1100
0110
,  // measure 18
0011
0101
1001
1010
,  // measure 19
0011
0000
1000
0100
1100
0000
0110
0000
,  // measure 20
0011
0110
1001
0110
,  // measure 21
1100
0000
0010
1000
1000
0100
0010
0001
,  // measure 22
0010
0100
1000
0100
0010
0001
1000
0010
,  // measure 23
1000
0000
0001
0000
1000
0000
0010
0000
1000
0001
0010
0100
1000
0100
0010
0001
,  // measure 24
0100
0001
0010
1000
0100
1000
0010
0100
0010
0000
0010
0000
0100
0000
0100
0000
,  // measure 25
0001
0000
0001
0000
2000
0002
3003
0000
1100
0000
0000
0100
0000
0000
0001
0000
,  // measure 26
0000
1000
0000
0000
0001
0000
0100
0000
0110
0000
0000
0100
0000
0000
0101
0000
,  // measure 27
0000
1000
0000
0000
1100
0000
0010
0000
0011
0000
0000
0001
0000
0000
1000
0000
,  // measure 28
0000
1001
0000
0000
0100
0000
1100
0000
0101
0000
0000
0100
0000
0000
1100
0000
,  // measure 29
0000
0010
0000
0000
0011
0000
0001
0000
0101
0000
0000
1000
0000
0000
0001
0000
,  // measure 30
0000
0100
0000
0000
0001
0000
1000
0000
1001
0000
0000
0100
0000
0000
1100
0000
,  // measure 31
0000
0010
0000
0000
1001
0000
0100
0000
0101
0000
0000
0010
0000
0000
0100
0000
,  // measure 32
0000
0010
0000
0000
1000
0000
0100
0000
2002
0000
3003
0220
0000
0330
0202
0303
,  // measure 33
2200
0000
3300
2002
0000
3003
0220
0330
1001
0000
0001
0010
0000
0010
0100
0000
,  // measure 34
0100
1000
0000
1000
0001
0000
0100
1000
0100
0000
0010
1000
0000
0001
0100
0000
,  // measure 35
1000
0100
0000
0001
0010
0001
0010
0001
0010
0000
0100
0001
0000
0010
0100
0000
,  // measure 36
1000
0001
0000
1000
0001
0100
0010
1000
0001
0000
1000
0001
0000
0100
0001
0000
,  // measure 37
1000
0001
0000
0000
1000
0100
0010
0001
0010
0001
0010
0001
0010
0000
0001
1000
,  // measure 38
0000
0010
0100
0000
0010
0100
0010
0100
0010
0000
1000
0100
0000
0010
0001
0000
,  // measure 39
0010
0100
0000
0100
0010
1000
0001
1000
0020
0000
0000
0000
1030
0000
1000
0000
,  // measure 40
2000
0000
0002
0000
0000
3000
0020
0033
,  // measure 41
2000
3200
0320
0002
0000
0030
2000
0000
0000
0000
0000
0000
,  // measure 42
0000
0000
3003
0000
,  // measure 43
0000
0000
0000
0000
0000
0000
0000
0000
0000
0000
0000
0000
0000
0000
0000
0000
0000
0000
0000
0000
0000
0000
0000
0000
0000
0000
0000
0000
0200
0300
0000
0000
0000
0000
0000
0000
0000
0000
0000
0000
0000
0000
0000
0000
0000
0000
0000
0000
0000
0000
0000
0000
0000
0000
0000
0000
0000
0000
0000
0000
0000
0000
0000
0000
,  // measure 44
0000
0000
0000
0000
0000
0000
0000
0000
0000
0000
0000
0000
0000
0000
0000
0000
0000
0000
0000
0000
0000
0000
0000
0000
0000
0000
0000
0000
0000
0000
0000
0000
0000
0000
0000
0000
0000
0000
0000
0000
2000
3000
0000
0000
0000
0000
0000
0000
0000
0000
0000
0000
0000
0000
0000
0000
0000
0000
0000
0000
0000
0000
0000
0000
,  // measure 45
0000
0000
0000
0000
0002
0010
0200
0000
,  // measure 46
0000
0000
0000
0000
0000
0000
0303
0000
1001
0000
0000
1000
0001
0010
0100
1000
,  // measure 47
0000
0001
1000
0000
1000
0100
0010
0001
0100
0000
0010
0100
0000
1000
0100
0010
,  // measure 48
0001
0000
1000
0100
0000
0001
0100
0000
0010
0000
0000
0010
0100
0000
1000
0001
,  // measure 49
0000
1000
0000
0001
0100
0000
0010
0000
0010
0000
1000
0000
1000
0100
0010
0001
,  // measure 50
1000
0001
0100
0010
1000
0100
0010
0001
0100
0000
0000
0000
0010
0000
0110
0000
,  // measure 51
0000
1000
1100
0000
0110
0000
0001
0101
,  // measure 52
0000
0000
1100
0000
0000
0011
0000
0000
0101
0000
0000
0000
0010
0000
0110
0000
,  // measure 53
0000
1000
1100
0000
0110
0000
0010
0110
,  // measure 54
0000
0000
0100
0000
0000
1000
0100
0010
0110
0000
0000
0000
0100
0000
0011
0000
,  // measure 55
0000
0001
0011
0000
0110
0000
1000
0110
,  // measure 56
0000
0000
0100
0000
0000
1000
0000
0000
1001
0000
0000
0000
0010
0000
0011
0000
,  // measure 57
0000
0000
0010
0000
0000
0000
1000
0000
1001
0000
0000
1000
0000
0000
0010
0000
,  // measure 58
0110
0000
0000
0010
0000
0000
0100
0000
0101
0000
0000
0000
0001
0000
0010
0000
,  // measure 59
0011
0000
0100
0010
0110
0000
1000
0001
,  // measure 60
1001
0000
0010
0000
0110
0000
0100
0001
,  // measure 61
0110
0000
0001
0000
1010
0000
0001
0010
,  // measure 62
0011
0101
1100
1010
,  // measure 63
0100
0001
1000
0001
0200
0000
0301
0010
,  // measure 64
0002
0000
0103
0001
0100
0000
1001
0000
,  // measure 65
0011
0000
0100
0001
0200
0000
0310
0100
,  // measure 66
0020
0000
0130
0001
1000
0100
1000
0010
,  // measure 67
0001
0010
0001
0100
0001
0010
1000
0010
,  // measure 68
1000
0000
0100
0000
0010
0000
0001
0000
1000
0001
1000
0001
1000
0001
1000
0001
,  // measure 69
1000
0001
1000
0001
1000
0001
1000
0001
1000
0001
1000
0001
1000
0001
1000
0001
,  // measure 70
1000
0001
1000
0001
1000
0001
2000
0000
0000
0000
0000
0000
0000
0000
0000
0000
,  // measure 71
0000
0000
0000
0000
0001
0001
0001
0001
,  // measure 72
0001
0000
0001
0000
3001
1000
0000
0000
1100
0000
0000
0100
0000
0000
0001
0000
,  // measure 73
0000
1000
0000
0000
0001
0000
0100
0000
0110
0000
0000
0100
0000
0000
0101
0000
,  // measure 74
0000
1000
0000
0000
1100
0000
0010
0000
0012
0000
0010
0000
0010
0000
0000
0000
,  // measure 75
0000
0000
0000
2003
0000
0000
0000
0100
,  // measure 76
0000
0000
0000
0000
3100
0000
0000
0000
0101
0000
0000
0001
0000
0000
0010
0000
,  // measure 77
0000
0100
0000
0000
0010
0000
0001
0000
1001
0000
0000
0001
0000
0000
0011
0000
,  // measure 78
0000
0100
0000
0000
0101
0000
1000
0000
2010
0000
0000
0000
0000
0000
0100
0000
,  // measure 79
0100
0000
0000
0000
0001
0000
3001
0000
1000
0100
1000
0100
1000
0100
1000
0100
,  // measure 80
1000
0100
1000
0100
1000
0100
1000
0100
1000
0000
0010
1000
0000
1000
0001
0000
,  // measure 81
0001
0100
0000
0100
0010
0000
0001
0100
0001
0000
1000
0100
0000
0010
0001
0000
,  // measure 82
0100
0001
0000
0010
0001
0010
0000
0100
1000
0000
0001
0010
0000
1000
0001
0000
,  // measure 83
0100
0010
0000
0001
0010
0001
0000
1000
0010
0000
0000
0010
0100
0000
0010
0001
,  // measure 84
0000
1000
0100
0000
0100
0001
1000
0010
1000
0010
1000
0010
1000
0000
0010
0100
,  // measure 85
0000
1000
0001
0000
1000
0001
1000
0001
1000
0000
0100
0001
0000
1000
0010
0000
,  // measure 86
1000
0001
0000
0001
1000
0100
0010
1000
2002
0000
0000
0000
0000
0000
0000
0000
,  // measure 87
0000
0000
0000
0000
,  // measure 88
0000
0000
3003
0000
;

//---------------dance-single - ----------------
#NOTES:
     dance-single:
     :
     Medium:
     6:
     0.378,0.539,0.246,0.185,0.069:
0000
0000
0000
0000
,
0000
0000
0000
0000
,
0000
0000
0000
0000
,
0000
0000
0000
0000
,
0000
0000
0000
0000
,
0000
0000
0000
0000
,
0000
0000
0000
0000
1001
0000
0000
0110
,
0000
1001
2000
0000
,
0000
0000
3001
0000
,
0000
0000
1000
0000
,
0000
0000
0001
0000
,
0000
0000
0100
0000
,
0000
0000
0010
0000
,
0100
0000
1000
0000
,
0001
0000
1000
0000
,
0100
0000
0010
0000
,
0001
0000
0001
0100
,
0001
0100
0010
1000
,
0010
1000
0100
1000
,
0100
0010
0001
0100
,
0001
0000
1000
0000
0001
1000
0001
0000
,
1000
0100
1000
0000
0010
0001
0010
0000
,
0100
0001
0100
0000
1000
0100
0010
0001
,
0010
0100
0010
1000
0020
0000
2030
0000
,
3002
0203
0310
1000
,
0100
1000
0100
0000
0010
0000
0100
0001
,
0000
0001
1000
0001
0100
0000
0010
0000
,
0000
1000
0100
0000
0010
0000
0001
0100
,
0000
1000
0100
0010
0001
0000
0001
1000
,
0000
1000
0100
0000
1000
0000
0100
1000
,
0000
1000
0100
0010
0001
0000
0001
0100
,
0000
0010
0100
0010
0110
0000
0000
0001
,
1001
0000
0000
0000
0000
0000
0000
0000
1000
0000
0000
0100
0000
0000
1000
0000
,
0000
0000
0100
0000
1000
0000
0000
0000
0010
0000
0000
0100
0000
0000
0010
0000
,
0000
0000
0001
0000
1000
0000
0000
0000
0001
0000
0000
0100
0000
0000
0010
0000
,
0000
0000
1000
0000
0100
0000
0000
0000
0010
0000
0000
0001
0000
0000
0010
0000
,
0000
0000
0100
0000
1000
0000
0000
0000
0001
0000
0000
0100
0000
0000
0010
0000
,
0000
0000
1000
0000
0100
0000
0000
0000
0010
0000
0000
0001
0000
0000
0010
0000
,
0000
1000
0100
0000
0010
0000
0010
1000
,
0010
2000
0000
0001
,
0002
3003
0202
0000
,
0000
0000
0303
0000
,
0000
0000
0000
0000
,
0000
0000
0000
0000
,
0000
0000
0020
0000
,
0000
0030
0020
0000
,
0000
0000
0000
0000
,
0000
0200
0000
0000
,
0000
0000
0000
0000
0000
0000
0000
0330
,
0000
0000
0000
0000
1000
0000
0001
0100
,
0000
1000
0100
0000
0010
0000
0001
0100
,
0000
0010
0000
0000
0100
0000
0010
1000
,
0000
0100
1000
0000
0100
0000
0010
0001
,
0000
0010
0000
0000
1001
0000
0000
0001
,
0000
0010
0100
0000
0110
0000
0010
0001
,
0000
0100
1000
0000
1100
0000
0010
0000
,
0100
1000
1100
0000
,
0011
0000
1001
0000
,
0101
0000
0110
0000
,
1010
0000
1100
0000
,
0110
0011
0101
0000
,
1001
0010
0110
1000
,
0100
0010
0011
1100
,
0110
1001
1100
1100
,
1100
0101
0101
0101
,
0010
1000
0001
1000
,
0100
0010
0001
0010
,
0100
0010
1000
0100
,
0010
0000
0001
0000
1000
0100
0010
0001
,
0010
0100
2000
0002
0000
0000
0000
0000
,
0000
3003
0002
2003
,
3200
0000
0320
0000
0130
0000
0010
0100
,
0000
0010
0100
0010
1000
0000
1000
0100
,
0000
0010
0001
0000
0001
0100
0002
0000
,
0000
0000
0000
0200
0000
0000
0000
0000
,
0000
0303
0010
0100
,
0000
1000
0100
0010
0001
0000
0001
1000
,
0000
1000
0100
0000
1000
0000
0000
0010
,
0100
0000
0002
2000
0000
0000
0000
0000
,
0000
0000
0000
0000
3003
0000
0000
0000
0010
0000
0000
0100
0000
0000
1000
0000
,
0000
0100
0000
0000
1000
0000
0100
0000
0010
0000
0000
0001
0000
0000
0010
0000
,
0000
0100
0000
0000
0001
0000
1000
0000
0001
0000
0000
1000
0000
0000
0001
0000
,
0000
0100
0000
0000
0010
0000
1000
0000
0010
0000
0000
1000
0000
0000
0100
0000
,
0000
0010
0000
0000
0001
0000
0100
0000
0001
0000
0000
0010
0000
0000
1000
0000
,
0000
0100
0000
0000
0010
0000
1000
0000
0010
0000
0000
1000
0000
0000
0100
0000
,
0000
0010
0000
0000
0001
0000
1000
0000
0202
0000
0000
0000
0000
0000
0000
0000
,
0000
0000
0000
0000
,
0000
0000
0303
0000
;

//---------------dance-single - ----------------
#NOTES:
     dance-single:
     :
     Easy:
     4:
     0.267,0.371,0.108,0.100,0.000:
0000
0000
0000
0000
,
0000
0000
0000
0000
,
0000
0000
0000
0000
,
0000
0000
0000
0000
,
0000
0000
0000
0000
,
0000
0000
0000
0000
,
0000
0000
0000
0000
1000
0000
0000
1000
,
0000
2000
0000
0000
,
0000
0000
3002
0000
,
0000
0000
0000
0000
,
0000
0000
0000
0000
,
0000
0000
0003
0000
,
0000
0000
0010
0000
,
0000
0000
0010
0000
,
0000
0000
0100
0000
,
0000
0000
0100
0000
,
0000
0000
1000
0000
,
0001
0000
1000
0000
,
0001
0000
0010
0000
,
0100
0000
1000
0000
,
0010
0000
1000
0100
,
0010
0001
1000
0100
,
0010
0001
0100
1000
,
0010
0000
0100
0000
0001
0100
0001
0100
,
0001
0100
0001
0000
1000
0000
0100
0000
,
0000
0010
0100
0010
,
0000
1000
0001
0100
,
0000
0010
1000
0100
,
0000
1000
0100
0001
,
0000
0001
1000
0010
,
0000
0010
0100
1000
,
0000
0010
0011
0000
,
1100
0000
0110
0010
,
0100
1000
1001
1000
,
0100
0010
0011
0001
,
0010
0100
1100
0100
,
0100
0100
1100
1000
,
0100
0010
0011
0001
,
0100
0010
2000
0000
,
0000
0000
0000
3000
,
0002
0000
0103
0000
,
0000
0000
0000
0000
,
0000
0000
0000
0000
,
0000
0000
0000
0000
,
0000
0000
0000
0000
,
0000
0000
2002
0000
,
0000
0000
0000
3003
0000
0000
0000
0000
,
0000
0000
0000
0010
0000
0000
0000
0000
,
0000
0000
0000
0010
0000
0100
0000
1000
,
0000
0001
0000
1000
0100
0000
0000
0010
,
0000
0000
0001
0000
0100
0000
0000
0010
,
0000
0100
0000
0000
0010
0000
0000
1000
,
0000
0000
0001
0000
1000
0000
0000
0001
,
0000
0000
0000
0000
0010
0000
0000
0100
,
0000
0000
0010
0000
1000
0000
0000
0001
,
0000
0000
1000
0000
0100
0000
0000
1000
,
0000
0100
0010
0000
,
0001
0000
0100
0000
,
0010
0000
1000
0000
,
0001
0000
0010
0000
,
1000
0100
0010
0000
,
0001
0100
0010
1000
,
0100
0010
0001
1000
,
0001
1000
0001
0100
,
0001
0100
0010
1000
,
0100
0010
0001
1000
,
0001
1000
0001
1000
,
0001
1000
0001
0100
,
0010
1000
0100
0010
,
0001
1000
0002
2000
0000
0000
0000
0000
,
0000
0000
3003
0000
0001
0100
0001
0100
,
0001
0100
0001
0000
1000
0000
0100
0000
,
0010
0001
0010
0100
,
1000
0000
0010
0000
0001
1000
0001
0000
,
0000
0000
0000
2000
0000
0000
0000
0000
,
3000
0000
0010
0001
,
0100
1000
0100
0001
,
0100
0000
1000
0000
0010
0000
0000
0001
,
0100
0000
0020
2000
0000
0000
0000
0000
,
0000
3030
1000
0100
,
0010
0001
0011
0001
,
0100
1000
1010
1000
,
0100
0010
0011
0001
,
0100
1000
1010
1000
,
0100
0010
0011
0100
,
1000
0000
0001
2000
0020
0000
0000
0000
,
0000
0000
0000
0000
,
0000
0000
3030
0000
;

//---------------dance-single - ----------------
#NOTES:
     dance-single:
     :
     Beginner:
     2:
     0.125,0.197,0.085,0.000,0.000: // measure 1
0000
0000
0000
0000
,  // measure 2
0000
0000
0000
0000
,  // measure 3
0000
0000
0000
0000
,  // measure 4
0000
0000
0000
0000
,  // measure 5
0000
0000
0000
0000
,  // measure 6
0000
0000
0000
0000
,  // measure 7
0000
0000
1001
0000
,  // measure 8
0000
0000
0000
0000
,  // measure 9
0000
0000
0010
0000
,  // measure 10
0000
0000
0010
0000
,  // measure 11
0000
0000
0010
0000
,  // measure 12
0000
0000
0010
0000
,  // measure 13
0000
0000
0100
0000
,  // measure 14
0000
0000
0100
0000
,  // measure 15
0000
0000
0100
0000
,  // measure 16
0000
0000
0100
0000
,  // measure 17
0000
0000
1000
0000
,  // measure 18
1000
0000
1000
0000
,  // measure 19
1000
0000
0001
0000
,  // measure 20
0001
0000
0001
0000
,  // measure 21
0001
0000
0010
0000
,  // measure 22
0100
0000
1000
0000
,  // measure 23
0001
0000
1000
0000
,  // measure 24
0000
0000
0001
0001
,  // measure 25
0001
1001
0100
0000
,  // measure 26
0000
0000
0010
0000
,  // measure 27
0000
0000
0100
0000
,  // measure 28
0000
0000
0010
0000
,  // measure 29
0000
0000
1000
0000
,  // measure 30
0000
0000
0001
0000
,  // measure 31
0000
0000
1000
0000
,  // measure 32
0000
0000
0110
0000
,  // measure 33
0110
0000
0010
0000
,  // measure 34
0000
0100
0100
0000
,  // measure 35
0000
1000
1000
0000
,  // measure 36
0000
0001
0001
0000
,  // measure 37
0000
1000
1000
0000
,  // measure 38
0000
0010
0010
0000
,  // measure 39
0000
0000
0010
0000
,  // measure 40
0000
0000
0000
0000
,  // measure 41
0000
0000
1001
0000
,  // measure 42
0000
0000
0000
0000
,  // measure 43
0000
0000
0000
0000
,  // measure 44
0000
0000
0000
0000
,  // measure 45
0000
0000
0000
0000
,  // measure 46
0000
0000
1001
0000
,  // measure 47
0000
0000
0000
0000
,  // measure 48
0000
0000
0000
0000
,  // measure 49
0000
0000
0000
0000
,  // measure 50
0000
0000
0001
0000
,  // measure 51
0000
0000
0001
0000
,  // measure 52
0000
0000
1000
0000
,  // measure 53
0000
0000
1000
0000
,  // measure 54
0000
0000
0100
0000
,  // measure 55
0000
0000
0100
0000
,  // measure 56
0000
0000
0010
0000
,  // measure 57
0000
0000
0010
0000
,  // measure 58
0010
0000
0010
0000
,  // measure 59
0100
0000
1000
0000
,  // measure 60
0001
0000
1000
0000
,  // measure 61
0001
0001
0001
0000
,  // measure 62
0100
0000
0010
0000
,  // measure 63
1000
0000
0001
0000
,  // measure 64
1000
0000
0001
0000
,  // measure 65
1000
0000
0001
0000
,  // measure 66
1000
0000
0001
0000
,  // measure 67
0000
0000
0000
0000
,  // measure 68
0000
0000
1000
0000
,  // measure 69
0000
0000
0000
0000
,  // measure 70
0000
0000
0000
1001
0000
0000
0000
0000
,  // measure 71
0000
0000
1000
1000
,  // measure 72
1000
1001
0001
0000
,  // measure 73
0000
0001
0001
0000
,  // measure 74
0000
0000
1001
0000
,  // measure 75
0000
0000
0000
0000
,  // measure 76
0000
0000
0010
0000
,  // measure 77
0000
0100
0100
0000
,  // measure 78
0000
0000
1000
0000
,  // measure 79
0000
0000
0000
0000
,  // measure 80
0000
0000
1001
0000
,  // measure 81
0000
0001
0001
0000
,  // measure 82
0000
1000
1000
0000
,  // measure 83
0000
0010
0010
0000
,  // measure 84
0000
0100
0100
0000
,  // measure 85
0000
0010
0010
0000
,  // measure 86
0000
1000
1001
0000
;
