#TITLE:Hysteria 2004;
#SUBTITLE:;
#ARTIST:LOKI vs. Naoki190;
#TITLETRANSLIT:;
#SUBTITLETRANSLIT:;
#ARTISTTRANSLIT:;
#CREDIT:;
#BANNER:HYSTERIA.png;
#BACKGROUND:HYSTERIA-bg.png;
#LYRICSPATH:;
#CDTITLE:Dance Mania.png;
#MUSIC:Hysteria 2004.mp3;
#OFFSET:-9.840;
#SAMPLESTART:78.372;
#SAMPLELENGTH:12.000;
#SELECTABLE:YES;
#BPMS:0.000=196.000;
#STOPS:;
#BGCHANGES:;

//---------------dance-single - ----------------
#NOTES:
     dance-single:
     :
     Hard:
     8:
     0.635,0.658,0.878,0.000,0.000:
0100
0000
1001
0000
,
1000
0101
1100
0000
,
0001
0000
0101
0000
,
0010
1010
0101
0000
,
1001
0000
0110
0000
,
1000
0001
1001
0000
,
0100
0000
0010
0000
,
0100
0010
0110
0000
,
0001
0000
1000
0000
1001
0000
0001
0100
,
0001
0100
0110
0000
,
0110
0000
0010
0000
1010
0000
1000
0100
,
1000
0100
0110
0000
,
0101
0000
0010
0000
0110
0000
0010
1000
,
0001
0101
1100
0000
,
0110
0000
1001
0000
1010
0000
0010
1000
,
0001
0100
0101
0000
,
0000
0001
1000
0001
0100
0010
0000
0010
,
0000
0010
0100
0010
1000
0001
0000
0001
,
0000
0010
0100
0001
1000
0010
0000
0010
,
0000
1000
0100
0010
0001
0010
0000
0001
,
0000
0010
0001
0010
0001
0010
0000
0001
,
0000
0001
0100
0001
0100
0010
0000
0010
,
0100
0001
1000
0100
1000
0001
0100
0001
,
1000
0001
0100
0000
1100
0000
0000
0000
,
1001
0000
0001
0100
0001
0000
0010
0100
,
1000
0001
0000
1000
0000
1000
0100
0001
,
0100
0110
1000
1100
,
0100
0110
0010
0011
,
1000
0001
0100
0001
0100
0001
0000
0000
,
0001
0010
0100
1000
1100
0000
1000
0100
,
0010
0001
0010
0001
0100
0001
0010
0000
,
1001
0000
1001
0000
1001
0000
0000
1000
,
0100
0001
0100
0010
1000
0001
0100
0000
,
0010
0100
0000
0110
0000
1000
0001
0100
,
0101
0001
0011
0100
,
0110
0100
1100
1000
,
1000
0001
1000
0000
1100
0000
0110
0000
,
0011
0101
1010
1001
,
1000
0001
1000
0001
0000
0010
0100
1000
,
0001
0100
0001
0100
0010
0000
0100
0010
,
0110
0000
0000
0101
0000
1000
0001
0100
,
0010
0100
0000
0010
1000
0001
0100
0000
,
1001
0000
0000
0000
0000
1000
0100
0010
,
0001
0100
0001
0100
0010
0000
0000
0000
,
1000
1100
0010
0110
,
0011
0110
1100
1001
,
0001
1000
0001
0100
0010
0100
0001
1000
,
0100
1000
0010
0100
0001
1000
0001
0010
,
0110
0000
0010
0100
0010
0000
1000
0100
,
0010
0001
0010
0000
0011
0000
1100
0000
,
0010
0000
0010
0100
0010
0000
0100
0000
,
0110
0010
0110
0000
0110
0000
0000
0000
,
0000
0000
0001
1000
1001
0000
0001
0100
,
0001
0100
0010
0000
0110
0000
0110
0000
,
0000
0000
1000
0100
0010
0001
0010
0000
,
0011
0000
0000
1100
0000
0000
0000
0000
,
0000
0000
0110
0010
0110
0000
0010
0100
,
0010
1000
0010
0000
1010
0000
0101
0000
,
0000
0000
1000
0100
1000
0000
1000
0100
,
0010
0001
0011
0000
0011
0000
0000
0000
,
0000
0000
0001
0100
0101
0000
0010
0100
,
0010
1000
0010
0000
1001
0000
1001
0000
,
0000
0000
0010
0100
0001
1000
0010
0100
,
0101
0000
0001
0101
0000
0000
0010
0000
,
0110
0000
0010
0100
0000
1000
0100
0000
,
0010
0001
0000
0000
0101
0001
0101
0100
,
0101
0000
0010
0100
0000
0000
1000
0000
,
0100
1000
0000
0000
1100
0100
1100
1000
,
1100
0000
0010
0100
0000
0000
0001
0000
,
1000
0100
0000
0000
0110
0010
0110
0100
,
0110
0000
0010
1000
0000
0001
0100
0000
,
0010
0100
0000
1000
1001
0001
1001
1000
,
0001
0000
0000
1000
0000
0000
0000
0000
;

//---------------dance-single - ----------------
#NOTES:
     dance-single:
     :
     Medium:
     6:
     0.450,0.475,0.475,0.000,0.000:
0001
0000
1000
0000
,
0001
0001
0101
0000
,
0010
0000
0100
0000
,
0010
1000
1010
0000
,
0100
0000
1100
0000
,
0010
0100
0001
0000
,
0110
0000
0110
0000
,
0010
1000
0001
0000
,
1000
0100
0010
0001
,
0100
0010
0100
0000
,
0010
1000
0001
1000
,
0001
0100
0001
0000
,
0010
0100
1000
0010
,
1000
0001
0100
0000
,
0010
0100
0001
1000
,
0100
1000
0100
0000
,
1000
0000
0100
0000
0010
0000
0001
0100
,
0001
0100
0110
0000
,
0010
0000
0100
0000
1000
0000
0001
1000
,
0001
0100
0101
0000
,
0010
0000
0100
0000
0110
0000
0010
1000
,
0010
0100
0010
0100
,
0001
0000
1000
0000
0100
0000
1000
0100
,
0000
0010
0001
0000
0101
0000
0000
0000
,
0001
0000
1000
0000
1001
0000
0001
0100
,
0001
0100
0010
1000
,
1100
0000
0110
0000
,
0011
0000
0110
0000
,
0001
1000
0001
0100
,
0010
0100
0010
0000
0100
0000
0010
0000
,
1000
0100
1000
0000
0010
0000
0100
0000
,
0101
1100
0101
0000
,
0101
1100
0110
0010
,
0100
0010
0000
0100
0000
0000
0010
0100
,
0010
0000
0110
0000
,
1001
0000
1100
0000
,
1000
0100
0010
0001
,
0010
0100
1000
0001
,
0100
0001
0100
0000
0010
0000
0100
0000
,
0010
1000
0010
0000
1000
0000
0100
0000
,
0110
0000
0000
1000
0001
0000
0000
0000
,
1001
1000
0100
0010
,
0011
0000
0000
0001
,
0100
0000
0010
0100
0000
0000
0000
0000
,
1000
0100
0000
0000
0010
0100
0000
0000
,
0001
0100
0000
0000
0010
0100
0000
0000
,
1100
0000
0011
0000
0110
0000
0010
1000
,
0010
0100
0001
0000
,
0000
0000
1001
0000
0110
0000
1000
0100
,
1000
0100
1000
0000
1100
0000
1100
0000
,
0000
0110
1001
0010
,
0110
0110
0110
0000
,
0000
0001
1000
0100
,
0010
0001
0011
0011
,
0000
0001
0010
0100
,
1000
0100
1000
0000
,
0000
1010
0110
0001
,
0010
0100
1000
1000
,
0000
0001
1000
0010
,
0110
0110
0110
0000
,
0000
0001
1000
0100
,
0010
0001
0011
1100
,
0000
0010
0100
1000
,
0001
0000
0000
0100
0000
0000
0000
0000
,
0010
0000
0010
0100
0000
0000
1000
0000
,
1000
0100
0000
0000
0001
0100
0001
0100
,
0001
0000
0010
0100
0000
0000
0001
0000
,
0001
1000
0000
0000
1000
0100
1000
0100
,
1000
0000
1000
0100
0000
0000
0010
0000
,
0010
0100
0000
0000
0010
0100
0001
1000
,
0001
0000
0001
1000
0000
0000
1000
0000
,
1000
0100
0000
0000
1000
0100
0001
0100
,
0010
0000
0000
0001
0000
0000
0000
0000
;

//---------------dance-single - ----------------
#NOTES:
     dance-single:
     :
     Easy:
     5:
     0.397,0.475,0.444,0.020,0.000:
1000
0000
0001
0000
,
1000
0001
1000
0000
,
0010
0000
0100
0000
,
0010
0100
0010
0000
,
1000
0000
0100
0000
,
1000
0100
1000
0000
,
0001
0000
0100
0000
,
0001
0100
0001
0000
,
0010
0100
0010
0000
,
0010
0100
0010
0000
,
1000
0100
1000
0000
,
0001
0100
0001
0000
,
0010
0100
0010
0000
,
1000
0001
1000
0000
,
1000
0100
1000
0000
,
0001
0100
0001
0000
,
0010
0100
0010
1000
,
0000
0001
1000
0001
,
0000
0001
0100
0010
,
0000
0010
0100
0010
,
0000
1000
0001
0100
,
0000
1000
0001
0100
,
0010
1000
0100
0010
,
0001
1000
0001
0000
,
1001
0001
0100
0010
,
1000
0100
0010
0001
,
1000
0000
1000
0000
,
1000
0100
0010
0001
,
0100
0001
0100
0000
,
0010
0100
1000
0100
,
0010
0001
0100
0000
,
1001
1001
1001
0000
,
1001
0001
1000
0000
,
0001
0100
0010
1000
,
1010
0000
0110
0000
,
0011
0000
1001
0000
,
0001
0101
0010
0110
,
1000
1100
0100
1100
,
1000
0100
0010
0001
,
0100
0000
1000
0000
0010
0000
0100
0001
,
1001
0000
0000
0000
,
0001
1000
0100
0010
,
0011
0000
0000
0000
,
0001
0100
0010
0000
,
0110
0000
1100
0000
,
0101
0000
0110
0000
,
1100
0000
0011
0000
,
1001
0110
1001
0000
,
0000
1000
1000
0001
,
0100
0010
1010
0101
,
0000
1000
0100
0010
,
0011
1100
1001
0000
,
0000
0101
1010
1000
,
0100
0010
0011
1100
,
0000
0010
0100
1000
,
0001
1000
0010
0000
,
0000
1100
0101
0010
,
0100
1000
0002
0103
,
0000
1000
0100
0010
,
0011
1100
0110
0000
,
0000
0001
1001
0001
,
0100
0010
1010
0101
,
0000
1000
0100
0010
,
0011
1100
0110
0000
,
0001
0000
0000
1000
0000
0000
0001
0000
,
0000
0100
0000
0000
0010
0100
0010
0100
,
0010
0000
0000
0010
0000
0000
0100
0000
,
0000
0100
0000
0000
1000
0100
1000
0100
,
1000
0000
0000
0001
0000
0000
0100
0000
,
0000
0010
0000
0000
0001
0100
0001
0100
,
0001
0000
0000
0100
0000
0000
0010
0000
,
0000
1000
0000
0000
1000
0100
0010
0001
,
2000
0000
0000
3001
0000
0000
0000
0000
;

//---------------dance-single - ----------------
#NOTES:
     dance-single:
     :
     Beginner:
     2:
     0.141,0.254,0.050,0.000,0.000: // measure 1
0001
0000
0000
0000
,  // measure 2
0001
0000
0000
0000
,  // measure 3
0001
0000
0000
0000
,  // measure 4
0001
0000
0000
0000
,  // measure 5
1000
0000
0000
0000
,  // measure 6
1000
0000
0000
0000
,  // measure 7
1000
0000
0000
0000
,  // measure 8
1000
0000
0000
0000
,  // measure 9
0010
0000
0000
0000
,  // measure 10
0000
0000
0000
0000
,  // measure 11
0010
0000
0000
0000
,  // measure 12
0000
0000
0000
0000
,  // measure 13
0100
0000
0000
0000
,  // measure 14
0000
0000
0000
0000
,  // measure 15
0100
0000
0000
0000
,  // measure 16
0000
0000
0000
0000
,  // measure 17
1000
0000
1000
0000
,  // measure 18
1000
0000
0000
0000
,  // measure 19
0001
0000
0001
0000
,  // measure 20
0001
0000
0000
0000
,  // measure 21
0010
0000
0010
0000
,  // measure 22
0010
0000
0000
0000
,  // measure 23
0110
0000
0000
0000
,  // measure 24
0000
0000
0000
0000
,  // measure 25
1001
0000
0000
0000
,  // measure 26
0001
0000
0000
1000
,  // measure 27
1000
0000
0000
0000
,  // measure 28
0100
0000
0000
0000
,  // measure 29
0000
0000
0001
0000
,  // measure 30
0001
0000
0000
0000
,  // measure 31
1000
0000
0000
0000
,  // measure 32
0001
0001
0001
0000
,  // measure 33
1001
0000
0000
0000
,  // measure 34
0010
0000
0000
0000
,  // measure 35
0100
0000
0000
0000
,  // measure 36
0010
0000
0000
0000
,  // measure 37
0100
0000
0000
0000
,  // measure 38
0000
0000
0000
0000
,  // measure 39
1000
0000
0000
0000
,  // measure 40
0000
0000
0000
0000
,  // measure 41
0001
0000
0000
0000
,  // measure 42
0000
0000
0000
0000
,  // measure 43
0010
0000
0000
0000
,  // measure 44
0100
0000
0000
0000
,  // measure 45
0001
0000
1000
0000
,  // measure 46
0001
0000
1000
0000
,  // measure 47
0001
0000
1000
0000
,  // measure 48
0010
0010
0010
0000
,  // measure 49
0110
0000
0010
0000
,  // measure 50
0100
0100
0100
0000
,  // measure 51
0010
0000
1000
0000
,  // measure 52
0001
1000
0001
0000
,  // measure 53
1000
0000
0000
0000
,  // measure 54
0001
0000
0001
0000
,  // measure 55
0001
0000
0000
0000
,  // measure 56
1000
1000
1000
0000
,  // measure 57
1001
0000
0000
0000
,  // measure 58
0001
0000
1000
0000
,  // measure 59
0100
0000
0000
0000
,  // measure 60
0010
0010
0010
0000
,  // measure 61
0100
0000
0000
0000
,  // measure 62
0010
0000
1000
0000
,  // measure 63
0001
0000
0000
0000
,  // measure 64
1000
0000
0000
0000
,  // measure 65
0001
0000
0000
0000
,  // measure 66
0000
0000
1000
1000
,  // measure 67
1000
0000
0000
0000
,  // measure 68
0000
0000
0010
0010
,  // measure 69
0010
0000
0000
0000
,  // measure 70
0000
0000
0100
0100
,  // measure 71
0100
0000
0000
0000
,  // measure 72
0000
0000
0001
0001
,  // measure 73
0001
0000
0000
0000
;
