#TITLE:Holy Forest;
#SUBTITLE:;
#ARTIST:Sarastro;
#TITLETRANSLIT:;
#SUBTITLETRANSLIT:;
#ARTISTTRANSLIT:;
#CREDIT:;
#BANNER:bn.PNG;
#BACKGROUND:bg.PNG;
#LYRICSPATH:Holy Forest.lrc;
#CDTITLE:Digi.png;
#MUSIC:Holy Forest.mp3;
#OFFSET:-3.203;
#SAMPLESTART:12.280;
#SAMPLELENGTH:12.000;
#SELECTABLE:YES;
#BPMS:0.000=185.000;
#STOPS:;
#BGCHANGES:;

//---------------dance-single - ----------------
#NOTES:
     dance-single:
     :
     Hard:
     8:
     0.515,0.644,0.327,0.230,0.009:
0000
0000
0000
0000
,
0000
0000
0000
0000
,
0000
0000
0000
0000
,
0000
0000
0000
0000
,
0000
0000
0000
0000
,
0000
0000
0000
0000
,
0000
0000
0000
0000
,
1000
0100
0000
0000
0010
0001
0000
0000
,
0001
0000
0100
0010
0000
0001
1000
0000
,
1100
0010
0110
0001
,
0010
0000
0001
0010
0000
0100
1000
0000
,
0110
0010
0110
1000
,
1001
0000
1000
0100
0000
0010
0001
0000
,
0100
0001
0000
0100
0000
0020
0000
2000
,
0000
0000
3030
0000
,
0101
0010
0110
1000
,
0100
0000
1000
0100
0000
0010
0001
0000
,
0101
0010
0110
1000
,
0100
0000
1000
0100
0000
0010
0001
0000
,
0101
1010
0110
1001
,
1100
0000
0001
0001
0000
0000
0000
0000
,
0010
0200
0000
0010
0000
0010
0000
0010
,
0000
0010
0000
0310
0000
0000
0000
0000
,
0001
0100
0001
0000
0010
1000
0010
0000
,
1000
0100
1000
0000
0010
0001
0010
0000
,
0100
0001
0100
0000
0010
1000
0010
0000
,
0001
0000
1000
0000
0001
0000
0200
0000
0000
0000
0000
0000
,
0310
0100
0010
0000
0001
1000
0001
0000
,
1000
0100
1000
0000
0010
0001
0010
0000
,
0002
0000
0203
0000
,
0320
0000
2030
0000
,
3001
1000
0001
1000
0010
1000
0010
1000
,
0010
0100
0010
0100
0001
0010
0100
1000
,
0100
0010
0001
0010
1000
0001
0100
0010
,
1000
0100
0010
0001
0010
0100
0001
1000
,
0010
0100
0010
1000
0001
0100
0010
0001
,
0010
0100
1000
0100
0001
1000
0010
0100
,
1000
0100
0010
0001
0010
0100
0001
2000
,
0002
0000
0000
0000
,
0000
0000
0000
3003
,
0120
0130
1000
0100
,
2100
0100
0010
0001
,
3001
0000
0001
0100
0010
0000
0001
0000
,
0100
1000
1000
1000
,
0100
1000
0100
0000
0010
0001
0010
0000
,
0100
0001
0100
0000
0010
1000
0010
0000
,
0001
1000
0001
0000
0010
0100
0010
0000
,
1000
0100
1000
0000
0010
0001
0010
0000
,
0102
0103
2100
3100
,
0120
0130
1002
1003
,
0100
0000
1000
0100
0001
0000
0010
0000
,
0100
0010
1000
0010
,
0011
0000
0001
0010
,
0100
1000
0100
0010
,
0002
0000
0000
0003
,
0001
0000
0100
0000
0010
0000
1000
0010
,
0001
1000
0001
0000
0100
0010
0100
0000
,
1000
0100
0010
0001
0100
0001
1000
0010
,
0001
1000
0001
0000
1000
0100
0001
0000
,
0001
0010
1000
0100
0010
0001
0010
1000
,
1001
0110
1100
0011
,
0110
1010
0110
0011
,
1001
0000
0000
0000
0000
0000
0000
0100
,
0110
0000
0000
0000
,
1100
0000
0000
0000
0000
0000
0000
0010
,
0011
0000
0000
0000
,
0101
0000
0000
0000
0000
0000
0000
0010
,
0110
0000
0000
0000
,
2000
0100
0010
0001
,
3001
0000
0000
0000
,
0002
0103
0020
1030
,
0200
1300
0020
0031
,
0001
0100
0001
0100
0010
1000
0010
1000
,
0001
0010
0100
1000
0100
0010
0001
1000
,
0001
1000
0010
0100
0001
0100
0001
0010
,
0100
1000
0100
0010
0001
1000
0010
0100
,
0001
1000
0001
0000
0000
0000
1000
0100
,
2000
0200
0000
3300
,
0001
1000
0010
0100
1000
0100
0010
0001
,
0100
0001
1000
0010
0100
0001
1000
0010
,
0000
0000
1001
0220
0000
0000
0000
0000
,
0330
0000
0000
0000
;

//---------------dance-single - ----------------
#NOTES:
     dance-single:
     :
     Medium:
     6:
     0.334,0.465,0.141,0.062,0.000:
0000
0000
0000
0000
,
0000
0000
0000
0000
,
0000
0000
0000
0000
,
0000
0000
0000
0000
,
0000
0000
0000
0000
,
0000
0000
0000
0000
,
0000
0000
0000
0000
,
1000
0001
0100
0010
,
1000
0000
0001
0100
0000
0000
0000
0000
,
0010
0100
1000
0001
,
0100
0000
0010
0100
0000
0000
0000
0000
,
1000
0100
0010
0001
,
0100
0000
0001
1000
0000
0000
0000
0000
,
1000
0100
0000
0010
0000
0001
0000
0100
,
0000
0000
0000
0000
,
1001
0001
1001
1000
,
0100
0000
1000
0100
0000
0000
0000
0000
,
0010
0001
0100
0010
,
1000
0000
0010
1000
0000
0000
0000
0000
,
1000
0001
0100
0010
,
1000
0000
0100
1000
0000
0000
0000
0000
,
0010
0100
0000
0001
0000
1000
0000
0001
,
0000
1000
0000
0001
0000
0000
0000
0000
,
1000
0000
0000
0000
0000
1000
0100
0010
,
0001
0000
0000
0000
0000
0001
0010
0100
,
1000
0000
0000
0000
0000
0001
1000
0001
,
0100
0000
0010
0000
,
1000
0000
0001
0100
,
0010
0000
1000
0001
,
0200
0000
0010
0000
,
0002
0300
0000
0000
2000
0000
3003
0000
,
0001
1000
0100
0010
,
0001
0010
0100
1000
,
0010
1000
0000
0010
0000
0100
0000
0000
,
0001
0000
1000
0100
0000
0000
0010
0000
,
0000
0001
0100
1000
,
0010
0001
0010
0100
,
1000
0001
0000
0100
,
2002
0000
0000
0000
,
0000
0000
0000
3003
,
0110
0000
0010
0100
,
0110
0000
1001
0000
,
0000
0000
1000
0100
1000
0000
0000
0000
,
0000
0001
0100
0010
,
1000
1000
0001
0001
,
0100
0100
0010
0010
,
1000
0100
0010
0001
,
1000
0100
0010
0001
,
0011
0100
1100
0010
,
0110
0010
0110
0001
,
1000
0000
0001
0100
0010
0000
0000
0000
,
0000
0001
1000
0100
,
0100
0000
0010
0100
,
1000
0001
1000
0010
,
1000
0000
0000
0000
,
1000
0000
0100
0000
0010
0000
0001
0100
,
0001
0100
0001
0000
0010
1000
0010
0000
,
0100
0001
1000
0100
,
0010
1000
0010
0000
0010
0100
0010
0000
,
0001
1000
0001
0000
0100
0001
0100
0000
,
1000
1000
0001
0001
,
0100
0100
0010
0010
,
0110
0000
0000
0000
,
1001
0000
0000
0000
,
1100
0000
0000
0000
,
0011
0000
0000
0000
,
0101
0000
0000
0000
,
1010
0000
0000
0000
,
0001
0001
1000
1000
,
0001
0000
0000
0000
,
0010
0100
1000
0001
,
0010
0100
1000
0100
,
1000
1000
0001
0001
,
0100
0100
0010
0010
,
1000
0100
0010
0001
,
1000
0100
0010
0001
,
0100
0001
0100
0000
0000
0000
0010
1000
,
0010
1000
0000
0000
,
1000
0001
0100
0010
,
1000
0100
0010
0001
,
0000
0000
0002
2000
0000
0000
0000
0000
,
3003
0000
0000
0000
;

//---------------dance-single - ----------------
#NOTES:
     dance-single:
     :
     Easy:
     5:
     0.254,0.603,0.106,0.053,0.000:
0000
0000
0000
0000
,
0000
0000
0000
0000
,
0000
0000
0000
0000
,
0000
0000
0000
0000
,
0000
0000
0000
0000
,
0000
0000
0000
0000
,
0000
0000
0000
0000
,
1000
1000
0001
0001
,
1000
0000
0000
0001
0000
0000
0000
0000
,
0100
0100
0010
1000
,
0001
0000
0000
1000
0000
0000
0000
0000
,
1000
0100
0010
0001
,
0010
0000
0000
0001
0000
0000
0000
0000
,
0100
0000
0000
0001
0000
1000
0000
0001
,
0000
0000
0000
0000
,
0100
0000
0010
0000
,
1000
0000
0000
1000
0000
0000
0000
0000
,
0001
1000
0001
0100
,
0001
0000
0000
0001
0000
0000
0000
0000
,
0010
1000
0100
1000
,
0100
0000
0000
1000
0000
0000
0000
0000
,
0001
0000
0000
1000
0000
0001
0000
1000
,
0000
0001
0000
1000
0000
0000
0000
0000
,
0100
0000
0000
0010
,
0010
0000
0000
1000
,
1000
0000
0000
0001
,
0200
0000
0300
0000
,
0001
0000
1000
1000
,
1000
0000
0010
0010
,
0010
0000
0000
0000
,
0000
0000
0000
0000
,
0000
0100
0000
0100
,
0100
0000
0000
0100
0000
0000
0000
0000
,
0001
0000
0000
1000
0000
0001
0000
0000
,
1000
0000
0000
0100
0000
0000
0000
0000
,
0010
0001
0010
0100
,
1000
0001
0100
0010
,
1000
0100
0000
0010
,
2002
0000
0000
0000
,
0000
0000
0000
3003
,
1001
0000
1000
1000
,
2000
0000
3001
0000
,
0000
0100
0100
0000
,
0000
0010
1000
0001
,
0100
0000
0000
0000
,
0000
0000
0000
0000
1000
0000
0000
0002
,
2000
0000
0000
0000
,
0000
0000
0000
3003
,
0010
0000
0010
0010
,
1010
0000
0101
0000
,
0000
1000
1000
0000
,
0000
0001
1000
0100
,
0001
0000
0001
1000
,
0001
0100
0010
1000
,
0010
0000
0000
0000
,
1000
0000
0100
0000
0010
0000
0001
0100
,
0001
0000
0001
0000
,
1000
0000
0001
0000
,
0100
0000
0010
0000
,
1000
0000
0001
0000
,
0100
0100
0100
0100
,
0100
0100
0100
0100
,
0100
0000
0000
0000
,
1000
0000
0000
0000
,
0001
0000
0000
0000
,
0010
0000
0000
0000
,
1000
0000
0000
0000
0000
0000
0000
0001
,
0100
0000
0000
0000
,
1000
0100
0010
0001
,
0100
0000
0000
0000
,
1000
0001
0100
0010
,
1000
0100
0001
0010
,
0011
0011
1100
1100
,
0110
0110
1001
1001
,
1000
0001
0100
0010
,
1000
0100
0010
0001
,
0100
0100
0000
0010
,
0010
0010
0000
0000
,
1000
1000
1000
1000
,
1000
1000
1000
1000
,
0000
0000
0001
0010
0000
0000
0000
0000
;

//---------------dance-single - ----------------
#NOTES:
     dance-single:
     :
     Beginner:
     2:
     0.090,0.213,0.026,0.000,0.000: // measure 1
0000
0000
0000
0000
,  // measure 2
0000
0000
0000
0000
,  // measure 3
0000
0000
0000
0000
,  // measure 4
0000
0000
0000
0000
,  // measure 5
0000
0000
0000
0000
,  // measure 6
0000
0000
0000
0000
,  // measure 7
0000
0000
0000
0000
,  // measure 8
1000
0000
0000
0000
,  // measure 9
0000
0000
0000
0000
,  // measure 10
0001
0000
0000
0000
,  // measure 11
0000
0000
0000
0000
,  // measure 12
0010
0000
0000
0000
,  // measure 13
0000
0000
0000
0000
,  // measure 14
0100
0000
0000
0000
,  // measure 15
0000
0000
0000
0000
,  // measure 16
1000
0000
1000
0000
,  // measure 17
1000
0000
0000
0000
,  // measure 18
0001
0000
0001
0000
,  // measure 19
0001
0000
0000
0000
,  // measure 20
0010
0000
0010
0000
,  // measure 21
0010
0000
0000
0000
,  // measure 22
0100
0000
0000
0000
,  // measure 23
0000
0000
0000
0000
,  // measure 24
0001
0000
0000
0000
,  // measure 25
0000
0000
0000
0000
,  // measure 26
1000
0000
0000
0000
,  // measure 27
0000
0000
0000
0000
,  // measure 28
0010
0000
0000
0000
,  // measure 29
0000
0000
0000
0000
,  // measure 30
0100
0000
0000
0000
,  // measure 31
0000
0000
0000
0000
,  // measure 32
1000
1000
0000
0000
,  // measure 33
0001
0000
0000
0000
,  // measure 34
0100
0000
0000
0000
,  // measure 35
0010
0000
0000
0000
,  // measure 36
0000
0000
0000
0000
,  // measure 37
0000
0000
0000
0000
,  // measure 38
1000
1000
0000
0001
,  // measure 39
0001
0000
0000
0000
,  // measure 40
0000
0000
0000
0000
,  // measure 41
0110
0000
0010
0000
,  // measure 42
0010
0000
0000
0000
,  // measure 43
0000
0100
0100
0000
,  // measure 44
0000
0000
0000
0000
,  // measure 45
1000
0000
0000
0000
,  // measure 46
0000
0000
0001
0000
,  // measure 47
0001
0000
0000
0000
,  // measure 48
0000
0000
0000
0000
,  // measure 49
1001
0000
0001
0000
,  // measure 50
1000
0000
0001
0000
,  // measure 51
0000
0100
0100
0000
,  // measure 52
0000
0000
0000
0000
,  // measure 53
0010
0000
1000
0000
,  // measure 54
0000
0000
0000
0000
,  // measure 55
0001
0000
0000
0000
,  // measure 56
1000
0000
0000
0000
,  // measure 57
0001
0000
0000
0000
,  // measure 58
0000
0000
0000
0000
,  // measure 59
1000
0000
0000
0000
,  // measure 60
0000
0000
0000
0000
,  // measure 61
0010
0000
0000
0000
,  // measure 62
0000
0000
0000
0000
,  // measure 63
0100
0000
0000
0000
,  // measure 64
0100
0000
0000
0000
,  // measure 65
0100
0000
0000
0000
,  // measure 66
0100
0000
0000
0000
,  // measure 67
0100
0000
0000
0000
,  // measure 68
0100
0000
0000
0000
,  // measure 69
1000
0000
0000
0000
,  // measure 70
0000
0000
0000
0000
,  // measure 71
0001
0000
0000
0000
,  // measure 72
0000
0000
0000
0000
,  // measure 73
0010
0000
0000
0000
,  // measure 74
0100
0000
0000
0000
,  // measure 75
1000
0000
0000
0000
,  // measure 76
0001
0000
0000
0000
,  // measure 77
1000
1000
0000
0001
,  // measure 78
0001
0001
0000
0000
,  // measure 79
0010
0000
0000
0000
,  // measure 80
0100
0000
0000
0000
,  // measure 81
0000
1001
0000
0000
;
