#TITLE:Hitch Hiker;
#SUBTITLE:;
#ARTIST:good-cool;
#TITLETRANSLIT:;
#SUBTITLETRANSLIT:;
#ARTISTTRANSLIT:;
#CREDIT:;
#BANNER:bn.PNG;
#BACKGROUND:bg.PNG;
#LYRICSPATH:;
#CDTITLE:;
#MUSIC:hitchhiker.mp3;
#OFFSET:-5.678;
#SAMPLESTART:72.230;
#SAMPLELENGTH:12.000;
#SELECTABLE:YES;
#BPMS:0.000=137.000;
#STOPS:;
#BGCHANGES:;

//---------------dance-single - ----------------
#NOTES:
     dance-single:
     :
     Hard:
     7:
     0.403,0.454,0.276,0.123,0.117:
1000
0100
1000
0000
0010
0000
0100
0000
,
1100
0010
0011
0011
,
0001
0100
0001
0000
0010
0000
1000
0000
,
1100
0010
0011
0011
,
0001
0100
0001
0000
1000
0000
0110
0000
,
1010
0000
0001
0000
0100
1000
0100
0000
,
0010
0000
0000
0010
0000
0100
0000
0000
,
1100
0000
0000
1010
0000
0101
0000
0000
,
1001
0000
0000
0011
0000
1100
0000
0000
,
0110
0000
1010
0000
0001
0100
0010
1000
,
0001
0101
0010
1100
,
0010
0000
1000
0000
1000
0100
0010
0000
,
0001
1001
0110
0010
,
1010
0000
0101
0000
1000
0100
0010
0001
,
0020
0000
0000
0030
,
0000
1000
0001
0100
0010
1000
0010
0100
,
0002
0000
0000
0000
0000
0000
0000
0003
,
0100
0000
0100
0000
0100
0000
0100
0000
0010
0000
0000
0100
0000
0000
0010
0000
,
2000
0000
0000
0002
0000
0000
3003
0000
,
0000
0010
1000
0010
1000
0001
1000
0100
,
0002
0010
0100
0010
,
1003
0100
0010
2000
0002
0000
3003
0000
,
1000
0000
0000
0100
0000
0000
0010
0000
0000
0000
0100
0000
0000
1000
0000
0000
,
0100
0000
0000
0010
0000
0000
1000
0000
0000
0000
0001
0000
0010
0000
0100
0000
,
1000
0000
0000
0100
0000
0000
1000
0000
0000
0000
0100
0000
0000
0001
0000
0000
,
1000
0000
0000
0010
0000
0000
0001
0000
0000
0000
1000
0000
0100
0000
0010
0000
,
1000
0100
0001
1000
0010
0100
1000
0100
,
0010
0001
0100
1000
0100
0010
1000
0100
,
0001
0100
0010
1000
0100
1000
0100
0001
,
0010
0001
0100
1000
0001
0010
0100
1000
,
0001
0200
0320
2030
,
3001
1000
0001
0100
,
0010
0000
0110
0000
0001
1000
1000
0000
,
0000
0000
0110
0000
0000
0001
0001
0000
,
1000
0001
0000
0001
1000
0000
1000
0001
0000
0010
1000
0000
0001
0000
0000
0000
,
0001
0010
0000
1000
0100
0000
1000
0001
0000
0010
1000
0000
0001
0000
0000
0000
,
1000
1000
0001
0100
,
1000
0100
0001
0010
0100
0010
1000
0010
,
0000
0000
1000
0000
0000
0000
0100
0000
0001
0000
0000
0010
0000
0000
0010
0000
,
0000
0000
0011
0000
0000
0000
1000
0000
0001
0000
0000
0001
0000
0000
0010
0000
,
0000
0000
1000
0000
0000
0000
0100
0000
1000
0000
0000
0010
0000
0000
0001
0000
,
0100
0000
0000
0000
1001
0000
0000
0000
0001
0000
0000
1000
0000
0000
0010
0000
,
0000
0000
0100
0000
0000
0000
0010
0000
0100
0000
0000
0001
0000
0000
1000
0000
,
0000
0000
0010
0000
0000
0000
0100
0000
0001
0000
0000
0001
0000
0000
0100
0000
,
0000
0000
1000
0000
0000
0000
0010
0000
1000
0000
0000
1000
0000
0000
0001
0000
,
0100
0000
0000
0000
0101
0000
0000
0000
1000
0000
0000
1000
0000
0000
0002
0000
,
0020
0000
0000
0033
;

//---------------dance-single - ----------------
#NOTES:
     dance-single:
     :
     Medium:
     5:
     0.333,0.334,0.347,0.266,0.000:
1000
0001
0100
0010
,
1001
0010
1010
1010
,
1000
0100
0010
0001
,
0101
0100
0101
1100
,
0010
0010
1000
0001
,
1001
0010
1010
1000
,
0001
0100
0001
0000
0010
0000
1010
0000
,
1010
0000
1000
0000
0100
0001
0010
0000
,
1010
0000
1000
0000
0001
0100
0010
0000
,
1100
0010
0100
1000
,
1001
0010
0100
1010
,
1010
0000
0100
0000
1000
0100
0010
0000
,
0011
0100
1001
0010
,
1001
0000
0010
0000
0100
0010
1000
0000
,
2002
0000
0000
0000
,
3003
0010
1000
0001
0000
0000
1000
0000
,
2002
0000
0000
3003
,
0010
1000
0001
1000
0002
0000
0000
0000
,
0103
0000
0000
2002
0000
0000
0000
3003
,
0000
0010
1000
0001
0000
0000
0100
0000
,
1000
0001
0000
0022
0000
0000
0000
0033
,
1000
0001
1000
0000
0220
0000
0330
0000
,
2000
0000
0000
3000
,
0020
0000
0000
0000
0000
0000
0030
0100
,
0200
0000
0000
0000
0000
0000
0000
0310
,
2000
0100
0100
3010
,
0010
0000
1000
0000
0100
0000
0001
0100
,
0010
1000
0100
0001
,
1000
0000
0100
0000
0010
0000
0001
0100
,
1000
0100
0010
1000
,
0000
1000
0200
0320
,
0031
0001
1000
0100
,
0001
0000
1000
0000
0000
0100
0010
0000
,
0000
0000
0001
0000
0000
0010
1000
0000
,
1001
0000
0000
1100
0000
0000
1100
0000
,
0110
0000
0000
1010
0000
0000
0101
0000
,
1100
0010
0011
0100
,
1000
0000
0100
0000
0001
0010
0100
1000
,
0000
0100
0000
1000
0200
0000
0000
0300
,
0000
0010
0000
1000
0200
0000
0000
0300
,
0000
0010
0000
0001
0200
0000
0000
0300
,
1000
1100
0020
0030
,
0000
0001
0000
1000
0200
0000
0000
0300
,
0000
0010
0000
0001
0020
0000
0000
0030
,
0000
0100
0000
1000
0200
0000
0300
0000
,
0010
1010
0001
0100
,
2002
0000
0000
3003
;

//---------------dance-single - ----------------
#NOTES:
     dance-single:
     :
     Easy:
     2:
     0.120,0.207,0.071,0.000,0.000:
1000
0000
0000
0000
,
0001
0000
0000
0100
,
0010
0000
0000
0000
,
1000
0000
0001
0100
,
0010
0000
0000
0000
,
1000
0000
0000
0100
,
1000
0000
0000
0000
,
0011
0000
0000
0000
,
0100
0000
0000
0000
,
1000
0000
0000
0000
,
0010
0000
0000
0000
,
0001
0000
0000
0000
,
1100
0000
0011
0000
,
1000
0001
0100
0010
,
1000
0000
0000
0000
,
0000
0001
0100
0010
,
1000
0000
0000
0000
,
0001
1000
1000
0000
,
0010
0000
1000
0000
,
0000
1000
0000
0001
,
0100
0000
0001
0000
,
1001
0000
0000
0000
,
0010
0000
0000
0000
,
1000
0000
0000
0000
,
0001
0000
0000
0000
,
0100
0000
0000
0000
,
0010
0000
0000
0000
,
1000
0000
0000
0000
,
0001
0000
0000
0000
,
0100
0010
1000
0001
,
1000
0000
0000
0000
,
0000
0001
1000
0001
,
0000
0100
0000
0000
,
0000
0010
0001
1000
,
1001
0000
0000
0000
,
0010
0000
0000
0000
,
0100
0000
0010
0000
,
1000
0001
1000
0001
,
1000
0000
0000
0000
,
0100
0000
0000
0000
,
0010
0000
0000
0000
,
0001
1100
0010
0011
,
0001
0000
0000
0000
,
0100
0000
0000
0000
,
0010
0000
0000
0000
,
1000
0000
0000
0000
;

//---------------dance-single - ----------------
#NOTES:
     dance-single:
     :
     Beginner:
     1:
     0.053,0.117,0.010,0.000,0.000: // measure 1
0100
0000
0000
0000
,  // measure 2
0000
0000
0000
0000
,  // measure 3
0001
0000
0000
0000
,  // measure 4
0000
0000
0000
0000
,  // measure 5
1000
0000
0000
0000
,  // measure 6
0000
0000
0000
0000
,  // measure 7
0010
0000
0000
0000
,  // measure 8
0010
0000
0000
0000
,  // measure 9
0010
0000
0000
0000
,  // measure 10
0010
0000
0000
0000
,  // measure 11
0100
0000
0000
0000
,  // measure 12
0100
0000
0000
0000
,  // measure 13
1000
0000
0000
0000
,  // measure 14
1000
0000
0000
0000
,  // measure 15
0001
0000
0000
0000
,  // measure 16
0000
0000
0000
0000
,  // measure 17
1000
0000
0000
0000
,  // measure 18
0000
0000
0000
0000
,  // measure 19
0100
0000
0000
0000
,  // measure 20
0000
0000
0000
0000
,  // measure 21
0010
0000
0000
0000
,  // measure 22
0000
0000
0000
0000
,  // measure 23
1000
0000
0000
0000
,  // measure 24
0000
0000
0000
0000
,  // measure 25
0001
0000
0000
0000
,  // measure 26
0001
0000
0000
0000
,  // measure 27
0000
0000
0000
0000
,  // measure 28
0100
0000
0000
0000
,  // measure 29
0000
0000
0000
0000
,  // measure 30
0010
0000
0010
0000
,  // measure 31
0100
0000
0000
0000
,  // measure 32
0000
0000
0000
0000
,  // measure 33
1000
0000
0000
0000
,  // measure 34
0000
0000
0000
0000
,  // measure 35
0001
0000
0000
0000
,  // measure 36
0001
0000
0000
0000
,  // measure 37
0001
0000
0001
0000
,  // measure 38
0001
0000
0000
0000
,  // measure 39
1000
0000
0000
0000
,  // measure 40
0000
0000
0000
0000
,  // measure 41
0100
0000
0000
0000
,  // measure 42
0000
0000
0000
0000
,  // measure 43
0010
0000
0000
0000
,  // measure 44
0000
0000
0000
0000
,  // measure 45
0001
0000
0000
0000
,  // measure 46
1001
0000
0010
0000
,  // measure 47
0100
0000
0000
0000
;
