#TITLE:High School Love;
#SUBTITLE:;
#ARTIST:Dj Yoshitaka Feat. DWP;
#TITLETRANSLIT:;
#SUBTITLETRANSLIT:;
#ARTISTTRANSLIT:;
#CREDIT:;
#BANNER:bn.PNG;
#BACKGROUND:bg.PNG;
#LYRICSPATH:;
#CDTITLE:Pop'n Music.png;
#MUSIC:High School Love.mp3;
#OFFSET:-0.080;
#SAMPLESTART:45.680;
#SAMPLELENGTH:12.000;
#SELECTABLE:YES;
#BPMS:0.000=179.980;
#STOPS:133.000=0.993
,164.500=0.320
,249.000=0.980
,280.500=0.360
;
#BGCHANGES:;

//---------------dance-single - ----------------
#NOTES:
     dance-single:
     :
     Hard:
     8:
     0.529,0.615,0.505,0.089,0.031:
0000
0000
0000
0000
,
0000
0000
0000
0000
,
0000
0000
0000
0000
,
0000
0000
0000
0000
,
0000
0000
0000
0000
,
0000
0000
0000
0000
,
0000
0000
0000
0000
,
0000
0000
0000
0000
,
0110
0000
0000
1010
0000
0101
0000
1100
,
0000
0010
0100
1000
,
0011
0000
0000
0110
0000
1010
0000
0101
,
0000
0000
1000
0001
0100
0000
0001
1000
,
0010
0000
0000
1001
0000
1001
0000
1001
,
0000
0010
1000
0100
,
0110
0010
1010
0001
,
0101
0000
1000
0000
0001
1000
0001
0000
,
0001
0000
0110
0000
0001
1000
0010
0100
,
0001
0000
0010
0000
1000
0001
0100
0001
,
0100
0110
0001
0101
,
1000
0000
1100
0000
0010
0000
0001
1000
,
0020
0000
0130
0000
1000
0000
0100
1000
,
0100
0010
0001
0100
,
0110
0001
1010
0001
,
0110
0000
0001
0000
1000
0100
0010
0001
,
0000
0000
0000
0001
0100
0010
0000
0110
,
0000
0000
0000
0000
0001
1000
0001
0100
,
0000
0000
0000
1000
0100
0010
0001
0010
,
0000
0000
0000
0000
0001
1000
0020
0200
,
0000
0000
0000
0000
,
0000
0000
0000
0330
,
0001
0100
0001
0100
0010
1000
0010
1000
,
0100
1000
0100
1000
0010
0001
0010
0001
,
0010
0100
1000
0100
0010
0001
0010
1000
,
0001
0001
0001
0000
1001
0000
0010
1000
,
0001
0100
0000
0010
0000
1000
0100
0000
,
0010
0000
0001
0100
0000
0002
0000
0000
,
0003
0000
1000
0001
1000
0000
0000
0000
0000
0000
1000
0000
0100
0000
0010
0000
,
0001
0010
0100
0000
0001
0100
0000
0010
,
0000
0100
0000
0000
0110
0000
0010
0000
,
0110
0000
1000
0000
1000
0100
0000
0010
,
0000
0001
0000
0000
0000
0001
0100
0010
,
1000
0001
1001
0000
0001
0100
0001
0100
,
0000
0010
0000
0001
1000
0000
0010
0000
,
0100
0000
1000
0000
0000
0000
0200
0000
0000
0000
0000
0000
0300
0000
1000
0100
,
1000
0000
0000
0001
0010
0100
1000
0001
,
0100
0000
0010
0110
0000
1001
0000
1100
,
0000
0000
0001
0100
0001
0000
0010
0000
,
1100
0000
0010
0110
0000
0011
0000
0101
,
0000
0000
0001
0100
0001
1000
0010
0000
,
1001
0000
0010
0110
0000
0110
0000
1100
,
0000
0010
0001
0010
,
1001
0100
0110
1000
,
1100
0010
0011
0100
,
0101
0000
0010
0100
0001
1000
0010
0100
,
0000
1000
0100
0010
0001
0010
0100
0001
,
0000
0001
1000
0001
1000
0001
0100
0001
,
0000
0010
0100
0001
1000
0010
0100
0001
,
0000
0000
1000
0100
0010
0001
0010
0100
,
0001
1000
0010
1000
0001
0100
0010
1000
,
0001
0000
0001
0100
0000
0010
1000
0001
,
1000
0000
1000
0000
0100
0000
0001
0000
1000
0000
0010
0000
,
0001
0010
0100
1000
0001
0100
0001
1000
,
0100
0100
0100
0000
2200
0000
0000
0000
,
0000
0000
0000
0000
,
3300
0000
0001
0200
0000
0002
0000
0000
,
0000
0303
0000
0001
,
1000
1001
0000
0000
,
0000
0110
0000
0000
,
0000
1100
0000
0011
,
0000
0000
0110
0000
0000
0000
0001
0100
,
0001
1000
1001
0000
0010
0100
0001
1000
,
0000
0010
0000
0100
1000
0000
0100
0000
,
0010
0000
0100
0000
0000
0000
0002
0000
0000
0000
0000
0000
0000
0000
1003
0001
,
1000
0000
0000
0001
1000
0001
0100
0010
,
1000
0000
1000
1100
0000
0011
0000
0110
,
0000
0000
0001
0100
0001
0000
0010
0000
,
0110
0000
1000
1100
0000
0011
0000
0110
,
0000
0000
0001
0100
0100
1000
0100
0000
,
0010
0000
0001
0100
0000
0010
0000
0110
,
0000
1000
0100
1000
,
1000
0100
0001
0010
0100
1000
0001
0100
,
0010
1000
0100
0010
0001
0010
1000
0000
;

//---------------dance-single - ----------------
#NOTES:
     dance-single:
     :
     Medium:
     6:
     0.376,0.507,0.248,0.097,0.000:
0000
0000
0000
0000
,
0000
0000
0000
0000
,
0000
0000
0000
0000
,
0000
0000
0000
0000
,
0000
0000
0000
0000
,
0000
0000
0000
0000
,
0000
0000
0000
0000
,
0000
0000
0000
0000
,
1100
0000
0000
0010
0000
0001
0000
0010
,
0000
0000
0001
0100
0000
0010
0000
0100
,
0000
0000
0000
0010
0000
1000
0000
0001
,
0000
1000
0100
0010
,
0011
0000
0000
0001
0000
0100
0000
0010
,
0000
1000
0001
0100
,
0110
0010
0110
0100
,
1001
0000
0100
0000
0001
0100
0001
0000
,
1001
0000
0110
0000
0001
0100
0001
0000
,
1000
0000
0001
0000
0100
0000
0010
1000
,
0001
0001
1000
1000
,
0100
0100
0010
0001
,
0002
0000
0000
0000
0000
1003
0001
1000
,
0000
0000
1000
0100
,
0020
0000
0000
0000
0000
0031
0010
0001
,
0000
0000
0000
0000
0001
0000
0001
0100
,
0000
0000
0000
0010
0100
0010
0000
0110
,
0000
0000
0000
0000
0001
0000
1000
0001
,
0000
0000
0000
1000
0100
1000
0000
1100
,
0000
0000
0000
0000
0010
0100
0010
0200
,
0000
0000
0000
0000
,
0000
0000
0000
0300
,
0001
1000
0001
0000
0100
0000
0010
0000
,
1000
0100
0010
0001
,
0100
1000
0010
0100
,
0001
0100
0001
0000
1100
0000
0010
1000
,
0010
0100
0000
0010
0000
0001
1000
0000
,
0010
0000
0100
0000
0000
0010
0000
0000
,
0000
0001
0001
0000
0000
0000
1000
0000
,
0001
0000
0100
0000
0010
0100
0000
0010
,
0000
0100
0000
0000
1000
0000
1000
0000
,
1000
0000
0001
0000
0100
0010
0000
0100
,
0000
0010
0000
0000
0000
0000
1000
0100
,
0010
0001
1100
0000
0010
0100
0010
0100
,
0000
0010
0000
0010
0100
0000
0010
0000
,
0001
1000
0000
0002
0000
0000
0000
0000
,
1003
0000
1000
1000
,
1100
0000
0000
0010
0000
0100
0000
0001
,
0000
0100
1000
0100
,
0010
0000
0001
1000
0000
0001
0000
0100
,
0000
0010
0010
0010
,
1000
0000
0001
0100
0000
0010
0000
0100
,
0000
0010
1000
0001
,
0200
0000
0000
0010
0020
0000
0000
0000
,
0000
0000
0330
0010
,
0110
0000
1000
0000
0100
0000
1000
0100
,
0000
0000
0010
0000
0100
0000
0001
0100
,
0000
0010
1000
0001
,
0000
0000
0010
0000
0100
0000
0010
0100
,
0000
1000
0100
0010
,
0001
0100
1000
0010
,
0100
0000
0001
0100
0000
0010
1000
0010
,
0000
1000
0100
0010
,
0001
1000
0010
0100
,
0001
1000
0001
0000
1000
0000
0000
0000
,
0000
0000
0000
0000
,
0000
0000
0010
0001
0000
0200
0000
0000
,
0000
0301
0000
0001
,
0100
0110
0000
0000
,
0000
1010
0000
0000
,
0000
0101
0000
1100
,
0000
0000
0011
0000
0000
1000
0100
0010
,
0001
1000
1001
0000
0010
0000
0100
0010
,
0000
0100
0000
0010
0100
0000
0010
0000
,
2000
0000
0000
0200
0000
0000
0000
0000
,
3300
0000
0010
0001
,
0100
0000
0000
0110
0000
0110
0000
0110
,
0000
0001
1000
0100
,
1000
0000
0000
1100
0000
1100
0000
1100
,
0000
0010
1000
0001
,
0100
0000
0000
0110
0000
1001
0000
1100
,
0000
1000
0100
0010
,
0002
0000
0000
1000
2000
0000
0000
0000
,
0000
0000
0000
3003
;

//---------------dance-single - ----------------
#NOTES:
     dance-single:
     :
     Easy:
     4:
     0.273,0.398,0.044,0.097,0.000:
0000
0000
0000
0000
,
0000
0000
0000
0000
,
0000
0000
0000
0000
,
0000
0000
0000
0000
,
0000
0000
0000
0000
,
0000
0000
0000
0000
,
0000
0000
0000
0000
,
0000
0000
0000
0000
,
2000
0000
0000
3000
,
0000
0001
0100
0001
,
0200
0000
0000
0000
,
0300
0001
0001
1000
,
1000
0000
0000
0000
,
0000
1000
0100
0010
,
0001
0000
1000
0000
,
0001
0100
0010
1000
,
1001
0000
0001
0000
,
1000
0000
1000
0100
,
1000
0000
0010
0000
,
0001
0000
0010
0100
,
0010
0000
0010
0000
,
0010
0000
0010
0000
,
0100
0000
1000
0000
,
0001
0000
1000
0100
,
0010
0000
0001
0100
,
0010
0000
0001
1000
,
0010
0000
1000
0100
,
1000
0000
0010
2000
,
0002
0000
0000
0000
,
0000
0000
0000
3003
,
0001
0001
1000
1000
,
0010
0010
0100
0100
,
1000
0100
0010
0001
,
0100
0001
0100
0000
0110
0000
0010
0000
,
0100
0010
1000
0001
,
0100
0002
0000
0000
,
0000
1003
0000
1000
,
0001
0100
0010
1000
,
0001
0100
0000
1000
,
0000
0001
0100
0010
,
1000
0010
0000
1000
,
0100
1100
0010
0100
,
0001
1000
0010
1000
,
0002
0000
0000
0000
,
0013
0000
0001
0001
,
1000
0000
0000
0100
0000
0010
0000
0010
,
0000
0001
0100
0001
,
0100
0000
0000
0010
0000
0010
0000
0010
,
0000
1000
0001
1000
,
0001
0000
0000
0100
0000
0100
0000
0100
,
0000
0010
1000
0001
,
0200
0000
0020
0000
,
0000
0000
0000
0330
,
0001
1000
0100
1000
,
0000
1000
0100
0010
,
0000
0001
0100
0010
,
0000
1000
0001
0100
,
0000
0010
0010
0010
,
0100
0100
0100
0100
,
0001
0000
1000
0000
,
0001
0000
1000
0000
,
1000
0100
0010
0001
,
1000
0001
0100
0000
0010
0000
0000
0000
,
0000
0000
0000
0000
,
0000
0000
0000
0000
,
0000
0000
0000
0000
,
0000
0001
0000
0000
,
0000
1000
0000
0000
,
0000
0001
0000
1000
,
0000
0000
0001
0000
1000
0000
0001
0100
,
0001
0100
0110
0000
0010
0000
0100
0000
,
1000
0001
0100
1000
,
0020
0000
0000
0130
0000
0000
0000
0000
,
1001
0000
0001
0001
,
1000
0000
0000
0100
0000
0100
0000
0100
,
0000
0010
0001
0010
,
0100
0000
0000
0001
0000
0001
0000
0001
,
0000
1000
0001
0100
,
0010
0000
0000
1000
0000
1000
0000
1000
,
0000
1000
0100
0010
,
0002
0000
0200
0000
,
0000
0000
0000
0303
;

//---------------dance-single - ----------------
#NOTES:
     dance-single:
     :
     Beginner:
     1:
     0.070,0.178,0.018,0.000,0.000: // measure 1
0000
0000
0000
0000
,  // measure 2
0000
0000
0000
0000
,  // measure 3
0000
0000
0000
0000
,  // measure 4
0000
0000
0000
0000
,  // measure 5
0000
0000
0000
0000
,  // measure 6
0000
0000
0000
0000
,  // measure 7
0000
0000
0000
0000
,  // measure 8
0000
0000
0000
0000
,  // measure 9
1000
0000
0000
0000
,  // measure 10
0000
0000
0000
0000
,  // measure 11
0001
0000
0000
0000
,  // measure 12
0000
0000
0000
0000
,  // measure 13
0010
0000
0000
0000
,  // measure 14
0000
0000
0000
0000
,  // measure 15
0100
0000
0000
0000
,  // measure 16
0000
0000
0000
0000
,  // measure 17
1000
0000
0000
0000
,  // measure 18
0000
0000
0000
0000
,  // measure 19
0001
0000
0000
0000
,  // measure 20
0000
0000
0000
0010
,  // measure 21
0010
0000
0000
0000
,  // measure 22
0000
0000
0000
0000
,  // measure 23
0100
0000
0000
0000
,  // measure 24
0000
0000
0000
0000
,  // measure 25
0100
0000
0000
0000
,  // measure 26
0000
0000
0000
0000
,  // measure 27
1000
0000
0000
0000
,  // measure 28
0000
0000
0000
0000
,  // measure 29
0000
0000
0000
0000
,  // measure 30
0000
0000
0000
0000
,  // measure 31
0001
0000
0000
0000
,  // measure 32
1000
0000
1000
0000
,  // measure 33
1000
0000
0000
0000
,  // measure 34
1001
0000
0100
0000
,  // measure 35
0000
0000
0000
0000
,  // measure 36
0000
0010
0000
0000
,  // measure 37
0000
0000
0000
0000
,  // measure 38
0000
1000
0000
0000
,  // measure 39
0000
0000
0000
0000
,  // measure 40
0000
0001
0000
0000
,  // measure 41
0000
0000
0000
0100
,  // measure 42
0100
0100
0000
0000
,  // measure 43
0000
0000
0000
0000
,  // measure 44
0010
0000
0000
0000
,  // measure 45
0000
0000
0000
0000
,  // measure 46
1000
0000
0000
0000
,  // measure 47
0000
0000
0000
0000
,  // measure 48
0001
0000
0000
0000
,  // measure 49
0000
0000
0000
0000
,  // measure 50
0100
0000
0000
0000
,  // measure 51
0000
0000
0000
0000
,  // measure 52
0010
0000
0010
0000
,  // measure 53
0000
0000
0000
0000
,  // measure 54
1000
0000
0000
0000
,  // measure 55
0000
0001
0000
0000
,  // measure 56
0000
0100
0000
0000
,  // measure 57
0000
0010
0000
0000
,  // measure 58
0000
1000
0000
0000
,  // measure 59
0000
0000
0000
0000
,  // measure 60
0001
0000
0000
0000
,  // measure 61
0000
0000
0000
0000
,  // measure 62
0100
0000
0000
0000
,  // measure 63
0010
0010
1000
0000
,  // measure 64
0000
0000
0000
0000
,  // measure 65
0000
0000
0000
0000
,  // measure 66
0000
0000
0000
0000
,  // measure 67
0000
0001
0000
0000
,  // measure 68
0000
0001
0000
0000
,  // measure 69
0000
0001
0000
0001
,  // measure 70
0000
0001
0000
1000
,  // measure 71
1000
1001
0000
0000
,  // measure 72
0000
0000
0000
0000
,  // measure 73
0100
0000
0000
0000
,  // measure 74
0000
0000
0000
0000
,  // measure 75
0010
0000
0000
0000
,  // measure 76
0000
0000
0000
0000
,  // measure 77
1000
0000
0000
0000
,  // measure 78
0000
0000
0000
0000
,  // measure 79
0001
0000
0000
0000
,  // measure 80
0000
0000
0000
0000
,  // measure 81
0100
0000
0100
0000
;
