#TITLE:Hi School Dream;
#SUBTITLE:;
#ARTIST:Pink Pong;
#TITLETRANSLIT:;
#SUBTITLETRANSLIT:;
#ARTISTTRANSLIT:;
#CREDIT:;
#BANNER:bn.PNG;
#BACKGROUND:bg.png;
#LYRICSPATH:;
#CDTITLE:Beatmania IIDX.png;
#MUSIC:21.Hi School Dream.mp3;
#OFFSET:-0.390;
#SAMPLESTART:89.769;
#SAMPLELENGTH:12.000;
#SELECTABLE:YES;
#BPMS:0.000=145.000;
#STOPS:44.000=1.255
;
#BGCHANGES:;

//---------------dance-single - ----------------
#NOTES:
     dance-single:
     :
     Hard:
     9:
     0.534,0.505,0.089,0.024,0.361:
0000
0000
0000
0000
,
0000
0000
0000
0000
,
0000
0000
0000
0000
,
0000
0000
0000
0000
,
1000
0100
1000
0100
1000
0100
1000
0100
,
1000
0100
1000
0100
1000
0100
1000
0100
,
0010
0001
0010
0001
0010
0001
0010
0001
,
0010
0001
0010
0001
0010
0001
0010
0001
,
0100
0001
0100
0001
0100
0001
0100
0001
,
0100
0001
0100
0001
0100
0001
0100
0001
,
0100
0010
0100
0010
0100
0010
0100
0010
,
0000
0000
1000
0100
0010
0001
0010
0100
,
1000
0100
1000
0100
0010
0100
0010
0100
,
0010
0100
0010
0001
0010
0001
0010
0001
,
0010
0100
0001
0100
0001
0100
0010
1000
,
0010
1000
0010
0100
0010
0100
0010
0100
,
0010
0100
0001
0100
0001
0100
0001
0100
,
0001
0000
1000
0001
1000
0000
0001
0000
1000
0000
0001
0000
0100
0000
0001
0000
,
0100
0010
0000
1000
0000
0001
0000
0100
,
0000
0010
1010
0000
0010
0000
0100
1000
,
0000
1000
0100
0000
0010
0001
0010
0001
,
0000
0100
0001
0000
0001
1000
0010
1000
,
0000
0100
1000
0000
1000
0100
0010
0000
,
0001
1000
0010
0000
0100
0010
0200
0000
,
0000
0000
0000
0000
0010
0010
0010
0000
,
0310
1001
0010
0100
,
1000
0100
0001
0100
1000
0100
0010
0001
,
0010
1000
0000
0001
0000
1000
0000
0100
,
0000
0010
0000
0011
0000
1100
0000
0101
,
1100
0000
0000
0000
1000
0000
0100
0010
0000
0001
0000
0010
0000
0000
0001
0000
,
1000
0000
0001
0000
0100
0000
0010
0100
0000
0010
0000
0100
0000
0000
0000
0000
,
0000
0000
0000
0000
1000
0000
1000
0100
0000
0010
0000
0001
0000
0000
0001
0000
,
1000
0000
0010
0000
0100
0000
0010
0100
0000
0010
0000
0100
0000
0000
0000
0000
,
0000
0000
0000
0000
0001
0000
1000
0001
0000
1000
0000
0010
0000
0000
0100
0000
,
1000
0000
0100
0000
0010
0000
0001
0010
0000
0100
0000
0001
0000
0000
0000
0000
,
0000
0000
0000
0000
1000
0000
1000
0100
0000
0010
0000
0001
0010
0000
0100
1000
,
0000
0100
0010
0000
0001
0000
0000
1000
0000
0000
0100
0000
0010
0100
0010
0100
,
0010
0000
0000
0000
0000
0000
1000
0000
0000
0000
0001
0000
0100
0000
0000
0001
,
0000
0000
0100
0000
0000
0000
0010
0100
0010
0000
0100
0000
0010
0000
0000
0100
,
0000
0000
1000
0000
0000
0000
0100
0000
0000
0000
1000
0000
0100
0000
0000
0010
,
0000
0000
0001
0000
0000
0000
0001
0100
0001
0000
0100
0000
0001
0000
0000
0000
,
1000
0000
0001
0000
0000
0000
0100
0000
0000
0000
1000
0000
0100
0000
0000
0100
,
0000
0000
0100
0000
0000
0000
0010
0000
0000
0000
0100
0000
1000
0000
0000
0001
,
0000
0000
0100
0000
0000
0000
0010
0000
0000
0000
0100
0000
1000
0000
0000
0100
,
0000
0000
0010
0000
0011
0000
1100
0000
0000
0000
0010
0100
0010
0000
0000
0000
,
1001
0000
1000
0100
1000
0100
1000
0100
,
0000
0010
0001
0010
0001
0010
0001
0010
,
0000
0001
1000
0001
1000
0001
0100
0001
,
0000
0010
1000
0010
1000
0001
1000
0010
,
0000
1000
0100
0010
0001
0010
0100
1000
,
0000
0000
0001
1000
0001
0100
0010
0100
,
0000
0000
1000
0100
1000
0000
0010
0001
,
0010
0000
0000
0000
0100
0000
0100
0000
0100
0000
0000
0100
0000
0000
0110
0000
,
0000
0000
0000
0000
0100
0000
0010
0100
0000
0010
0000
0100
0000
0000
1000
0000
,
0001
0000
0100
0000
0010
0000
0010
0100
0000
0010
0000
1000
0000
0000
0000
0000
,
0000
0000
0000
0000
0001
0000
1000
0001
0000
1000
0000
0001
0000
0000
0100
0000
,
1000
0000
0100
0000
0010
0000
0001
0010
0000
0001
0000
0010
0000
0000
0010
0000
,
0100
0000
0010
0000
1000
0000
0100
1000
0000
0100
0000
0010
0000
0000
0001
0000
,
0100
0000
0001
0000
1000
0000
0001
1000
0000
0001
0000
0100
0000
0000
0000
0000
,
0000
0000
0000
0000
1000
0000
0100
0010
0000
0100
0000
0010
0000
0000
0001
0000
,
1000
0000
0100
0000
0010
0000
0001
0010
0000
0100
0000
0100
2000
0000
0000
0000
,
3020
0000
0000
0000
0130
0000
1000
0100
0000
0010
0000
0001
0000
0000
0001
0000
,
1000
0000
0001
0000
0100
0000
0010
0100
0000
0010
0000
0100
0000
0000
1000
0000
,
0100
0000
0010
0000
0001
0000
0010
0100
0000
0001
0000
1000
0000
0000
1000
0000
,
0100
0000
0010
0000
0001
0000
0001
0100
0000
0001
0000
0100
0000
0000
0010
0000
,
0100
0000
0001
0000
1000
0000
0010
1000
0000
0010
0000
0100
0000
0000
1000
0000
,
0100
0000
0010
0000
0001
0000
0001
0010
0000
0100
0000
1000
0000
0000
0100
0000
,
1000
0000
0100
0000
0001
0000
0010
0100
0000
0010
0000
0100
1000
0000
1000
0001
,
0000
0000
0000
0010
0000
0000
0000
0000
0000
0010
0000
0000
0100
0000
0000
0000
0010
0000
0000
0000
1000
0000
0000
0000
0001
0000
0000
0000
0010
0000
0000
0000
0100
0000
0000
0000
1000
0000
0000
0000
0000
0000
0000
0000
0000
0000
0000
0000
,
0010
0100
1001
0000
0000
0000
0000
0000
;

//---------------dance-single - ----------------
#NOTES:
     dance-single:
     :
     Medium:
     5:
     0.348,0.421,0.081,0.170,0.004:
0000
0000
0000
0000
,
0000
0000
0000
0000
,
0000
0000
0000
0000
,
0000
0000
0000
0000
,
1000
0000
0001
0000
1000
0001
0000
0001
,
1000
0000
0100
0000
0010
0001
0000
0001
,
0010
0000
0100
0000
1000
0100
0000
1000
,
0100
0000
0010
0000
0001
0100
0000
0010
,
2000
0000
0000
0000
,
0000
0000
0000
0000
,
0000
0000
0000
0000
,
3000
0101
0001
0100
,
1000
0100
1000
0000
0010
0000
0001
0000
,
0100
0001
1000
0000
0001
0000
0100
0000
,
0010
1000
0010
0000
0001
0100
0001
0000
,
1000
0100
1000
0000
0100
0000
0010
0000
,
0001
1000
0001
0000
0100
0000
0010
0000
,
0001
1000
1001
0000
1000
0000
0100
0000
,
0010
0000
0002
1000
0000
1000
0000
1000
,
0000
1003
1000
0000
0001
0000
1000
0001
,
0000
0000
1000
0000
0100
0000
0010
0001
,
0000
0000
0001
0000
0100
0000
0010
1000
,
0000
1000
0100
0010
,
0001
0100
0010
2000
,
0000
0000
0001
0001
,
3001
0101
1000
0100
,
0010
0000
0001
0100
0001
0000
1000
0001
,
1000
0000
0000
1000
0000
1000
0000
0001
,
0000
0001
0000
0100
0000
0010
0000
0001
,
0001
1000
0100
0010
,
0001
0010
0001
0000
0010
0000
0100
0000
,
0000
1000
0001
0100
,
0010
1000
0010
0000
1000
0000
0100
0000
,
0000
1000
0001
0100
,
0010
1000
0010
0000
1000
0000
0100
0000
,
0000
0000
1000
0100
1000
0000
0010
0001
,
0010
2002
0000
0000
,
3003
0000
1000
0001
,
0100
0000
0000
0000
0010
1000
0020
0000
,
1030
0000
1000
0010
,
0001
0000
0000
0000
1000
0001
2000
0000
,
3100
0010
0001
0200
,
0000
0301
1000
0200
,
0000
1300
0010
0001
,
1000
0000
1001
0000
0000
1100
0000
0000
,
0011
0002
0000
0000
,
0000
0000
0000
1003
,
0000
1000
2000
0000
0000
0000
0000
0000
,
0000
0000
0000
0000
,
0000
0000
3100
0000
0000
0000
0010
0010
,
0000
0000
0001
0000
0000
0000
1000
1000
,
0000
1001
0100
0110
,
1000
0000
0000
0000
0100
0000
0100
0000
0100
0000
0000
0100
0000
0000
0100
0000
,
0000
0000
1000
0001
1000
0001
1000
0000
,
0100
0000
0010
0001
0010
0001
0010
0000
,
0000
0000
0001
0100
0001
0100
0001
0000
,
0010
0000
1000
0010
1000
0010
1000
0000
,
0000
0000
0001
1000
0001
1000
0001
0000
,
0100
0000
0010
1000
0010
1000
0010
0000
,
0000
0000
1000
0100
1000
0100
1000
0000
,
0001
0100
0010
2000
,
3200
0000
1300
0100
1000
0100
2000
0000
,
3100
0000
0010
0001
0010
0001
0020
0000
,
0031
0000
0100
0001
0100
0001
0200
0000
,
0301
0000
0010
1000
0010
1000
0020
0000
,
1030
0000
1000
0001
1000
0001
2000
0000
,
3001
0000
0001
0100
0001
0100
0002
0000
,
0103
0000
1000
0100
2000
0000
3001
0100
,
0002
1003
0001
1001
,
0100
0100
0100
0000
0000
0000
0000
0000
;

//---------------dance-single - ----------------
#NOTES:
     dance-single:
     :
     Easy:
     3:
     0.183,0.253,0.057,0.203,0.000:
0000
0000
0000
0000
,
0000
0000
0000
0000
,
0000
0000
0000
0000
,
0000
0000
0000
0000
,
2000
0000
0000
0000
,
0000
0000
0000
0000
,
3002
0000
0000
0000
,
0000
0000
0000
0000
,
0203
0000
0000
0000
,
0000
0000
0000
0000
,
0320
0000
0000
0000
,
0030
1000
0000
0000
,
0000
0001
0000
0000
,
0000
0010
0000
0000
,
0000
0100
0000
1000
,
0000
0100
0000
0000
,
0000
0001
0000
0000
,
0000
1000
0100
0000
0000
0000
0000
0000
,
0000
0000
0000
0000
,
0000
1001
0000
0000
,
0000
0100
0000
0000
,
0000
1000
0000
0000
,
0000
0001
0000
1000
,
0000
0100
0000
0020
,
0000
0000
0001
0001
,
0031
1001
0000
0000
,
0000
0100
0100
0010
,
1000
1001
0000
0000
,
0000
0000
0000
0000
,
0000
1000
0001
1000
,
0001
1000
0001
1000
,
0000
0001
0100
0001
,
0100
0001
0100
0001
,
0000
0010
1000
0010
,
1000
0010
1000
0010
,
0000
1100
0000
0011
,
0000
0202
0000
0000
,
0303
0000
1000
0001
,
0100
0000
0010
0100
,
1000
0000
0001
1000
,
0100
0000
0010
0001
,
0100
0000
1000
0002
,
0000
0003
0000
1000
0000
0000
0002
0000
,
0000
0003
0000
0100
0000
0000
0020
0000
,
0000
0000
1030
0000
0000
0001
0000
0000
,
1000
0002
0000
0000
,
0000
0000
0000
0000
,
0000
0203
0000
0000
,
0000
0000
0000
0000
,
0000
0302
0000
0000
,
0000
2003
0000
0000
,
0000
3020
0000
0230
,
0000
0000
0002
0000
0000
0000
0000
0303
,
0000
1000
0001
0100
,
0010
1000
0100
0000
,
0000
1000
0100
0010
,
0001
0010
0001
0000
,
0000
0100
0010
1000
,
0001
1000
0100
0000
,
0000
0010
0001
0010
,
0100
1000
0001
2000
,
3002
0000
1003
0000
0000
1000
0000
0000
,
0000
0000
0000
0001
,
0100
0000
0002
0000
0000
2000
0000
0000
,
0000
0000
3003
1000
,
0100
0000
2000
0000
0000
0020
0000
0000
,
0000
0000
3030
0001
,
0100
0002
0000
2003
,
0000
0010
0010
3010
,
1000
1001
0000
0000
;

//---------------dance-single - ----------------
#NOTES:
     dance-single:
     :
     Beginner:
     1:
     0.057,0.140,0.008,0.000,0.000: // measure 1
0000
0000
0000
0000
,  // measure 2
0000
0000
0000
0000
,  // measure 3
0000
0000
0000
0000
,  // measure 4
0000
0000
0000
0000
,  // measure 5
0000
0000
0000
0000
,  // measure 6
0000
0000
0000
0000
,  // measure 7
0000
0000
0000
0000
,  // measure 8
0000
0000
0000
0000
,  // measure 9
0000
0000
0000
0000
,  // measure 10
0000
0000
0000
0000
,  // measure 11
0000
0000
0000
0000
,  // measure 12
0000
1000
0000
0000
,  // measure 13
0000
1000
0000
0000
,  // measure 14
0000
1000
0000
0000
,  // measure 15
0000
0001
0000
0001
,  // measure 16
0000
0001
0000
0000
,  // measure 17
0000
0100
0000
0000
,  // measure 18
0000
0100
0000
0000
,  // measure 19
0000
0000
0000
0000
,  // measure 20
0000
0010
0000
0000
,  // measure 21
0000
0010
0000
0000
,  // measure 22
0000
1000
0000
0000
,  // measure 23
0000
0001
0000
0001
,  // measure 24
0000
0001
0000
0000
,  // measure 25
0000
1000
0000
0000
,  // measure 26
0000
0100
0000
0000
,  // measure 27
0000
0010
0000
0000
,  // measure 28
0000
0000
0000
0000
,  // measure 29
0000
0000
0000
0000
,  // measure 30
0000
0001
0000
0000
,  // measure 31
0000
0000
0000
0000
,  // measure 32
0000
1000
0000
0000
,  // measure 33
0000
0000
0000
0000
,  // measure 34
0000
0010
0000
0000
,  // measure 35
0000
0000
0000
0000
,  // measure 36
0000
0100
0000
0100
,  // measure 37
0000
0000
0000
0000
,  // measure 38
0100
0000
0000
0000
,  // measure 39
0000
0000
0010
0000
,  // measure 40
0000
0000
0000
0000
,  // measure 41
0000
0000
1000
0000
,  // measure 42
0000
0000
0000
0000
,  // measure 43
0000
0000
0000
0000
,  // measure 44
0000
0001
0000
0000
,  // measure 45
0000
1000
0000
0000
,  // measure 46
0000
0100
0000
0000
,  // measure 47
0000
0000
0000
0000
,  // measure 48
0000
0001
0000
0000
,  // measure 49
0000
0000
0000
0000
,  // measure 50
0000
0010
0000
0000
,  // measure 51
0000
0010
0000
0000
,  // measure 52
0000
1000
0000
1000
,  // measure 53
0000
0000
0000
0000
,  // measure 54
0000
1000
0000
0000
,  // measure 55
0000
0000
0000
0000
,  // measure 56
0000
0001
0000
0000
,  // measure 57
0000
0000
0000
0000
,  // measure 58
0000
0010
0000
0000
,  // measure 59
0000
0000
0000
0000
,  // measure 60
0000
0100
0000
0000
,  // measure 61
0000
0000
0000
1000
,  // measure 62
1000
1000
0000
0000
,  // measure 63
0000
0000
0000
0000
,  // measure 64
0000
0001
0000
0000
,  // measure 65
0000
0000
0000
0000
,  // measure 66
0000
0010
0000
0000
,  // measure 67
0000
0000
0000
0000
,  // measure 68
0000
0100
0000
0100
,  // measure 69
0000
1000
1000
1000
,  // measure 70
0000
1001
0000
0000
;
