#TITLE:Here We Go;
#SUBTITLE:;
#ARTIST:Nintendo;
#TITLETRANSLIT:;
#SUBTITLETRANSLIT:;
#ARTISTTRANSLIT:;
#CREDIT:;
#BANNER:bn.PNG;
#BACKGROUND:bg.PNG;
#LYRICSPATH:;
#CDTITLE:Konami Original.png;
#MUSIC:01_here_we_go.mp3;
#OFFSET:-0.080;
#SAMPLESTART:2.480;
#SAMPLELENGTH:12.000;
#SELECTABLE:YES;
#BPMS:0.000=100.120,46.000=50.060,47.000=100.120;
#STOPS:59.500=1.797
,120.000=0.140
,120.250=0.160
,120.500=0.140
,120.750=0.160
,121.000=0.619
;
#BGCHANGES:;

//---------------dance-single - ----------------
#NOTES:
     dance-single:
     :
     Hard:
     8:
     0.505,0.507,0.172,0.000,0.935:
0000
0000
0000
1001
,
0010
0000
0000
0010
0000
0000
0010
0000
0000
0100
0000
1000
0000
1000
0100
0000
,
1000
0000
0000
0000
0100
0000
0000
0000
0010
0000
0000
0000
0001
0000
0000
0000
0000
0000
0010
0000
0000
0100
0000
0000
0000
0000
0000
0010
0000
0000
0000
0000
0000
0010
0000
0000
1000
0000
0000
0001
0000
0000
0000
0000
0000
0000
0000
0000
,
1010
0000
0000
0101
0000
0000
1100
0000
0000
0010
0000
0100
0000
0010
1000
0000
,
0010
0000
0000
0000
0100
0000
0000
0000
0001
0000
0000
0000
1000
0000
0000
0000
0000
0000
0100
0000
0000
1000
0000
0000
0000
0000
0000
0100
0000
0000
0000
0000
0000
0010
0000
0000
0100
0000
0000
0010
0000
0000
0000
0000
0000
0000
0000
0000
,
0001
0000
0000
0100
0000
0000
0001
0000
0000
1000
0000
0010
0000
0100
0010
0000
,
0001
0000
0000
0000
0010
0000
0000
0000
0100
0000
0000
0000
1000
0000
0000
0000
0000
0000
0010
0000
0000
1000
0000
0000
0000
0000
0000
0001
0000
0000
0000
0000
0000
0001
0000
0000
0100
0000
0000
0010
0000
0000
0000
0000
0000
0000
0000
0000
,
0010
0000
0000
1000
0000
0000
0001
0000
0000
0010
0000
1000
0000
0010
0100
0000
,
0001
0000
0000
0000
1000
0000
0000
0000
0010
0000
0000
0000
0100
0000
0000
0000
0000
0000
1000
0000
0000
0010
0000
0000
0000
0000
0000
0001
0000
0000
0000
0000
0000
0100
0000
0000
1000
0000
0000
0000
0000
0000
0100
0000
0000
0000
0000
0000
,
0001
1000
0000
0010
0000
0010
0100
0000
0001
1000
0000
0010
0000
0010
0100
0000
,
0001
1000
0000
0010
0000
0010
0100
0000
0001
1000
0000
0010
0000
0010
0100
0000
,
0110
0000
0000
0000
0000
0000
0000
0000
0000
0000
0000
0000
0000
0000
0000
0000
1001
0000
0000
0000
0000
0000
0000
0000
0000
0000
0000
0000
0000
0000
0000
0000
1100
0000
0000
1100
0000
0000
0000
0000
0011
0000
0000
0011
0000
0000
0000
0000
1000
0000
0000
0000
0000
0000
0000
0000
1000
0000
0000
0000
0100
0000
0000
0000
,
0010
0001
0000
0110
0000
0100
0010
1000
0000
0010
0100
0001
0000
0000
1000
0001
,
0100
0010
0000
0010
0000
1000
0000
1000
0100
0000
0000
0000
0000
0000
0010
0100
,
0010
0100
0000
0010
0000
0010
1000
0001
0000
0100
0010
0001
0000
0100
1000
0000
,
0010
0000
0000
0100
0000
0000
1000
0000
0000
0001
0000
1000
0000
1000
0100
0000
,
0010
0000
0000
0000
0100
0000
0000
0000
1000
0000
0000
0000
0001
0000
0000
0000
0000
0000
0010
0000
0000
0100
0000
0000
0000
0000
0000
0001
0000
0000
0000
0000
0000
1000
0000
0000
0100
0000
0000
0010
0000
0000
0000
0000
0000
0000
0000
0000
,
0001
0000
0000
0100
0000
0000
1000
0000
0000
0010
0000
0100
0000
0001
1000
0000
,
0010
0000
0000
0000
1000
0000
0000
0000
0001
0000
0000
0000
0100
0000
0000
0000
0000
0000
0010
0000
0000
0100
0000
0000
0000
0000
0000
0001
0000
0000
0000
0000
0000
0010
0000
0000
1000
0000
0000
0000
0000
0000
0001
0000
0000
0000
0000
0000
,
0010
1000
0000
0001
0000
0010
0100
0000
0001
0000
0000
0000
1000
0000
0000
0000
,
1000
0000
0000
0000
0100
0000
0000
0000
0010
0000
0000
0000
0001
0000
0000
0000
0010
0000
0000
0000
1000
0000
0000
0000
0010
0000
0000
0100
0000
0000
0000
0000
0000
0010
0000
0000
0100
0000
0000
0000
0000
0000
0000
0000
0000
0000
0000
0000
,
0010
1000
0000
0001
0000
0010
0100
0000
0001
0000
0000
0000
1001
0000
0000
0000
,
0010
1000
0001
0100
0010
1000
0010
0100
0010
0001
0000
0000
,
1000
0100
0000
0010
0000
0000
0001
0000
0010
0100
0000
0001
1000
0000
0000
0000
,
0010
0000
0000
0000
1000
0000
0000
0000
0001
0000
0000
0000
0010
0000
0000
0000
1000
0000
0000
0000
0010
0000
0000
0000
1000
0000
0000
0100
0000
0000
0000
0000
0000
0010
0000
0000
0001
0000
0000
0000
0000
0000
0000
0000
0000
0000
0000
0000
,
0010
0100
0000
0001
0000
0000
0010
0000
0010
1000
0000
0001
0100
0000
0000
0000
,
1100
0000
0000
0000
0010
0000
0000
0000
0011
0000
0000
0000
0100
0000
0000
0000
1100
0000
0000
0000
0001
0000
0000
0000
1000
0000
0000
0100
0000
0000
0000
0000
0000
0010
0000
0000
0100
0000
0000
0000
0000
0000
0000
0000
0000
0000
0000
0000
,
0001
1000
0000
0010
0000
0010
0100
0000
0001
1000
0000
0010
0100
0000
0000
0000
,
0010
1000
0000
0100
0000
1000
0100
0001
0000
0000
0000
0000
0000
0000
0000
0000
,
0100
1000
0000
0100
0000
0010
1000
0000
0001
0100
0000
0010
1000
0000
0000
0000
,
1000
0001
1000
0100
0010
0000
0000
0000
0010
0000
0000
1000
0000
0000
0100
0000
,
0000
0000
0000
0001
0000
0000
0000
0000
0000
1000
0000
0000
0000
0000
0000
0010
0000
0000
0100
0000
0000
0000
0000
0000
0010
0000
0000
0000
1000
0000
0000
0000
0001
0000
0000
0000
0100
0000
0000
0000
0000
0000
0010
0000
0000
1000
0000
0000
,
0000
0001
0000
0010
0100
0001
0000
0000
0010
0000
0000
1000
0000
0000
0100
0000
,
0000
0000
0000
0001
0000
0000
0000
0000
0000
1000
0000
0000
0000
0000
0000
0010
0000
0000
0100
0000
0000
0000
0000
0000
0010
0000
0000
0000
0100
0000
0000
0000
0001
0000
0000
0000
1000
0000
0000
0000
0000
0000
0100
0000
0000
0010
0000
0000
,
0000
1000
0000
0001
0100
0000
0010
0000
0010
1000
0000
0001
0000
0010
0100
0000
,
0010
0100
0000
0001
0000
0010
0100
0000
0001
1000
0000
1000
0000
1000
0100
0000
,
1000
0001
1001
0000
0000
0000
0000
0000
;

//---------------dance-single - ----------------
#NOTES:
     dance-single:
     :
     Medium:
     5:
     0.313,0.390,0.075,0.011,0.107:
0000
0000
0000
1000
,
0001
1000
0100
0010
,
0001
0100
0001
0100
0001
0100
0001
0000
,
1000
0001
0010
0100
,
1000
0000
0100
0000
1000
0100
0010
0001
,
0000
1000
0000
0001
,
0100
0000
0010
0000
1000
0001
0100
0000
,
0001
0000
1000
0000
0010
1000
0010
0000
,
1000
0000
0100
0000
0010
0001
0010
0100
,
1000
0000
0000
0001
0000
0000
1000
0000
0001
0000
0000
1000
0000
0000
0001
0000
,
1000
0000
0000
0001
0000
0000
1000
0000
0001
0000
0000
1000
0000
0000
0001
0000
,
1000
0000
0100
0000
0110
0010
0010
0100
,
0010
0000
1000
0100
1000
0000
0010
0001
,
0010
0000
0100
0001
0100
0000
0010
0100
,
0001
0000
0010
0100
1000
0000
0001
1000
,
0100
0000
0000
0100
0000
0000
0100
0000
0000
0000
1000
0000
0100
0000
0010
0000
,
0001
0100
1000
0010
,
0001
0000
0000
1000
0000
0000
0001
0000
0000
0000
0000
0000
0001
0000
0000
0000
,
0010
0000
0100
0000
1000
0001
1000
0000
,
1000
0100
0010
0001
0100
0000
0101
0000
,
0001
1000
0001
1000
0010
1000
0010
0000
,
1000
0100
0010
0001
0010
0000
0011
0000
,
0001
0010
0100
1000
0100
0000
1000
0000
,
1000
0000
0100
0000
0001
0100
0001
0000
,
0010
0000
0001
0000
0100
1000
0100
0000
,
1000
0000
0001
0000
0100
0010
0100
0000
,
1100
0011
0120
0130
,
1000
0000
0100
0000
0010
0001
0010
0000
,
0100
0000
0000
0000
1000
0000
0000
0000
0001
0000
0000
0000
0001
1000
0001
0000
,
1000
0100
0010
0001
,
1000
0001
1000
0001
1000
0000
0000
0000
0010
0000
0000
0010
0000
0000
0010
0000
,
0000
0100
0010
0000
1000
0000
0100
0000
,
0010
0000
0000
0000
0001
0000
0000
0000
1000
0000
0000
0100
0000
0000
1000
0000
,
0000
0100
0010
0001
,
1000
0000
0100
0000
0010
0000
0001
0000
1000
0001
0000
0001
0000
0001
1000
0000
,
1000
0001
0000
0001
0000
0001
1000
0000
1000
0001
0000
0001
0000
0001
1000
0000
,
0001
0010
1100
0000
0000
0000
0000
0000
;

//---------------dance-single - ----------------
#NOTES:
     dance-single:
     :
     Easy:
     2:
     0.109,0.175,0.054,0.075,0.000: // measure 1
0000
0000
0000
0000
,  // measure 2
1000
0000
0000
0000
,  // measure 3
0001
0000
0000
0000
,  // measure 4
0100
0000
0000
0000
,  // measure 5
0010
0000
0000
0000
,  // measure 6
1000
0000
1000
0000
,  // measure 7
1000
0000
0000
0000
,  // measure 8
0001
0000
0000
0000
,  // measure 9
0100
0000
0010
0000
,  // measure 10
2000
3000
0002
0003
,  // measure 11
2000
3000
0002
0003
,  // measure 12
0000
0000
0110
0100
,  // measure 13
0000
0010
0000
0100
,  // measure 14
0000
0010
0000
0000
,  // measure 15
0000
0001
0000
0000
,  // measure 16
1000
0000
0000
0000
,  // measure 17
0001
0000
0000
0000
,  // measure 18
0100
0000
0000
0000
,  // measure 19
0010
0000
0000
0000
,  // measure 20
1000
1000
1000
0000
,  // measure 21
0001
0000
0100
0000
,  // measure 22
0010
0010
0010
0000
,  // measure 23
1000
0000
0000
0000
,  // measure 24
0100
0000
0010
0000
,  // measure 25
0001
1000
0001
0000
,  // measure 26
0100
0000
0010
0000
,  // measure 27
1001
1001
1001
0000
,  // measure 28
0100
0000
0100
0000
,  // measure 29
0100
0000
0000
0000
,  // measure 30
0001
0000
1000
0000
,  // measure 31
0000
0000
0100
0000
,  // measure 32
0000
0000
0010
0000
,  // measure 33
1000
0000
0001
0000
,  // measure 34
0100
0000
0001
0000
,  // measure 35
0000
0000
2000
0000
,  // measure 36
3002
0000
2003
0000
,  // measure 37
3001
0101
0000
0000
;

//---------------dance-single - ----------------
#NOTES:
     dance-single:
     :
     Beginner:
     1:
     0.055,0.078,0.011,0.000,0.000: // measure 1
0000
0000
0000
0000
,  // measure 2
1000
0000
0000
0000
,  // measure 3
0000
0000
0000
0000
,  // measure 4
0001
0000
0000
0000
,  // measure 5
0000
0000
0000
0000
,  // measure 6
0010
0000
0000
0000
,  // measure 7
0000
0000
0000
0000
,  // measure 8
0100
0000
0000
0000
,  // measure 9
0000
0000
0000
0000
,  // measure 10
1000
0000
1000
0000
,  // measure 11
1000
0000
1000
0000
,  // measure 12
1000
0000
0000
0000
,  // measure 13
0001
0000
1000
0000
,  // measure 14
0001
0000
0000
0000
,  // measure 15
0100
0000
0010
0000
,  // measure 16
1000
0000
0000
0000
,  // measure 17
0001
0000
0000
0000
,  // measure 18
0100
0000
0000
0000
,  // measure 19
0010
0000
0000
0000
,  // measure 20
1001
0000
0000
0000
,  // measure 21
0000
0000
0000
0000
,  // measure 22
0010
0000
0000
0000
,  // measure 23
0000
0000
0000
0000
,  // measure 24
0100
0000
0000
0000
,  // measure 25
0000
0000
0000
0000
,  // measure 26
0001
0000
0000
0000
,  // measure 27
1000
1000
1000
0000
,  // measure 28
0100
0000
0000
0000
,  // measure 29
0000
0000
0000
0000
,  // measure 30
0001
0000
0000
0000
,  // measure 31
0000
0000
1000
0000
,  // measure 32
0000
0000
0001
0000
,  // measure 33
0000
0000
1000
0000
,  // measure 34
0000
0000
0100
0000
,  // measure 35
0000
0000
0010
0000
,  // measure 36
0010
0000
0010
0000
,  // measure 37
0000
0001
0000
0000
;
