#TITLE:Henry Henry;
#SUBTITLE:;
#ARTIST:Bunmei;
#TITLETRANSLIT:;
#SUBTITLETRANSLIT:;
#ARTISTTRANSLIT:;
#CREDIT:;
#BANNER:bn.PNG;
#BACKGROUND:bg.PNG;
#LYRICSPATH:;
#CDTITLE:Keyboardmania.png;
#MUSIC:20-henry_henry.mp3;
#OFFSET:-0.320;
#SAMPLESTART:21.620;
#SAMPLELENGTH:12.000;
#SELECTABLE:YES;
#BPMS:0.000=89.940,32.000=203.620,136.000=101.810,148.000=203.620,236.000=101.810,239.500=49.990,240.750=50.000;
#STOPS:100.000=1.179
,104.000=1.179
,108.000=1.179
,223.000=1.179
,227.000=1.179
;
#BGCHANGES:;

//---------------dance-single - ----------------
#NOTES:
     dance-single:
     :
     Hard:
     8:
     0.441,0.623,0.316,0.188,0.099:
0000
0000
0000
0000
,
0000
0000
0000
0000
,
0000
0000
0000
0000
,
0000
0000
0000
0000
,
0000
0000
0000
0000
,
0000
0000
0000
0000
,
0000
0000
0000
0000
,
0000
0000
0000
0000
,
1000
0100
1000
0000
0020
0000
1030
0000
,
0001
0100
0001
0000
0200
0000
0301
0000
,
1000
0100
0010
0001
0010
0100
1000
0001
,
1000
0001
1000
0000
1010
0000
0110
0000
,
0010
0100
0020
0000
0100
0000
0130
0000
,
1000
0100
0020
0000
0001
0000
0031
0000
,
0001
0100
0001
0100
0010
1000
0010
1000
,
0010
1000
0010
0000
1001
0000
0110
0000
,
1000
0100
0020
0000
0001
0000
0031
0000
,
0001
0100
0020
0000
0100
0000
0130
0000
,
1000
0100
0010
0001
0010
0100
0001
1000
,
0001
1000
0001
0000
1010
0000
0110
0000
,
1000
0100
0020
0000
0001
0000
0031
0000
,
0001
0100
0002
0000
0100
0000
0103
0000
,
0001
1000
0001
1000
0010
1000
0010
0100
,
0010
0100
0010
0000
1000
0000
0100
0000
,
0000
0000
0011
0000
0000
1100
0000
0000
,
1001
0000
0110
0000
0000
0011
0000
0000
,
0101
0000
1010
0000
0000
0110
0000
0000
,
1001
0000
1100
0000
0000
0011
0000
0000
,
1000
0100
0001
0010
,
1000
0100
0010
0001
,
0100
0001
1000
0010
,
1000
0001
0100
1000
,
0100
0010
0001
0010
,
1000
0100
0010
0001
,
2000
0000
0000
0000
,
0000
3001
1000
0100
0020
0000
0000
0000
,
0000
0000
0030
0000
0100
1000
0001
0010
,
1000
0000
0100
0000
0010
0000
0001
0100
,
0002
0100
0100
0103
,
0001
0000
0010
0000
0100
0000
1000
0100
,
2000
0100
0100
3100
,
1000
0100
1000
0000
0010
0001
0010
0000
,
0100
0001
0100
0000
0010
1000
0010
0000
,
1000
0100
1000
0100
0000
0000
0001
0010
0001
0010
0000
0000
,
0001
0100
0001
0100
0000
0000
0010
1000
0010
1000
0000
0000
,
1000
0100
0010
0001
0010
0001
0010
0100
1000
0100
1000
0100
,
0010
0000
0001
0000
0100
0000
0010
0000
1000
0000
0001
0000
1000
0000
0000
0000
0000
0000
1000
0000
0000
0100
0000
0000
,
2000
0000
0100
0000
3010
0000
0001
0100
,
0002
0000
0100
0000
0013
0000
0001
1000
,
0001
1000
0010
1000
0010
0100
0010
0100
,
0010
0000
0110
0000
0110
0000
0010
0100
,
0020
0000
0100
0000
1030
0000
0010
1000
,
0020
0000
1000
0000
1030
0000
1000
0100
,
0010
0001
0010
0100
1000
0100
0010
0001
,
0010
1001
1001
0000
,
1100
0000
0000
0011
0000
0000
0101
0000
,
0110
0000
0000
0011
0000
0000
1100
0000
,
1100
0000
0000
0011
0000
0000
0110
0000
,
0000
1010
0000
0000
0101
0000
0000
0002
,
0000
0000
0000
2000
0003
0000
0002
0000
,
3003
0000
0000
0000
;

//---------------dance-single - ----------------
#NOTES:
     dance-single:
     :
     Medium:
     6:
     0.350,0.476,0.435,0.188,0.020:
0000
0000
0000
0000
,
0000
0000
0000
0000
,
0000
0000
0000
0000
,
0000
0000
0000
0000
,
0000
0000
0000
0000
,
0000
0000
0000
0000
,
0000
0000
0000
0000
,
0000
0000
0000
0000
,
0010
1000
0020
0000
1000
0000
1030
0000
,
0001
0100
0002
0000
0100
0000
0103
0000
,
0001
0000
1000
0000
0000
0100
0000
0000
,
0010
0000
0011
1100
,
0010
0100
0020
0000
0100
0000
0130
0000
,
1000
0100
2000
0000
0100
0000
3100
0000
,
1000
0100
1000
0000
0000
1100
0000
0000
,
0011
0000
0101
1010
,
0001
1000
0002
0000
1000
0000
1003
0000
,
0001
1000
0002
0000
1000
0000
1003
0000
,
1000
0100
1000
0000
0000
0011
0000
0000
,
0110
0000
1001
1001
,
0001
1000
0002
0000
1000
0000
1003
0000
,
0010
1000
0020
0000
1000
0000
1030
0000
,
1000
0100
1000
0000
0000
0011
0000
0000
,
0110
0000
1001
0011
,
0000
0000
1100
0000
0000
1100
0000
0000
,
1100
0000
0101
0000
0000
0101
0000
0000
,
0101
0000
0011
0000
0000
0011
0000
0000
,
0011
0000
1010
0000
0000
1010
0000
0000
,
1000
0001
1000
0001
,
1000
0001
0100
0001
,
0100
0010
1000
0010
,
1000
0001
1000
0100
,
0010
0001
0010
0100
,
1000
0100
0010
0001
,
2000
0000
0000
0000
,
0000
0000
0002
0000
,
0000
0000
0000
3003
,
1000
0100
0010
0001
,
0020
0000
0000
0030
,
0001
0100
0001
0100
,
0020
0000
0000
0000
,
0130
0000
0100
0000
,
1000
0000
0001
0000
,
1000
1000
0001
0001
,
0100
0100
0010
0010
,
1000
0100
0010
0001
,
0100
0000
0010
0000
1000
0000
0001
0000
0010
0000
0100
0000
1000
0000
0000
0000
0000
0000
1000
0000
0000
0100
0000
0000
,
2000
0000
0100
0000
3100
0000
0010
0100
,
0020
0000
0100
0000
0130
0000
0001
0100
,
0001
0000
0000
0011
0000
0000
1100
0000
,
0000
0000
0110
0000
0110
0000
0001
1000
,
0002
0000
1000
0000
1003
0000
0010
1000
,
0020
0000
1000
0000
1030
0000
1000
0100
,
1000
0000
0000
1100
0000
0000
0011
0000
,
0000
0110
1001
0000
,
0011
0000
0000
1100
0000
0000
0011
0000
,
0101
0000
0000
1010
0000
0000
0101
0000
,
0110
0000
0000
1100
0000
0000
0011
0000
,
0000
1100
0000
0000
0011
0000
0000
0002
,
0000
0000
0000
2003
0000
0000
0002
0000
,
0000
3003
0000
0000
0000
0000
0000
0000
;

//---------------dance-single - ----------------
#NOTES:
     dance-single:
     :
     Easy:
     4:
     0.219,0.297,0.188,0.158,0.000:
0000
0000
0000
0000
,
0000
0000
0000
0000
,
0000
0000
0000
0000
,
0000
0000
0000
0000
,
0000
0000
0000
0000
,
0000
0000
0000
0000
,
0000
0000
0000
0000
,
0000
0000
0000
0000
,
1000
0200
0000
0300
,
0010
0002
0000
0003
,
1000
0000
0001
0000
0000
1000
0000
0000
,
0100
0000
0110
0110
,
0010
0200
0000
0300
,
1000
0200
0000
0300
,
1000
0000
1100
0000
0000
1100
0000
0000
,
1100
0000
0010
0010
,
0001
0200
0000
0300
,
0001
0200
0000
0000
,
0301
0000
1000
0000
0000
0001
0000
0000
,
0100
0000
0010
0010
,
0100
0020
0000
0030
,
0100
0200
0000
0300
,
1000
0000
0001
0000
0000
1000
0000
0000
,
0100
0000
1100
1100
,
0000
0000
1000
0000
0000
0001
0000
0000
,
0100
0000
0100
0000
0000
0100
0000
0000
,
0100
0000
0010
0000
0000
0001
0000
0000
,
0100
0000
0010
0000
0000
1000
0000
0000
,
0100
0000
1000
1000
,
0000
0001
0001
0000
,
0100
0100
0000
0010
,
0010
0000
1000
1000
,
0000
0001
0001
0000
,
0100
0100
0000
0010
,
0020
0000
0000
0000
,
0000
0000
0200
0000
,
0000
0000
0000
0330
,
1000
0000
0001
0000
,
1001
0000
0000
0000
,
0010
0000
0100
0000
,
0110
0000
0000
0000
,
1000
0000
0100
0000
,
0011
0000
0000
0000
,
0001
0000
1000
0000
,
0001
0000
1000
0000
,
0001
0000
1000
0000
,
0110
0000
1100
1000
,
0200
0000
0300
0010
,
0002
0000
0003
0100
,
0001
0000
0000
1000
0000
0000
0100
0000
,
0000
1010
0101
1000
,
0200
0000
0300
0010
,
0002
0000
0003
0100
,
0001
0000
0000
0100
0000
0000
0010
0000
,
0000
1000
0001
0000
,
1000
0000
0000
0100
0000
0000
0010
0000
,
0001
0000
0000
0010
0000
0000
0100
0000
,
1001
0000
0000
1100
0000
0000
0011
0000
,
0000
0110
0000
0000
1010
0000
0000
0001
,
0000
0000
0000
2000
0000
0000
0200
0000
,
0000
3300
0000
0000
0000
0000
0000
0000
;

//---------------dance-single - ----------------
#NOTES:
     dance-single:
     :
     Beginner:
     1:
     0.065,0.117,0.049,0.000,0.000: // measure 1
0000
0000
0000
0000
,  // measure 2
0000
0000
0000
0000
,  // measure 3
0000
0000
0000
0000
,  // measure 4
0000
0000
0000
0000
,  // measure 5
0000
0000
0000
0000
,  // measure 6
0000
0000
0000
0000
,  // measure 7
0000
0000
0000
0000
,  // measure 8
0000
0000
0000
0000
,  // measure 9
0000
0100
0000
0000
,  // measure 10
0000
0100
0000
0000
,  // measure 11
0000
0100
0000
0000
,  // measure 12
0000
0000
0000
0000
,  // measure 13
0000
0010
0000
0000
,  // measure 14
0000
0010
0000
0000
,  // measure 15
0000
0010
0000
0000
,  // measure 16
0000
0000
0000
0000
,  // measure 17
0000
1000
0000
0000
,  // measure 18
0000
1000
0000
0000
,  // measure 19
0000
1000
0000
0000
,  // measure 20
0000
0000
0000
0000
,  // measure 21
0000
0001
0000
0000
,  // measure 22
0000
0001
0000
0000
,  // measure 23
0000
0001
0000
0000
,  // measure 24
0000
0000
0000
0000
,  // measure 25
0000
1000
0000
0000
,  // measure 26
0000
0001
0000
0000
,  // measure 27
0000
0100
0000
0000
,  // measure 28
0000
0010
0000
0000
,  // measure 29
0100
0000
0000
1000
,  // measure 30
0000
0000
1000
0000
,  // measure 31
0000
0001
0000
0000
,  // measure 32
0001
0000
0000
0100
,  // measure 33
0000
0000
0010
0000
,  // measure 34
0000
0100
0000
0000
,  // measure 35
1000
0000
0000
0000
,  // measure 36
0000
0000
1001
0000
,  // measure 37
0000
0000
0000
0000
,  // measure 38
0000
0000
0000
0000
,  // measure 39
0001
0000
0000
0000
,  // measure 40
0000
0000
0000
0000
,  // measure 41
0100
0000
0000
0000
,  // measure 42
0000
0000
0000
0000
,  // measure 43
1000
0000
0000
0000
,  // measure 44
0000
0000
0000
0000
,  // measure 45
0010
0000
0000
0000
,  // measure 46
0000
0000
0000
0000
,  // measure 47
0100
0000
0000
0000
,  // measure 48
1000
0000
0000
0000
,  // measure 49
0001
0000
0000
0000
,  // measure 50
1000
0000
0000
0000
,  // measure 51
0000
0000
0000
0000
,  // measure 52
0100
0000
0000
0000
,  // measure 53
0010
0000
0000
0000
,  // measure 54
0100
0000
0000
0000
,  // measure 55
0000
0000
0000
0000
,  // measure 56
1001
0000
0000
0000
,  // measure 57
0110
0000
0000
0000
,  // measure 58
0110
0000
0000
0000
,  // measure 59
0000
0000
0000
0000
,  // measure 60
1001
0000
0000
0000
;
