#TITLE:Healing-D-Vision;
#SUBTITLE:(From Nonstop Megamix);
#ARTIST:DE-STRAD;
#TITLETRANSLIT:;
#SUBTITLETRANSLIT:;
#ARTISTTRANSLIT:;
#CREDIT:;
#BANNER:Healing-D-Vision.png;
#BACKGROUND:Healing-D-Vision-bg.png;
#LYRICSPATH:;
#CDTITLE:;
#MUSIC:HDV (FNSMM).mp3;
#OFFSET:-0.040;
#SAMPLESTART:69.360;
#SAMPLELENGTH:12.000;
#SELECTABLE:YES;
#BPMS:0.000=180.000,208.000=360.001,376.000=180.000;
#STOPS:;
#BGCHANGES:;

//---------------dance-single - ----------------
#NOTES:
     dance-single:
     :
     Hard:
     10:
     0.801,1.000,1.000,0.041,0.930:
0000
0000
0000
0000
,
0000
0000
0000
0000
,
0000
0000
0000
0000
,
0000
0000
0000
0000
,
1001
0001
0010
0100
,
1100
1000
0100
0010
,
0101
0001
1000
0001
,
0001
0000
0001
0010
0000
0010
0100
0000
0100
1000
0000
1000
,
0001
1000
0100
0010
,
0011
0001
1000
0001
,
0101
0001
1000
0001
,
1000
0000
1000
0100
0000
0100
1000
0000
1000
0100
0000
1000
,
0100
0000
0001
0100
0000
0000
0100
0000
0010
0000
0100
0000
,
0010
0000
0000
1000
0000
0001
0100
0000
0000
0000
0000
1000
,
0001
0000
0000
1100
0000
0000
0001
0000
0010
0000
0100
0000
,
1100
0011
0101
1010
,
1001
0000
0000
1100
0000
0000
0001
0000
0010
0000
0100
0000
,
1100
0000
0000
1001
0000
0001
0100
0000
0000
0000
0000
0100
,
0010
0000
0000
0110
0000
0000
0001
0000
1000
0000
0001
0000
,
0100
0000
0000
0010
0000
0010
0100
0000
0000
0000
0000
0000
,
0001
1000
0010
0100
0010
0100
1000
0001
0010
0100
1000
0100
,
1000
1100
0010
0011
,
0001
1000
0010
0100
1000
0100
0010
0001
1000
0001
0100
0001
,
0010
0110
1000
1001
,
1000
0100
0010
0001
1000
0001
0100
0001
1000
0001
0010
1000
,
0100
1100
0010
1001
,
0001
0100
0001
0010
1000
0010
1000
0100
1000
0010
0001
0010
,
0001
1100
0001
1001
,
0101
0000
0000
1001
0000
0000
1000
0000
0001
0000
0000
1000
,
0001
0000
0000
0101
0000
0010
0100
0000
1000
0001
0000
0001
,
0100
0000
0000
1010
0000
0000
1000
0000
1000
0100
0000
0001
,
0100
0110
1001
1100
,
1001
0000
0001
0010
0000
0000
1100
0000
0000
0011
0000
0001
,
0010
0000
1000
0100
0000
0000
1001
0000
0000
0110
0000
0000
,
1100
0000
0001
0010
0000
0000
1100
0000
0000
1001
0000
0001
,
1000
0000
1000
0100
0000
0010
0001
0000
0001
0100
0000
0000
,
1000
0001
1000
0100
0000
0001
0010
0000
0100
0001
0000
0000
,
1000
0100
1000
0100
0000
0001
0100
0000
1000
0100
0000
0000
,
0001
1000
0001
1000
0000
0001
1000
0000
0010
0100
0000
0000
,
1000
0100
0010
0001
0000
0001
1000
0000
1000
0100
0000
0000
,
1100
0000
0110
0000
0011
0000
0101
0000
0000
1001
0000
0000
,
1001
0000
1100
0000
0011
0000
0110
0000
0000
1001
0000
0000
,
1001
0000
0110
0000
1010
0000
0101
0000
0000
2002
0000
0000
,
0000
3003
0000
0000
,
1100
0000
0110
0000
0011
0000
1001
0000
0110
0000
0000
0000
,
0011
0000
0110
0000
0101
0000
1001
0000
1010
0000
0000
0000
,
1100
0000
0110
0000
0011
0000
1001
0000
1001
0000
0000
0000
,
0011
0000
1100
0000
0011
0000
1100
0000
0011
0000
0000
0000
,
1100
0000
0110
0000
1010
0000
0101
0000
1010
0000
0000
0000
,
1001
0000
1100
0000
0011
0000
1010
0000
1001
0000
0000
0000
,
1010
0000
0101
0000
1010
0000
0101
0000
0000
0000
0000
0000
,
0000
0000
0000
0000
,
1001
0000
0000
0000
1001
0000
0000
0000
0110
0000
0000
0000
,
1001
0000
0110
0000
,
1100
0000
0000
0000
0110
0000
0000
0000
0011
0000
0000
0000
,
0101
0000
1010
0000
,
0101
0000
0000
0000
1001
0000
0000
0000
1010
0000
0000
0000
,
0110
0000
0000
0000
0000
0011
0000
0000
0000
0000
1000
0000
,
0100
0000
0000
0000
0010
0000
0000
0000
0001
0000
0000
0000
,
1000
0000
0000
0000
0010
0000
0000
0000
0100
0000
0000
0000
,
0001
0000
1000
0000
0001
0000
1000
0000
0000
0000
1000
0000
,
0100
0000
0000
0000
0010
0000
0001
0000
0000
0000
0001
0000
,
0100
0000
0001
0000
0010
0000
1000
0000
0100
0000
0010
0000
,
0001
0000
0000
0000
1000
0000
0001
0000
0000
0000
0001
0000
,
0100
0000
0001
0000
0100
0000
0001
0000
0000
0000
0010
0000
,
0100
0000
0000
0000
1000
0000
0001
0000
0000
0000
1000
0000
,
0100
0000
0010
0000
0001
0000
1000
0000
0001
0000
0100
0000
,
0010
0000
0100
0000
1000
0000
0100
0000
0010
0000
0001
0000
,
1000
0000
0100
0000
1000
0000
0100
0000
0000
0000
0010
0000
,
0001
0000
0000
0000
0001
0000
0100
0000
0000
0000
0001
0000
,
0100
0000
0001
0000
0010
0000
0100
0000
1000
0000
0100
0000
,
1000
0000
0100
0000
1000
0000
0001
0000
0100
0000
0001
0000
,
0100
0000
0000
0000
0010
0000
0100
0000
0000
0000
0001
0000
,
1000
0000
0000
0000
0001
0000
0010
0000
0000
0000
1000
0000
,
0100
0000
0010
0000
0001
0000
0100
0000
0001
0000
0010
0000
,
1000
0000
0100
0000
0010
0000
0001
0000
1000
0000
0001
0000
,
1000
0001
0010
0100
,
1000
0001
1000
0001
,
0100
0001
0010
1000
,
0010
1000
0100
0010
,
0001
1000
0001
0100
,
0010
0100
0010
1000
,
0001
0100
1000
0100
,
0010
0001
0100
0001
,
1100
0000
0000
0000
0011
0000
0000
0000
1001
0000
0000
0000
,
1100
0000
1001
0000
,
1100
0000
0000
0000
0011
0000
0000
0000
1001
0000
0000
0000
,
1010
0000
1001
0000
,
1100
0000
0000
0000
0110
0000
0000
0000
0011
0000
0000
0000
,
0110
0000
1001
0000
,
0000
0000
0000
0000
1000
0000
0000
0000
0000
0000
0000
0000
,
0001
0000
0000
0000
0000
0000
0000
0000
0000
0000
0000
0000
0000
0000
0000
0000
0010
0000
0000
0000
0000
0000
0000
0000
0000
0000
0000
0000
0000
0000
0000
0000
0000
2000
0000
0000
0000
0000
0000
0000
0000
0000
0000
0000
0000
0000
0000
0000
,
0002
0000
0000
0000
,
0000
0000
0000
0000
,
3003
0000
0000
0000
;

//---------------dance-single - ----------------
#NOTES:
     dance-single:
     :
     Medium:
     9:
     0.569,0.724,0.442,0.031,0.555: // measure 1
0000
0000
0000
0000
,  // measure 2
0000
0000
0000
0000
,  // measure 3
0000
0000
0000
0000
,  // measure 4
0000
0000
0000
0000
,  // measure 5
1000
0001
0100
0010
,  // measure 6
1000
0100
0010
0001
,  // measure 7
0010
0100
1000
0100
,  // measure 8
1100
1100
0101
0101
,  // measure 9
0110
0010
1000
0010
,  // measure 10
1001
0010
1000
0100
,  // measure 11
1100
1000
0100
0010
,  // measure 12
0001
0001
1000
1000
,  // measure 13
1001
0001
0100
0010
,  // measure 14
1010
0101
1100
0000
,  // measure 15
1100
0010
0100
0001
,  // measure 16
0101
0101
1100
1100
,  // measure 17
1100
0010
1000
0001
,  // measure 18
0101
0010
0110
0000
,  // measure 19
0110
0010
1000
0100
,  // measure 20
0010
0001
1001
0000
,  // measure 21
1000
0000
0001
0100
0000
1000
0100
0000
0001
0100
0000
0001
,  // measure 22
0100
0010
0100
1000
,  // measure 23
0001
0000
0001
0010
0000
0001
0010
0000
0001
0010
0000
0010
,  // measure 24
0001
0100
1000
0100
,  // measure 25
0010
0000
0010
0100
0000
0001
1000
0000
0010
0100
0000
0001
,  // measure 26
1000
1000
0001
0001
,  // measure 27
1000
0000
1000
0100
0000
0010
0001
0000
1000
0100
0000
0010
,  // measure 28
0001
0001
0100
0010
,  // measure 29
1010
0010
0100
0010
,  // measure 30
1000
0100
0010
0001
,  // measure 31
0100
1000
0010
0100
,  // measure 32
0001
1000
0001
0100
,  // measure 33
0010
1010
1000
0100
,  // measure 34
0010
0001
0100
1000
,  // measure 35
0010
0100
1000
0100
,  // measure 36
0010
0000
0000
1000
0000
0000
0100
0000
0001
0000
0000
0000
,  // measure 37
0001
0000
0001
0100
0000
0010
0100
0000
0100
0010
0000
0000
,  // measure 38
0001
0000
0001
1000
0000
1000
0100
0000
0010
0001
0000
0000
,  // measure 39
0001
0000
0001
0100
0000
0010
1000
0000
0001
0100
0000
0000
,  // measure 40
0010
0000
0010
0100
0000
0001
1000
0000
0010
1000
0000
0000
,  // measure 41
0001
0000
1000
0000
0100
0000
0010
0000
0001
0000
0000
0000
,  // measure 42
0010
0000
0100
0000
0001
0000
1000
0000
0010
0000
0000
0000
,  // measure 43
1000
0000
0100
0000
0010
0000
0001
0000
2000
0000
0000
0000
,  // measure 44
0000
3000
0000
0000
,  // measure 45
0010
0000
0100
0000
0010
0000
1000
0000
0001
0000
0000
0000
,  // measure 46
1000
0000
0100
0000
0010
0000
0001
0000
0100
0000
0000
0000
,  // measure 47
0010
0000
0100
0000
0001
0000
1000
0000
0001
0000
0000
0000
,  // measure 48
1000
0000
0100
0000
1000
0000
0010
0000
0001
0000
0000
0000
,  // measure 49
0001
0000
0100
0000
0010
0000
1000
0000
0010
0000
0000
0000
,  // measure 50
1000
0000
0100
0000
0010
0000
0001
0000
0100
0000
0000
0000
,  // measure 51
0001
0000
1000
0000
0010
0000
0100
0000
0010
0000
0000
0000
,  // measure 52
0000
0000
0000
0000
,  // measure 53
1000
0000
0000
0000
0100
0000
0000
0000
0010
0000
0000
0000
,  // measure 54
0001
0000
0000
0000
0010
0000
0000
0000
0000
0000
0000
0000
,  // measure 55
0010
0000
0000
0000
0100
0000
0000
0000
0001
0000
0000
0000
,  // measure 56
1000
0000
0000
0000
0000
0010
0000
0000
0000
0000
0000
0000
,  // measure 57
1000
0000
0000
0000
0100
0000
0000
0000
0010
0000
0000
0000
,  // measure 58
0001
0000
0000
0000
0000
0010
0000
0000
0000
0100
0000
0000
,  // measure 59
0000
1000
0000
0000
0000
0001
0000
0000
0000
0010
0000
0000
,  // measure 60
0000
1000
0000
0000
0001
0000
0000
0000
0100
0000
0000
0000
,  // measure 61
0010
0000
0000
0000
0001
0000
1000
0000
0000
0000
1000
0000
,  // measure 62
0100
0000
0000
0000
0000
0000
1001
0000
0000
0000
0001
0000
,  // measure 63
0100
0000
0000
0000
0010
0000
0100
0000
0000
0000
1000
0000
,  // measure 64
0100
0000
0000
0000
0001
0000
0100
0000
0000
0000
0010
0000
,  // measure 65
0100
0000
0000
0000
1000
0000
0001
0000
0000
0000
1000
0000
,  // measure 66
0001
0000
0110
0000
,  // measure 67
1000
0000
0000
0000
0001
0000
0100
0000
0000
0000
1000
0000
,  // measure 68
0100
0000
0000
0000
0010
0000
0001
0000
0000
0000
1000
0000
,  // measure 69
0001
0000
0000
0000
0010
0000
0100
0000
0000
0000
0100
0000
,  // measure 70
0001
0000
0000
0000
0000
0000
0110
0000
0000
0000
0010
0000
,  // measure 71
0001
0000
0000
0000
1000
0000
0001
0000
0000
0000
0100
0000
,  // measure 72
0001
0000
0000
0000
0010
0000
0001
0000
0000
0000
1000
0000
,  // measure 73
0001
0000
0000
0000
0100
0000
0010
0000
0000
0000
0100
0000
,  // measure 74
0010
0000
1001
0000
,  // measure 75
0100
0000
0000
0000
0010
0000
0001
0000
0000
0000
0100
0000
,  // measure 76
0001
0000
0000
0000
1000
0000
0010
0000
0000
0000
0100
0000
,  // measure 77
0010
0100
0010
0000
,  // measure 78
1000
0100
1000
0000
,  // measure 79
0010
0001
0010
0000
,  // measure 80
0001
0100
0001
0000
,  // measure 81
0010
0100
0010
0000
,  // measure 82
1000
0100
1000
0000
,  // measure 83
0001
0100
0001
0000
,  // measure 84
0010
0100
0010
0000
,  // measure 85
0011
0000
0000
0000
1100
0000
0000
0000
1001
0000
0000
0000
,  // measure 86
0011
0000
1001
0000
,  // measure 87
0011
0000
0000
0000
1100
0000
0000
0000
1001
0000
0000
0000
,  // measure 88
0101
0000
0000
0000
0000
1001
0000
0000
0000
0000
0000
0000
,  // measure 89
0011
0000
0000
0000
0110
0000
0000
0000
1100
0000
0000
0000
,  // measure 90
0110
0000
1001
0000
,  // measure 91
0000
0000
0000
0000
0001
0000
0000
0000
0000
0000
0000
0000
,  // measure 92
1000
0000
0000
0000
0100
0000
0000
0000
0000
0000
0000
0000
,  // measure 93
2002
0000
0000
0000
,  // measure 94
0000
0000
0000
0000
,  // measure 95
3003
0000
0000
0000
;

//---------------dance-single - ----------------
#NOTES:
     dance-single:
     :
     Easy:
     7:
     0.493,0.869,0.935,0.134,0.062:
0000
0000
0000
0000
,
0000
0000
0000
0000
,
0000
0000
0000
0000
,
0000
0000
0000
0000
,
1001
0001
1000
0100
,
0010
0001
0010
0100
,
1000
0100
0010
0001
,
0101
0101
1100
1100
,
1100
0010
1000
0100
,
0110
0010
1000
0001
,
0101
0001
1000
0100
,
1001
1001
1001
1001
,
0101
0010
1000
0100
,
0010
0001
0011
0000
,
0101
0001
0100
0010
,
0110
0110
1001
1001
,
0110
0010
1000
0010
,
0100
0010
1000
0000
,
0001
1000
0100
0010
,
0001
0100
0001
0000
,
0101
1100
0110
1001
,
1100
0011
0102
0103
,
0110
0110
1001
1001
,
1100
0110
0011
0101
,
0101
0101
1100
1100
,
0110
1001
1100
0011
,
0101
0101
0101
0101
,
1100
0011
1010
0110
,
1002
1003
0100
0010
,
0001
0010
0100
1000
,
0100
0010
0001
0100
,
0010
1000
0010
0100
,
0020
0130
0020
0130
,
0020
0130
0200
0310
,
0200
0310
0200
0310
,
1000
0100
0010
0000
,
0002
0100
0100
0100
,
0100
0100
0103
0101
,
2000
0100
0100
0100
,
0100
0100
0100
3100
,
1100
0000
1001
0000
,
0011
0000
1001
0000
,
1100
0000
0011
0000
,
0000
0000
0000
0000
,
1001
0000
0101
0000
,
0110
0000
1010
0000
,
1100
0000
0110
0000
,
0011
0000
0101
0000
,
0110
0000
1010
0000
,
1100
0000
0011
0000
,
0110
0000
2002
0000
,
0000
0000
0000
3003
,
1001
0000
0000
0000
,
1001
0000
0000
0000
,
1100
0000
0000
0000
,
1100
0000
0000
0000
,
0101
0000
0000
0000
,
0110
0000
0000
0000
,
0010
0000
0000
0000
,
0000
0000
0000
0000
,
1000
0000
0100
0000
,
0010
0000
0001
0000
,
0010
0000
0100
0000
,
1000
0000
0001
0000
,
1001
0000
0110
0000
,
1001
0000
1000
0000
,
0100
0000
0001
0000
,
0101
0000
0000
0000
,
0101
0000
0010
0000
,
0110
0000
0010
0000
,
1010
0000
1000
0000
,
1100
0000
0000
0000
,
1100
0000
0100
0000
,
0010
0000
0001
0000
,
0011
0000
0101
0000
,
1001
0000
0000
0000
,
0001
0000
1000
0000
,
0100
0000
0010
0000
,
0001
0000
0010
0000
,
0100
0000
1000
0000
,
0100
0000
0010
0000
,
0001
0000
1000
0000
,
0001
0000
0100
0000
,
0010
0000
1000
0000
,
0001
0000
0000
0000
1000
0000
0000
0000
0001
0000
0000
0000
,
1000
0000
0000
0000
0000
1000
0000
0000
0000
0000
0000
0000
,
0001
0000
0000
0000
1000
0000
0000
0000
0001
0000
0000
0000
,
1000
0000
0000
0000
0000
0001
0000
0000
0000
0000
0000
0000
,
0010
0000
0000
0000
0100
0000
0000
0000
0010
0000
0000
0000
,
0100
0000
0000
0000
0000
0010
0000
0000
0000
0000
0000
0000
,
0000
0000
0000
0000
0001
0000
0000
0000
0000
0000
0000
0000
,
1000
0000
0000
0000
0001
0000
0000
0000
1000
0000
0000
0000
,
0200
0000
0000
0000
,
0000
0000
0000
0000
,
0300
0000
0000
0000
;

//---------------dance-single - ----------------
#NOTES:
     dance-single:
     :
     Beginner:
     3:
     0.158,0.378,0.175,0.000,0.000:
0000
0000
0000
0000
,
0000
0000
0000
0000
,
0000
0000
0000
0000
,
0000
0000
0000
0000
,
0001
0000
0000
0000
,
1000
0000
0000
0000
,
0000
0000
0000
0000
,
0010
0010
0100
0100
,
0010
0000
0000
0000
,
1000
0000
0000
0000
,
0001
0000
0000
0000
,
0000
0000
0000
0000
,
1000
0000
0000
0000
,
0000
0000
0000
0000
,
0000
0000
0000
0000
,
0001
0001
1000
1000
,
0001
0000
0000
0000
,
0100
0000
0000
0000
,
0010
0000
0000
0000
,
0000
0000
0000
0000
,
0100
0000
0000
0000
,
0100
0000
0010
0000
,
0100
0000
0000
0000
,
1000
0000
0001
0000
,
1000
0000
0000
0000
,
0001
0000
1000
0000
,
0100
0000
0000
0000
,
0010
0000
0001
0000
,
0100
0000
0000
0000
,
0000
0000
0000
0000
,
0010
0000
0000
0000
,
0000
0000
0000
0000
,
1000
0000
0000
0000
,
0000
0000
0000
0000
,
0001
0000
0000
0000
,
1000
0000
0000
0000
,
0010
0010
0010
0000
,
0100
0100
0100
0000
,
1000
1000
1000
0000
,
0001
0001
0001
0000
,
1001
0000
0000
0000
,
0110
0000
0000
0000
,
0110
0000
0000
0000
,
0000
0000
0000
0000
,
1001
0000
0000
0000
,
1001
0000
0000
0000
,
1001
0000
0000
0000
,
1001
0000
0000
0000
,
0110
0000
0000
0000
,
0110
0000
0000
0000
,
0110
0000
0000
0000
,
0000
0000
0000
0000
,
1001
0000
0000
0000
,
0000
0000
0000
0000
,
0110
0000
0000
0000
,
0000
0000
0000
0000
,
0110
0000
0000
0000
,
0000
0000
0000
0000
,
0000
0000
0000
0000
,
0000
0000
0000
0000
,
1000
0000
0000
0000
,
0001
0000
0000
0000
,
1000
0000
1000
0000
,
1000
0000
0000
0000
,
0001
0000
0000
0000
,
0100
0000
0000
0000
,
0010
0000
0010
0000
,
0010
0000
0000
0000
,
0100
0000
0000
0000
,
0010
0000
0000
0000
,
1000
0000
1000
0000
,
1000
0000
0000
0000
,
0001
0000
0000
0000
,
1000
0000
0000
0000
,
0001
0000
0001
0000
,
0001
0000
0000
0000
,
1000
0000
0000
0000
,
1000
0000
0000
0000
,
0001
0000
0000
0000
,
0100
0000
0000
0000
,
0010
0000
0000
0000
,
1000
0000
0000
0000
,
0001
0000
0000
0000
,
0100
0000
0000
0000
,
0110
0000
0000
0000
,
0000
0000
0000
0000
,
0110
0000
0000
0000
,
0000
0000
0000
0000
,
1001
0000
0000
0000
,
0000
0000
0000
0000
,
0000
0000
0000
0000
,
0000
0000
0000
0000
,
1001
0000
0000
0000
;
