#TITLE:Harmony and Lovely;
#SUBTITLE:;
#ARTIST:Ryu*;
#TITLETRANSLIT:;
#SUBTITLETRANSLIT:;
#ARTISTTRANSLIT:;
#CREDIT:;
#BANNER:bn.PNG;
#BACKGROUND:bg.PNG;
#LYRICSPATH:;
#CDTITLE:13 dd.png;
#MUSIC:1-35_harmony_and_lovely.mp3;
#OFFSET:0.700;
#SAMPLESTART:15.282;
#SAMPLELENGTH:12.000;
#SELECTABLE:YES;
#BPMS:0.000=135.000,116.000=67.500,133.000=135.000;
#STOPS:116.000=0.889
;
#BGCHANGES:;

//---------------dance-single - ----------------
#NOTES:
     dance-single:
     :
     Hard:
     6:
     0.339,0.380,0.066,0.440,0.008:
0000
0000
0000
0000
,
0000
0000
0000
0000
,
0000
0000
0000
0000
,
0000
0000
0000
0000
,
0000
0000
0000
0000
,
0001
0000
0000
0001
0000
0000
0000
0000
0000
0000
0000
0000
0000
0000
0100
0000
,
1000
0000
0000
1000
0000
0000
0000
0000
0000
0000
0000
0000
0000
0000
0000
0000
,
0002
0000
0000
0000
,
0200
0000
0000
0303
,
0010
0000
1000
0000
0001
1000
0001
1000
,
0001
0000
0100
0000
0001
0000
0100
0001
,
0010
0000
0100
0000
1000
0100
0010
0001
,
0010
0100
0001
1000
,
0100
0000
1100
0000
1000
0100
1000
0000
,
0100
0000
0110
0000
0001
0100
0001
0000
,
2000
3100
0002
0103
,
0020
0031
0200
1300
,
0010
0000
1010
0000
1000
0100
0010
0001
,
0010
0000
0001
0000
0100
0000
0010
1000
,
0001
0000
1100
0000
1000
0001
0100
0010
,
1000
0000
0100
0000
1000
0100
0010
0001
,
0100
0000
0101
0000
0001
0010
0100
1000
,
0001
0000
1001
0000
0010
0100
0001
1000
,
0100
0000
1100
0000
1000
0100
0010
0001
,
0100
0000
0101
0000
0010
0000
1000
0001
,
0200
0310
2000
3100
,
0020
0031
0200
0301
,
1000
0001
0100
0010
,
1000
0100
0010
0001
0010
0001
0100
1000
,
0001
2000
3200
2300
,
3200
2300
3020
0200
,
0330
0002
2003
3002
,
0203
0320
0000
2030
,
3002
0203
0301
0200
,
0310
0200
0310
0200
,
0301
2000
3100
0020
,
0032
0203
0010
0000
,
0320
0230
1300
0200
,
1300
0200
0310
0200
,
0310
0200
0000
0000
,
0000
0302
0000
2000
,
3003
0000
0010
1000
0010
0000
0200
0000
,
0310
0000
0001
0100
0002
0000
0010
0000
,
0103
0000
0010
1000
0020
0000
2030
0000
,
3200
2300
0000
0000
,
3100
0020
0031
0200
,
0301
0020
0130
0200
,
1300
2000
0000
0000
,
0000
3002
0000
0203
,
0000
0000
0301
0000
1000
0000
1000
0100
,
0010
0001
0010
0000
0100
0000
0001
0000
,
0100
0001
0100
0000
0010
0000
1000
0001
,
0010
1000
0001
0000
0100
0000
1000
0000
,
1000
0100
0010
0000
0001
0000
0100
0001
,
0100
0010
1000
0000
0100
0000
1000
0000
,
0100
1000
0100
0000
1000
0000
1000
0100
,
0010
0001
0010
0000
0100
0000
0001
0000
,
1000
0001
0000
0000
0000
0000
0000
0000
;

//---------------dance-single - ----------------
#NOTES:
     dance-single:
     :
     Medium:
     5:
     0.276,0.403,0.075,0.341,0.000:
0000
0000
0000
0000
,
0000
0000
0000
0000
,
0000
0000
0000
0000
,
0000
0000
0000
0000
,
0000
0000
0000
0000
,
1000
0000
0000
0000
0000
0000
0000
0001
,
0100
0000
0000
0000
,
2000
0000
0000
0000
,
0000
0000
0000
3000
,
0001
1000
0001
1000
,
0100
0010
0100
0010
,
0001
0100
0001
0100
,
1000
0010
1000
0010
,
1000
1100
0100
0100
,
1000
0100
0010
0001
,
0200
0000
0000
0000
,
0302
0000
0000
0000
,
1003
1100
1000
0100
,
0010
0011
0001
0100
,
0010
0110
0010
0100
,
1000
1001
1000
0100
,
0010
0011
0001
0100
,
0010
1010
1000
0100
,
0010
0011
0001
0100
,
1010
1000
0100
0010
,
0002
0000
0000
0000
,
2003
0000
0000
0000
,
3100
1000
0010
0001
,
0100
0010
1000
0001
,
0000
2000
3002
2003
,
3002
0000
2003
0000
3002
0100
0200
0000
,
0303
0010
2000
0000
3200
0000
2300
0000
,
3020
2030
0000
3002
,
0203
0301
1000
0002
,
1003
0002
0103
0002
,
1003
0002
0103
0002
,
1003
0002
0103
1000
,
0001
1000
2000
0000
3100
0000
2000
0000
,
3010
2000
3001
2000
,
3010
2000
3100
2000
,
3010
2000
3001
1000
,
0001
0000
1000
0001
1000
0000
1000
0000
,
0100
0010
0001
0010
,
0100
0000
1000
0100
1000
0000
2000
0000
,
0100
0020
0000
3030
,
0001
0200
0000
0302
,
0000
2003
0000
3020
,
0000
0230
0000
0000
,
0000
0302
0000
2000
,
0000
3003
1000
0000
0001
0000
1000
0001
,
1000
0100
0010
0001
,
0100
0001
0100
0000
0001
0000
0100
1000
,
0100
1000
0001
0100
,
0010
0100
1000
0000
0001
0000
1000
0000
,
0001
0100
0010
1000
,
0001
0100
1000
0000
0010
0000
0001
1000
,
0001
0100
0010
1000
,
0001
1000
0000
0000
0000
0000
0000
0000
;

//---------------dance-single - ----------------
#NOTES:
     dance-single:
     :
     Easy:
     2:
     0.114,0.164,0.000,0.208,0.000: // measure 1
0000
0000
0000
0000
,  // measure 2
0000
0000
0000
0000
,  // measure 3
0000
0000
0000
0000
,  // measure 4
0000
0000
0000
0000
,  // measure 5
0000
0000
0000
0000
,  // measure 6
1000
0000
0000
0000
,  // measure 7
1000
0000
0000
0000
,  // measure 8
0002
0000
0000
0000
,  // measure 9
0000
0000
0000
0003
,  // measure 10
0100
0000
0010
0000
,  // measure 11
0100
0000
1000
0000
,  // measure 12
0001
0000
1000
0000
,  // measure 13
0001
0000
0000
0000
,  // measure 14
0100
0010
0000
0010
,  // measure 15
1000
0001
0000
1000
,  // measure 16
0002
0000
0000
0000
,  // measure 17
2000
0000
0000
3003
,  // measure 18
0000
1000
0000
0001
,  // measure 19
0000
0100
0000
0010
,  // measure 20
0000
0100
0000
0010
,  // measure 21
0000
1000
0000
0100
,  // measure 22
0000
1000
0000
0001
,  // measure 23
0000
0100
0000
0001
,  // measure 24
0000
1000
0000
0010
,  // measure 25
0000
0100
0000
0001
,  // measure 26
0000
0000
0000
0000
,  // measure 27
0000
0000
0000
0000
,  // measure 28
2000
0000
0000
0000
,  // measure 29
0002
0000
0000
0000
,  // measure 30
3003
0200
0000
0000
,  // measure 31
0000
0000
0000
0000
,  // measure 32
0300
0020
0000
0000
,  // measure 33
0000
0000
0000
0000
,  // measure 34
0000
2030
0000
0000
,  // measure 35
0000
3002
0000
0000
,  // measure 36
0000
0203
0000
0000
,  // measure 37
0000
0320
0000
0000
,  // measure 38
0000
2030
0000
0000
,  // measure 39
0000
3002
0000
0000
,  // measure 40
0000
0203
0000
0000
,  // measure 41
0000
0302
0000
0000
,  // measure 42
0000
1003
0001
2000
,  // measure 43
3000
0001
0100
0002
,  // measure 44
0003
0001
0010
0002
,  // measure 45
0000
0200
0000
0303
,  // measure 46
0010
2000
3000
0200
,  // measure 47
0300
0020
0030
0002
,  // measure 48
0003
2000
0000
0000
,  // measure 49
0000
0002
0000
0000
,  // measure 50
3003
0100
0000
0000
,  // measure 51
0000
0100
0000
0000
,  // measure 52
0000
1000
0000
0000
,  // measure 53
0000
0001
0000
0000
,  // measure 54
0000
0010
0000
0000
,  // measure 55
0000
0100
0000
0000
,  // measure 56
0000
1000
0000
0000
,  // measure 57
0000
0001
0000
0000
;

//---------------dance-single - ----------------
#NOTES:
     dance-single:
     :
     Beginner:
     1:
     0.045,0.047,0.000,0.000,0.000: // measure 1
0000
0000
0000
0000
,  // measure 2
0000
0000
0000
0000
,  // measure 3
0000
0000
0000
0000
,  // measure 4
0000
0000
0000
0000
,  // measure 5
0000
0000
0000
0000
,  // measure 6
0000
0000
0000
0000
,  // measure 7
0000
0000
0000
0000
,  // measure 8
0000
0000
0000
0000
,  // measure 9
0000
0000
0000
0000
,  // measure 10
0010
0000
0000
0000
,  // measure 11
0000
0000
0000
0000
,  // measure 12
0010
0000
0000
0000
,  // measure 13
0000
0000
0000
0000
,  // measure 14
1000
0000
0000
0000
,  // measure 15
0000
0000
0000
0000
,  // measure 16
0001
0000
0000
0000
,  // measure 17
0001
0000
0000
0000
,  // measure 18
0000
0100
0000
0000
,  // measure 19
0000
0100
0000
0000
,  // measure 20
0000
0010
0000
0000
,  // measure 21
0000
0010
0000
0000
,  // measure 22
0000
1000
0000
0000
,  // measure 23
0000
0001
0000
0000
,  // measure 24
0000
0100
0000
0000
,  // measure 25
0000
0010
0000
0000
,  // measure 26
1000
0000
0000
0000
,  // measure 27
0000
0000
0000
0000
,  // measure 28
0100
0000
0000
0000
,  // measure 29
0000
0000
0000
0000
,  // measure 30
0000
0001
0000
0000
,  // measure 31
0000
0000
0000
0000
,  // measure 32
0000
1000
0000
0000
,  // measure 33
0000
0000
0000
0000
,  // measure 34
0000
0010
0000
0000
,  // measure 35
0000
0100
0000
0000
,  // measure 36
0000
1000
0000
0000
,  // measure 37
0000
0000
0000
0000
,  // measure 38
0000
0001
0000
0000
,  // measure 39
0000
1000
0000
0000
,  // measure 40
0000
0100
0000
0000
,  // measure 41
0000
0000
0000
0000
,  // measure 42
0000
0010
0000
0000
,  // measure 43
0000
0010
0000
0000
,  // measure 44
0000
0100
0000
0000
,  // measure 45
0000
1000
0000
0000
,  // measure 46
0000
0001
0000
0000
,  // measure 47
0000
1000
0000
0000
,  // measure 48
0000
0100
0000
0000
,  // measure 49
0000
0000
0000
0000
,  // measure 50
0000
0010
0000
0000
,  // measure 51
0000
0100
0000
0000
,  // measure 52
0000
1000
0000
0000
,  // measure 53
0000
0001
0000
0000
,  // measure 54
0000
1000
0000
0000
,  // measure 55
0000
0001
0000
0000
,  // measure 56
0000
0100
0000
0000
,  // measure 57
0000
0010
0000
0000
;
