#TITLE:卑弥呼;
#SUBTITLE:;
#ARTIST:朱雀 VS 玄武;
#TITLETRANSLIT:HIMIKO;
#SUBTITLETRANSLIT:;
#ARTISTTRANSLIT:SUZAKU VS GENBU;
#CREDIT:;
#BANNER:bn.PNG;
#BACKGROUND:bg.PNG;
#LYRICSPATH:;
#CDTITLE:./CDTITLES/BEATMANIA IIDX.PNG;
#MUSIC:HIMIKO.mp3;
#OFFSET:-0.112;
#SAMPLESTART:56.156;
#SAMPLELENGTH:15.000;
#SELECTABLE:NO;
#DISPLAYBPM:*;
#BPMS:0.000=46.250,2.000=46.260,6.000=369.999,134.000=184.999,149.000=369.999,185.000=184.999,186.000=369.999,224.000=92.500,240.000=184.999,264.000=46.250,265.500=369.999,538.000=88.000,546.000=83.000,550.000=83.000,557.500=41.500;
#STOPS:265.500=0.081
,266.000=0.080
,266.500=0.080
,418.000=0.811
,516.000=0.324
,522.000=0.324
,528.000=0.324
,529.000=0.486
;
#BGCHANGES:;

//---------------dance-single - ----------------
#NOTES:
     dance-single:
     :
     Hard:
     13:
     0.982,1.000,0.290,0.237,0.164:
0000
0000
0000
0000
,
0000
0000
0000
0000
0000
0000
0000
0000
0000
0000
0000
0000
0000
0000
0000
0000
0000
0000
0000
0000
0000
0000
0000
0000
1000
0001
0100
0001
0010
0100
1000
1001
0100
0000
0000
0000
0000
0000
0000
0000
0010
0000
0000
0000
0000
0000
0000
0000
0100
0000
0000
0000
0000
0000
0000
0000
0001
0000
0000
0000
0000
0000
0000
0000
,
0010
0100
1000
0001
0100
0000
0010
0000
,
1000
0000
0001
0000
0001
0100
0001
1000
,
0100
0010
0001
0010
0001
0000
0001
0000
,
0010
0000
0100
0000
1000
0100
0010
0001
,
1000
0001
0100
0010
0100
0000
0001
0000
,
0001
0000
0010
0000
0100
1000
0001
0010
,
0100
1000
0001
0100
0001
0000
1000
0000
,
0001
0000
0010
0000
0100
0010
0100
1000
,
0001
0100
0001
0010
0100
0000
1000
0000
,
0001
0000
1000
0000
0001
1000
0001
0100
,
0001
0010
0100
1000
0100
0000
1000
0000
,
0001
0000
0100
0000
0010
1000
0010
0100
,
0001
0010
0100
1000
0001
0000
0100
0000
,
0010
0000
1000
0000
0001
1000
0001
0010
,
0100
1000
0001
0100
0001
0000
1000
0000
,
0001
0100
0110
1001
,
1000
0100
1000
0100
0010
0001
0100
0000
,
0010
1000
1001
0101
,
0001
1000
0001
0100
0001
0100
0010
0000
,
0100
0010
1010
0101
,
1000
0001
0010
0100
1000
0001
0100
0000
,
0010
1000
1001
0101
,
1000
0001
1000
0001
0010
0100
1000
0000
,
0001
0000
1000
0000
0100
1000
0000
0000
,
0100
1000
0000
0000
0001
1000
0000
0000
,
1000
0100
0000
0000
0010
0001
0000
0000
,
0010
0100
0000
0000
1000
0001
0000
0000
,
0001
0100
0000
0000
0010
1000
0001
0010
,
0100
1000
0001
0100
0001
0000
1000
0000
,
0101
0000
1100
0000
1000
0001
0010
0100
,
1000
0001
0100
0001
0010
0100
1000
0001
,
0100
0000
0001
0000
0010
0000
0100
0000
1000
0001
1000
0001
0010
0000
1000
0001
,
0000
1000
0001
0000
0001
0100
0010
0000
1001
0000
1000
0100
0000
0010
0001
0000
,
1000
0001
1000
0001
0100
0000
0001
1000
0000
0100
1000
0000
0001
0100
0001
0000
,
1000
0000
0001
1000
0000
0001
1000
0000
1000
0100
1000
0000
0001
0000
1000
0000
,
0001
0010
0001
0000
1000
0000
0001
0000
0100
0000
0010
0000
1000
0000
0001
0000
,
0010
0000
0100
0000
0010
0001
0000
1000
,
0100
0000
0001
1000
0001
0000
1000
0000
,
1000
0100
0000
0001
0100
0000
0010
1000
,
0001
1000
0001
0000
0001
1000
0000
0100
,
0010
0000
1000
0001
1000
0000
1000
0000
,
0001
1000
0000
1000
0100
0000
0001
0010
,
0001
0000
1000
0000
1000
0001
0000
1000
,
0100
0000
0001
0010
0001
0010
0001
0010
,
0100
0000
0010
0000
0001
1000
0100
0000
1000
0000
0010
0000
0100
0000
0000
0000
,
0010
0000
0100
0001
0000
0100
0010
0000
,
1000
0001
1000
0000
0001
0000
0001
0010
,
0000
1000
0010
0000
0100
0001
1000
0001
,
1000
0000
1000
0001
0000
0010
0100
0000
,
0001
0010
0001
0000
0001
0000
1000
0001
,
0000
0001
0010
0000
0001
1000
0002
0000
,
0023
0000
0031
0020
0000
0130
0002
0000
,
1003
0001
2000
0000
3100
0010
0001
1000
,
0001
0100
0001
0100
0001
0010
0100
1000
,
0020
1030
0020
0130
,
0002
0000
1003
0001
0100
0000
0020
0000
,
1030
0000
0020
0000
0130
0000
1000
0001
,
0100
0000
0010
1000
0001
0001
0100
0000
,
1000
0001
0010
0100
2100
0000
3100
1100
,
1000
0001
0010
0100
2000
0000
3001
1001
,
0100
0001
0010
0100
2000
0000
3100
0101
,
0110
0000
0010
1000
0001
0000
1000
0001
,
0100
0000
0010
1000
0010
0000
0100
0000
,
0001
1000
0001
1000
,
0001
0000
0010
0100
1000
0000
1100
0000
0110
0000
0011
0000
0000
0000
0000
0000
,
0001
0000
1000
0001
1000
0000
0001
0000
,
0100
0001
0100
0000
0010
0000
1000
0001
,
0010
0100
1000
0000
0100
0000
0010
0001
,
1000
0000
1000
0000
0001
0100
0001
0000
,
0001
0010
0001
0000
0100
1000
0100
0010
,
0001
0000
0001
0000
1000
0001
0100
0000
,
0010
0000
1000
0001
0100
0000
0001
0000
,
0001
1000
0001
0000
0001
0100
0001
0010
,
0100
1000
0001
1000
0001
0000
0001
1000
,
0010
0000
1000
0000
1000
0001
0100
0000
,
0010
1000
0001
0010
0100
1000
0001
1000
,
0001
0100
0001
0000
0010
1000
0010
0000
,
0010
0000
0010
1000
0010
0000
0001
0000
,
0001
0100
0001
0100
0001
1000
0001
0100
,
0010
0100
0001
0000
1000
0100
1000
0000
,
0001
0000
0010
0100
0010
0000
1000
0000
,
0001
1000
0100
0000
0001
0100
0001
0100
,
0001
0010
0100
1000
0001
0100
0001
1000
,
0001
0000
0001
0010
0100
1000
0001
0000
,
0001
1000
0001
0100
0001
0000
0001
0010
,
0001
0010
0100
1000
0001
0100
0001
0100
,
0001
0010
0100
1000
0001
1000
0001
0010
,
0100
1100
0100
0110
,
0001
0000
0011
0000
0010
0000
0100
0001
,
2000
3100
1100
0010
,
0110
0000
0001
0000
0101
0000
0010
1000
,
0020
0130
0110
0001
,
1100
0000
0001
0000
0101
0000
1000
0200
,
0010
0300
0110
0000
0010
0000
0101
0000
,
1000
0000
1001
0000
1100
0000
0001
1000
,
0200
0010
0010
0010
,
0010
0000
0010
0000
0310
0000
0010
0100
,
0002
1000
1000
1000
,
1000
0000
1000
0000
1003
0000
1000
0001
,
0020
0100
0100
0100
,
0100
0000
0100
0000
0130
0000
1000
0001
,
0100
0000
0010
0000
0100
0000
1000
0000
0001
0000
0010
0000
,
0001
0000
0000
0000
0010
0000
0000
0000
0100
0000
0000
0000
2000
0000
0000
0000
0000
0000
3001
0000
0000
1000
0000
0000
,
0100
0000
1000
0100
1000
0000
0001
0010
,
0001
0000
0001
1000
0001
0000
0001
1000
,
0001
0000
1000
0100
1000
0000
0001
1000
,
0001
1000
0100
0000
0100
0000
1000
0001
,
1000
0000
0100
0010
0100
0000
0001
1000
,
0100
0010
0001
0000
1000
0000
1000
0001
,
0100
0001
0010
0100
1000
0001
0100
0001
,
0010
0100
1000
0001
1000
0000
0001
0100
,
0001
0000
0010
1000
0010
0000
0001
1000
,
0001
0010
0100
1000
0100
0000
0001
1000
,
0001
0000
0001
1000
0001
0000
0001
0010
,
0100
1000
0001
0100
0001
0000
1000
0100
,
1000
0000
0001
0100
0001
0000
0010
0100
,
0010
0100
0001
1000
0010
0100
0010
0000
,
2002
0000
0000
0000
,
0000
0000
3003
0000
0000
0000
1000
0100
,
1000
0000
0001
0100
0001
0000
0001
0010
,
0001
0010
0001
1000
0001
0000
0001
0100
,
0001
0000
0010
1000
0010
0000
0001
0010
,
0100
1000
0100
0010
0001
0000
1000
0100
,
1000
0000
0001
0100
0001
0000
0001
0010
,
0100
1000
0001
1000
0001
0000
0001
0010
,
0100
1000
0001
0100
0001
0010
0100
1000
,
0001
0100
0001
0010
0001
0000
1001
0000
,
0101
0000
1000
0000
0001
0100
0001
0000
,
0010
1000
0010
0000
1001
0000
1000
0000
,
0100
0001
0010
0000
1000
0001
0100
0000
,
0120
0000
1030
0000
1000
0100
0010
0001
,
1000
0000
0000
0001
0000
0000
0100
0000
0000
0001
0000
0000
0100
0000
0001
0000
0100
0000
0001
0000
0000
0100
0000
0000
,
0001
1000
0001
1000
0200
0000
0000
0000
,
2300
0000
3020
0000
,
0230
0000
0000
0000
0000
0000
0000
0000
0301
0001
0000
1000
0001
0000
0001
0010
,
0100
1000
0000
1000
0100
0000
0010
0001
1000
0100
0000
0001
0100
0000
0010
0100
,
0020
0000
0000
0000
0000
0000
0000
0000
0000
0000
0000
0000
0000
0000
0000
0000
2030
0000
0000
0000
0000
0000
0000
0002
0000
0000
0000
0000
0000
0000
0000
0000
,
3000
0000
0000
0200
0000
0000
0303
0000
;

//---------------dance-single - ----------------
#NOTES:
     dance-single:
     :
     Medium:
     10:
     0.683,0.852,0.359,0.092,0.015:
0000
0000
0000
0000
,
0000
0000
0000
0000
0000
0000
0000
0000
0000
0000
0000
0000
0001
0100
0001
1000
0001
0000
0000
0000
0000
0000
0000
0000
0010
0000
0000
0000
0000
0000
0000
0000
,
0100
0000
1000
0000
0001
0000
1000
0001
,
1000
0000
0001
0010
,
0001
1000
0001
0100
,
0010
1000
0001
0000
1000
0000
1000
0000
,
0001
0000
0010
0000
0100
0000
1000
0001
,
1000
0000
1000
0001
,
1000
0001
0010
0100
,
1000
0100
1000
0000
0100
0000
0010
0000
,
0001
1000
0001
0100
,
0010
0100
0010
0000
1000
0000
0001
0000
,
0010
0100
1000
0001
,
0100
0001
0010
0000
0100
0000
0010
0000
,
0001
1000
0100
1000
,
0100
1000
0001
0000
1001
0000
0101
0000
,
0000
0000
0110
0000
,
1001
0100
1100
1100
,
0100
0010
0001
0100
,
0001
0010
0110
0110
,
0001
1000
0010
1000
,
0010
0100
0101
0101
,
0001
0100
0001
1000
,
0010
0100
0101
0101
,
0001
0010
0100
1000
,
0001
1000
1001
0101
,
0001
0010
0100
1000
,
0001
1000
0110
0110
,
0100
0010
1000
0001
,
0100
0001
1100
0101
,
0010
1000
0001
0010
,
0100
1000
1100
0011
,
0000
0101
1010
0000
,
1001
0000
0001
1000
0200
0000
1300
0000
,
0010
0000
0100
0010
1000
0000
0020
0000
,
0130
0000
0001
1000
1001
0000
0002
0000
,
0103
0000
0010
1000
1010
0000
0010
0000
,
1000
0000
0001
0100
0001
0100
0001
0000
,
1000
0001
0010
0100
,
1000
0001
0100
0001
,
0010
0100
1000
0001
,
1000
0001
0010
0100
,
1000
0001
0100
0001
,
1000
0000
0001
0000
0100
0000
0001
0010
,
0001
0000
0010
0000
1000
0001
0000
1000
,
0100
0000
0001
0010
0001
0000
1000
0001
,
0010
0100
2000
0000
3001
0000
0010
0000
,
0100
1000
0001
0100
,
0001
0010
0100
1000
,
0001
1000
0001
0100
,
0001
0010
0100
1000
,
0001
1000
0001
0100
,
0001
0000
1000
0000
1000
0010
1000
0000
,
0010
0000
0001
0010
0000
0100
0001
0000
,
1000
0001
1000
0000
0100
0010
0001
1000
,
0001
0100
0001
0100
0001
1000
0100
0010
,
0001
1000
0001
0100
,
0010
0000
1000
1000
0001
0000
0100
0000
,
0010
0000
1000
0000
0010
0000
0001
0001
,
0001
0000
1000
0001
0100
0010
1000
0000
,
0001
0100
0000
0010
1000
0000
0100
0000
,
1000
0001
0100
0000
0010
0001
0000
0100
,
1000
0000
0001
1000
0001
0000
0001
0010
,
0000
0010
0100
0000
1100
0110
0011
0000
,
1001
0000
0001
1000
0001
0000
0001
0010
,
0100
0000
1000
0000
0001
0001
1000
0001
,
0100
0000
0010
0010
1000
0000
1000
0000
0001
0000
0100
0000
0000
0000
0000
0000
,
0010
0100
0000
0010
,
0100
0000
0010
1000
,
0010
1000
0010
1000
,
0000
1000
0100
0000
,
0010
0001
0000
0001
,
0100
0001
0100
0010
,
0000
0100
0010
0000
,
1000
0010
0000
0100
,
0010
1000
0010
1000
,
0000
0001
0100
0000
,
1000
0010
0000
0100
,
0010
1000
0001
0010
,
0001
1000
0100
0010
,
0001
0010
0100
1000
,
0001
0001
0100
0001
,
0010
0001
0010
0100
,
1000
0100
0010
0001
,
1000
0001
0100
0010
,
1000
0100
0010
0001
,
1000
0001
0100
0010
,
1000
0001
1000
0100
,
1001
0000
0001
0010
0001
0000
1000
0000
,
1000
0100
1000
0100
,
1000
0000
0100
0000
1000
0000
0100
0010
,
0001
0010
0001
0010
,
0001
0000
0010
0000
0001
0000
0001
0010
,
0100
0010
0100
0010
,
0100
0000
0010
0000
0100
0000
0010
0100
,
0001
1000
0001
1000
,
0001
0000
1000
0000
0001
0000
1000
0001
,
0100
0001
0100
0001
,
0100
0000
0001
0000
0100
0000
0001
0100
,
0010
1000
0010
1000
,
0010
0000
1000
0000
0010
0000
1000
0001
,
0100
0010
1000
0100
,
0010
0000
0001
0000
1000
0000
0001
0100
,
0010
0000
0110
0000
,
1100
0000
1001
0001
,
1000
0100
1000
0001
,
0010
0001
0010
0001
,
1000
0100
1000
0001
,
1000
0100
0100
1000
,
0001
0100
0010
1000
,
0100
0010
0001
1000
,
0100
1000
0001
0100
,
0010
1000
0001
0010
,
0001
1000
0100
0010
,
0001
1000
0100
0010
,
0001
0010
0001
1000
,
0100
0010
0001
1000
,
0001
1000
0001
1000
,
0100
0010
1000
0010
,
2002
0000
0000
0000
,
0000
3003
0000
1100
,
0000
0011
0000
1001
,
0000
1000
0001
0101
,
0000
0110
0000
1100
,
0000
1000
0001
0011
,
0000
1100
0000
1001
,
0000
0000
1000
0000
0100
0000
1000
0100
,
1000
0000
0001
0100
0001
0000
0010
0100
,
0010
0000
1000
0001
1000
0000
0001
0000
,
0101
0100
0001
0010
,
0100
1000
1100
1000
,
0001
0010
0100
1000
,
1002
0013
1000
0001
,
0010
0000
0001
0000
0100
0001
0100
0000
,
0001
0010
2002
0000
,
3000
0000
0200
0000
,
0003
0000
0301
0001
,
1000
0001
0100
0010
,
2000
0000
0200
0000
,
0000
0000
0000
3300
0000
0000
0000
0000
;

//---------------dance-single - ----------------
#NOTES:
     dance-single:
     :
     Easy:
     9:
     0.492,0.692,0.229,0.436,0.008:
0000
0000
0000
0000
,
0000
0000
0001
0100
,
0001
1000
0002
0000
,
0103
0000
0001
1000
,
0001
1000
0020
0000
,
0130
0000
0010
1000
,
0001
1000
0002
0000
,
0103
0000
0001
0010
,
0100
1000
0200
0000
,
1300
0000
0010
1000
,
0001
0100
0020
0000
,
0130
0000
0001
1000
,
0010
0100
0002
0000
,
0103
0000
0001
0010
,
0100
1000
0200
0000
,
1300
0000
1100
1100
,
0000
0000
0001
0000
,
0100
0000
0010
0100
,
0010
1000
0001
0100
,
0010
0000
0001
0001
,
1000
0001
0100
0001
,
1000
0000
0001
0001
,
1000
0001
0100
0010
,
1000
0000
0010
0010
,
1000
0010
1000
0010
,
0100
0000
0110
0000
,
1000
0000
1100
0000
,
0010
0000
0001
0000
,
0010
0000
0100
0000
,
1000
0000
0101
0000
,
1100
0000
0011
0000
,
0110
0000
2000
0000
,
3002
0000
0203
0000
,
0320
0000
2000
0000
,
0000
0030
0200
0000
,
0000
3000
0020
0000
,
0000
0300
0002
0000
,
0033
1000
0001
0100
,
0000
0010
0000
1000
,
0000
0001
0100
0010
,
0000
1000
0000
0001
,
0000
0001
0100
0001
,
0000
0010
0000
1000
,
0000
0001
0000
1000
,
0001
1000
0001
1000
,
0100
0010
0001
1000
,
0100
2000
3100
0100
,
1000
0000
0010
0001
,
0010
0000
0100
0001
,
0100
0000
0010
0100
,
0010
0000
0010
1000
,
0010
0000
0001
0100
,
0001
0000
0001
0010
,
0100
1000
0100
0010
,
0001
0010
0100
0001
,
0100
0001
0100
0010
,
1000
1000
0001
0001
,
0100
0000
0010
1000
0001
0000
1000
0000
,
0001
0000
0100
0000
0010
0000
1000
0001
,
0100
0000
0010
1000
0001
0010
0001
0000
,
1000
0000
0100
0000
,
0010
0000
0001
0000
,
0010
0000
0100
0010
,
0001
0000
0001
0000
,
1000
0000
0001
0000
,
0100
0000
0010
1000
,
0001
1000
0202
0000
0000
0303
0000
0000
,
1000
0000
0000
0000
,
0001
0000
0000
0100
,
0000
0000
0010
0000
,
0000
0100
0000
0000
,
0010
0000
0000
0100
,
0000
0000
0010
0000
,
0000
1000
0000
0000
,
0001
0000
0000
1000
,
0000
0000
0001
0000
,
0000
0100
0000
0000
,
0010
0000
0000
1000
,
0000
0000
0110
0000
,
0000
0011
0000
0000
,
1001
0000
0000
1100
,
0000
0000
1010
0000
,
0000
1100
0000
0000
,
0011
0000
0000
1100
,
0000
0000
0011
0000
,
0000
1100
0000
0000
,
1001
0000
0000
1010
,
0000
0000
0101
0000
,
0000
0110
0010
1000
,
2002
0000
0000
0000
,
0000
0000
0000
0000
3003
0000
1000
0100
,
2000
0000
0000
0000
,
3000
0000
0000
0000
0000
0000
0001
0100
,
0002
0000
0000
0000
,
0003
0000
0000
0000
0000
0000
0010
0100
,
0020
0000
0000
0000
,
0030
0000
0000
0000
0000
0000
1000
0100
,
2000
0000
0000
0000
,
3000
0000
0000
0000
0000
0000
0001
0100
,
0002
0000
0000
0000
,
0003
0000
0000
0000
0000
0000
0010
0100
,
0020
0000
0000
0000
,
0030
0000
0000
0000
0000
0000
1000
0100
,
2000
0000
0000
0000
,
3000
0000
1001
1000
,
0100
0010
0001
0100
,
0001
1000
0001
0010
,
0100
1000
0001
1000
,
0001
0100
0001
0010
,
0100
1000
0001
1000
,
0001
0100
0001
0010
,
0100
1000
0100
0010
,
0001
2000
0000
3100
,
0001
0010
0001
0010
,
0100
1000
0100
1000
,
0001
1000
0001
0010
,
0100
1000
0001
1000
,
0001
0100
0001
0010
,
0100
1000
0001
1001
,
1001
0000
0000
0110
,
0000
1001
0000
0002
,
0103
0200
0301
0020
,
1030
2000
3010
0002
,
1003
2000
3001
0200
,
0301
0020
1030
2000
,
3100
0002
0013
0002
,
0103
0020
0130
2000
,
3001
2000
3100
2000
,
3100
0020
0031
2002
,
3003
1000
0100
0010
,
0001
0020
0030
0001
,
0100
0010
1000
0020
,
0000
0030
1000
0100
,
0010
0001
0010
0100
,
0010
1000
0002
0000
,
0023
0000
0230
0000
,
0302
0000
2003
0000
,
3200
0000
0000
0000
0000
0000
0000
0000
0000
0000
0000
0000
0000
0000
0000
0000
0320
0000
0000
0000
0000
0000
0000
0000
0000
0000
0000
0000
0000
0000
0000
0100
,
0030
0000
0000
0000
0000
0000
0000
0000
0000
0000
0000
0000
0000
0000
0000
0000
0020
0000
0000
0000
0000
0000
0000
0032
0000
0000
0000
0000
0000
0000
0000
0000
,
0000
0000
0000
0003
0000
0000
0000
0000
;

//---------------dance-single - ----------------
#NOTES:
     dance-single:
     :
     Beginner:
     4:
     0.172,0.426,0.153,0.000,0.000:
0000
0000
0000
0000
,
0000
0000
1000
0000
,
0000
0000
0000
0000
,
0000
0000
0001
0000
,
0000
0000
0000
0000
,
0000
0000
0100
0000
,
0000
0000
0000
0000
,
0000
0000
0010
0000
,
0000
0000
0000
0000
,
0000
0000
1000
0000
,
0000
0000
0000
0000
,
0000
0000
0001
0000
,
0000
0000
0000
0000
,
0000
0000
0100
0000
,
0000
0000
0000
0000
,
0000
0000
0010
0010
,
0000
0000
0010
0000
,
0010
0000
1000
1000
,
0000
0000
0000
0000
,
0000
0000
0001
0001
,
0000
0000
0100
0000
,
0000
0000
0010
0000
,
0000
0000
1000
0000
,
0000
0000
0000
0000
,
0000
0000
0000
0000
,
0001
0000
0001
0000
,
1000
0000
1000
0000
,
0000
0000
0001
0000
,
0001
0000
0100
0000
,
0000
0000
0010
0000
,
0000
0000
1000
0000
,
0000
0000
0100
0000
,
0000
0000
0001
0000
,
0000
0000
1001
0000
,
0000
0000
1001
0000
,
0000
0000
1001
0000
,
0000
0000
1001
0000
,
0000
0001
0000
0001
,
0000
0000
0000
0000
,
0000
1000
0000
0000
,
0000
0000
0000
0100
,
0000
0010
0000
0000
,
0000
0000
0000
0000
,
0001
0000
0000
0100
,
0000
0000
0000
0000
,
0000
0000
0000
0000
,
0000
0010
0010
0000
,
0000
0000
0000
0000
,
0010
0000
0000
0000
,
0000
0000
1000
0000
,
0001
0000
0000
0000
,
0000
0000
0000
0000
,
0000
0000
1000
0000
,
0000
0001
0000
0000
,
0100
0000
0000
0010
,
0000
0000
1000
0000
,
1001
0000
0001
0000
,
1000
0000
0100
0100
,
0100
0000
0010
0000
,
1000
0001
0100
0010
,
1001
0000
0000
0000
,
0100
0000
0000
0000
,
0010
0000
0000
0000
,
1000
0000
0000
0000
,
0001
0000
0000
0000
,
1000
0000
0000
0000
,
0100
0000
0000
0000
,
1001
0000
0000
0001
,
0000
0000
1000
0000
,
0000
0010
0000
0000
,
0100
0000
0000
0000
,
0010
0000
0000
1000
,
0000
0000
0001
0000
,
0000
0100
0000
0000
,
0010
0000
0000
1000
,
0000
0000
0001
0000
,
0000
0100
0000
0000
,
0010
0000
0000
1000
,
0000
0000
0001
0000
,
0000
1000
0000
0000
,
0001
0000
0000
0100
,
0000
0000
0010
0000
,
0000
1000
0000
0000
,
0100
0000
0000
1000
,
0000
0000
0010
0000
,
0000
0100
0000
0000
,
0001
0000
0000
1000
,
0000
0000
0001
0000
,
0000
0100
0000
0000
,
0110
0000
0000
0000
,
0000
0000
0000
0000
,
0110
0000
0000
0000
,
0000
0000
0000
0000
,
1001
0000
0000
0000
,
0000
0000
0000
0000
,
1001
0000
0000
0000
,
0000
0000
0000
0000
,
0110
0000
0000
0000
,
0000
0000
0000
0000
,
1001
0000
0000
0000
,
0000
0000
0000
0000
,
0110
0000
0000
0000
,
0000
0000
0000
0000
,
0110
0000
0000
0000
,
0000
0000
1001
1000
,
0000
0000
0000
0000
,
0000
0000
0000
0001
,
0000
0000
0000
0000
,
0000
0000
0000
0100
,
0000
0000
0000
0000
,
0000
0000
0000
0010
,
0000
0000
0000
0010
,
0000
0000
0000
0010
,
0000
0000
0000
0000
,
0000
0000
0000
1000
,
0000
0000
0000
0001
,
0000
0000
0000
0100
,
0000
0000
0000
0000
,
0000
0000
0000
0010
,
0010
0000
0000
0010
,
0000
0000
0000
0110
,
0000
0000
0000
0000
,
0000
0000
0000
0001
,
0000
0000
0000
1000
,
0000
0000
0000
1000
,
0000
0000
0000
0001
,
0000
0000
0000
0100
,
0000
0000
0000
0010
,
0000
0000
0000
1001
,
0000
0000
0000
0000
,
0000
0110
0000
0000
,
0000
0000
0000
1001
,
0000
0000
1000
0000
,
0001
0000
0100
0000
,
0010
0000
1000
0000
,
0000
0000
0001
0000
,
0000
0000
0100
0000
,
0000
0000
0010
0000
,
0000
0000
1000
0000
,
0000
0000
0000
0001
0000
0000
0000
0000
;
