#TITLE:Ghostbusters;
#SUBTITLE:;
#ARTIST:Remixed by DJ Yoshitaka;
#TITLETRANSLIT:;
#SUBTITLETRANSLIT:;
#ARTISTTRANSLIT:;
#CREDIT:;
#BANNER:bn.PNG;
#BACKGROUND:bg.PNG;
#LYRICSPATH:Ghostbusters.lrc;
#CDTITLE:14 Gold.png;
#MUSIC:Ghostbusters.mp3;
#OFFSET:-8.680;
#SAMPLESTART:10.100;
#SAMPLELENGTH:12.000;
#SELECTABLE:YES;
#BPMS:0.000=125.000;
#STOPS:;
#BGCHANGES:;

//---------------dance-single - ----------------
#NOTES:
     dance-single:
     :
     Hard:
     8:
     0.479,0.498,0.303,0.160,0.363:
0000
0000
0000
0000
0000
0000
1000
0001
,
0100
0001
0100
0000
0001
0000
0100
0000
0010
0000
1000
0000
0010
0000
0100
0000
,
1000
0100
1000
0000
1000
0000
0100
0000
0010
0000
0001
0000
0100
0000
0001
0000
,
0010
1000
0010
0000
0100
0000
1000
0000
0100
0000
1000
0000
0100
0000
0010
0000
,
0001
0100
0001
0000
0001
0000
0100
0000
0010
0000
0100
0000
0000
0000
1000
0100
,
1000
0100
1000
0200
0000
0000
0300
0000
,
0001
0100
0001
0100
0001
0000
0100
0000
0000
0000
0000
0000
0000
0000
0010
0100
,
0010
0000
0100
0000
0010
0000
0100
0000
1000
0000
0000
0000
0001
1000
0001
1000
,
0010
1000
0010
1000
0001
0100
0001
0100
0010
0001
0010
0001
0010
0000
0010
0000
,
0200
0000
0000
0000
1300
0000
0100
1000
,
0100
0000
0020
0000
0030
0000
0001
1000
,
0001
0000
0000
0000
0210
0000
0010
0310
,
0000
0000
0000
0000
0000
0000
0000
0000
0000
0000
1000
0100
1000
0000
0100
0000
,
0010
0000
0000
0000
0000
0000
0000
0000
0000
0000
0001
0100
0001
0000
0100
0000
,
0001
0000
2000
0000
3000
0000
0010
0100
,
0020
0000
0000
0000
0000
0000
0000
0000
1030
0000
0000
0000
0001
1000
0001
1000
,
0010
1000
0010
1000
0010
0100
0010
0100
0001
0100
0001
0100
0001
0000
0000
0101
,
0000
0000
0001
0000
0000
0101
0000
0000
0100
0000
0000
0101
0000
0000
0001
0000
,
0000
0101
0000
0000
0001
0000
0010
0000
0100
1000
0100
0000
1000
0000
0000
1100
,
0000
0000
0100
0000
0000
1100
0000
0000
1000
0000
0000
1100
0000
0000
0100
0000
,
0000
1100
0000
0000
0010
0000
0100
0000
0010
0100
0010
0000
0110
0000
0000
0100
,
0000
0000
0110
0000
0000
0010
0000
0000
0110
0000
0000
0100
0000
0000
0010
0000
,
0000
0100
0000
0000
0010
0000
0100
0000
0010
0100
0001
0000
1000
0000
0000
1001
,
0000
0000
0001
0000
0000
1001
0000
0000
0010
0000
0000
0110
0000
0000
0100
0000
,
0000
1100
0000
0000
1000
0000
0000
0000
0100
0000
0010
0001
0010
0000
0100
0000
,
2000
0000
0000
0000
3000
0001
0100
0001
,
0100
0000
0020
0000
0030
0000
1000
0100
,
0010
0000
0000
0000
0101
0000
0010
0020
,
0000
0000
0030
0000
0000
0001
1000
0001
,
0020
0000
0030
0000
0000
0100
0001
0010
,
2000
0000
0002
0000
3003
0000
1000
0100
,
0010
0000
0000
0000
0000
0000
0000
0000
0001
0000
0000
0000
1000
0100
1000
0100
,
0010
0001
0010
0100
0001
0100
0001
0100
0010
1000
0010
1000
0010
0000
1000
0000
,
0200
0000
0000
0000
1000
0000
0000
0000
0310
0000
0000
0000
0001
0000
0000
0010
,
0000
0100
1100
0000
0000
0000
0010
0100
,
0002
0000
1000
0000
0103
0000
0000
0010
,
0001
0010
0001
0010
0100
1000
0100
1000
,
0200
0000
0000
0000
0010
0000
0000
0000
0301
0000
0000
0000
1000
0000
0000
0001
,
0000
0100
0110
0000
0000
0000
0010
0100
,
0020
1000
0031
0101
,
1100
0000
1010
0000
0011
0000
1000
0100
,
0010
0001
0010
0000
0100
0000
0001
0000
0100
0000
0001
0000
0010
0000
1000
0000
,
0010
1000
0010
0000
1000
0000
0100
0000
0010
0000
0001
0000
1000
0001
1000
0001
,
1000
0001
0100
0010
0120
0000
0100
0130
,
0000
0000
0000
0000
0000
0000
0000
0000
0000
0000
0000
0000
0000
0000
1000
0100
,
1000
0100
0010
0002
0000
0000
0003
0000
,
0100
0001
0100
0001
0100
0000
0001
0000
0000
0000
0000
0000
0000
0000
0010
0100
,
0010
0000
0100
0000
0010
0000
0100
0000
0010
0000
0000
0000
1000
0100
1000
0100
,
0010
0100
0010
0100
0010
0001
0010
0100
0001
0100
0001
0100
0001
0000
0000
0101
,
0000
0000
0010
0000
0000
0100
0000
0000
1100
0000
0000
1000
0000
0000
0100
0000
,
0000
0010
0000
0000
0001
0000
1000
0000
0001
1000
0001
0000
0110
0000
0000
0010
,
0000
0000
0110
0000
0000
0100
0000
0000
1100
0000
0000
1000
0000
0000
1100
0000
,
0000
0010
0000
0000
0001
0000
0100
0000
0001
1000
0001
0000
1010
0000
0000
0010
,
0000
0000
0110
0000
0000
0010
0000
0000
0011
0000
0000
0100
0000
0000
0101
0000
,
0000
0010
0000
0000
1000
0000
0100
0000
0010
0001
0100
0000
1001
0000
0000
0010
,
0000
0000
0110
0000
0000
1000
0000
0000
1100
0000
0000
0100
0000
0000
0110
0000
,
0000
0001
0000
0000
2000
0000
0000
0000
0002
0000
0000
0000
3003
0000
0000
0000
;

//---------------dance-single - ----------------
#NOTES:
     dance-single:
     :
     Medium:
     5:
     0.350,0.341,0.040,0.303,0.128:
0000
0000
0000
0010
,
0100
0000
1000
0100
0010
0001
0010
0000
,
0100
0000
0001
1000
0010
0100
1000
0000
,
0100
0000
0001
1000
0001
0100
0010
0000
,
0100
0000
0010
0100
1000
0001
0000
0100
,
1000
0100
1000
0200
0000
0000
0000
0000
,
0310
0010
0001
0010
0000
0000
0000
0100
,
0010
0100
0010
0100
1000
0000
0002
2000
,
0000
0000
0000
0000
3003
0000
1000
0100
,
2000
0000
0000
0000
3000
0000
0010
0100
,
0020
0000
0200
0000
0330
0000
0001
1000
,
0020
0000
0000
0000
0130
0000
0100
0200
,
0000
0300
0000
0000
0000
1000
0100
0010
,
0002
0000
0000
0000
0000
0003
1000
0100
,
0020
0000
0002
0000
0000
0030
0103
1000
,
0010
0000
0000
0000
0110
0000
0020
0200
,
0000
0000
0000
0000
0000
0000
0000
0000
0000
0000
0330
0000
1000
0000
0000
0001
,
0000
0000
0100
0000
0000
0010
0000
0000
0100
0000
0000
1000
0000
0000
0100
0000
,
0000
0010
0000
0000
0001
0000
0100
0000
0001
0000
0000
0000
0100
0000
0000
1000
,
0000
0000
0010
0000
0000
0100
0000
0000
0001
0000
0000
1000
0000
0000
0010
0000
,
0000
0100
0000
0000
1000
0000
0100
0000
0010
0000
0000
0000
0001
0000
0000
1000
,
0000
0000
0010
0000
0000
0100
0000
0000
1000
0000
0000
0010
0000
0000
0001
0000
,
0000
0100
0000
0000
1000
0000
0100
0000
0010
0000
0000
0000
0001
0000
0000
1000
,
0000
0000
0010
0000
0000
0100
0000
0000
1000
0000
0000
0010
0000
0000
0100
0000
,
0000
0001
0000
0000
0100
0000
1000
0000
0010
0000
0100
0000
0001
0000
1000
0000
,
0100
0000
0000
0000
0000
0000
0010
1000
,
0002
0000
2000
0000
3003
0000
0100
1000
,
0010
0000
0000
0000
0001
0000
0200
2000
,
0000
0300
3000
0000
0000
0010
0100
1000
,
0002
0000
0000
0000
0000
0003
1000
0100
,
0020
0000
0002
0000
0000
0030
0103
1000
,
0010
0000
0000
0000
0010
0000
0020
0200
,
0000
0000
0000
0000
0330
0000
0001
2000
,
0010
0010
3010
0002
,
0100
0000
0013
0000
0000
0000
1000
0200
,
0010
0001
1300
0020
,
0130
0000
1000
0000
0001
0000
0010
0002
,
1000
0100
0013
0100
,
1000
0000
0010
0100
0001
0000
0010
2000
,
0100
0000
0100
0000
0010
3000
0101
0000
,
1100
0000
0011
0000
1001
0000
1000
0001
,
0100
0000
1000
0000
0100
0000
0010
0100
,
0001
0000
0010
0000
0100
0000
1000
1000
,
0200
0000
0000
0000
0310
0000
0001
0002
,
0000
0000
0103
1000
0100
0000
0010
0100
,
0010
0000
1000
0200
0000
0000
0000
0300
,
0010
0100
0010
0200
0000
0000
0300
1000
,
0001
1000
0001
1000
0002
0000
0203
0000
,
0320
0000
0000
0000
2030
0000
0000
0000
3001
0000
0100
0000
0010
0000
0000
0010
,
0000
0000
0010
0000
0000
0010
0000
0000
0010
0000
0000
0010
0000
0000
0010
0000
,
0000
0010
0000
0000
0010
0000
0100
0000
0010
0000
0100
0000
1000
0000
0000
1000
,
0000
0000
1000
0000
0000
1000
0000
0000
1000
0000
0000
1000
0000
0000
1000
0000
,
0000
1000
0000
0000
0010
0000
1000
0000
0001
0000
0010
0000
0100
0000
0000
0100
,
0000
0000
0100
0000
0000
0100
0000
0000
0100
0000
0000
0100
0000
0000
0100
0000
,
0000
0100
0000
0000
0010
0000
1000
0000
0010
0000
0100
0000
0001
0000
0000
0001
,
0000
0000
0001
0000
0000
0001
0000
0000
0001
0000
0000
0001
0000
0000
0001
0000
,
0000
0001
0000
0000
0001
0000
1000
0000
0010
0000
0200
0000
0002
0000
0000
0000
,
0303
0000
0000
0000
;

//---------------dance-single - ----------------
#NOTES:
     dance-single:
     :
     Easy:
     3:
     0.237,0.296,0.168,0.248,0.000:
0000
0000
0000
1000
,
0000
0001
0001
0001
,
0000
0100
0100
0100
,
0000
0010
0010
0010
,
0000
1000
1000
0000
,
0200
2000
3300
0000
,
0010
0022
0033
0000
,
0200
1300
0001
2002
,
0000
0000
3003
1000
,
0100
0000
0000
0010
,
0001
2000
3000
0100
,
0010
0000
1001
0220
,
0000
0330
0000
1000
,
0001
0000
0000
0010
,
0100
2000
0000
3100
,
0001
0000
0010
0220
,
0000
0000
0330
1000
,
0000
0001
0000
0000
0100
0000
0000
0010
,
0000
1000
0001
0100
,
0000
0010
0000
0000
1000
0000
0000
0100
,
0000
0010
0001
0100
,
0000
0001
0000
0000
1000
0000
0000
0010
,
0000
0100
1000
0001
,
0000
0010
0000
0000
0100
0000
0000
1000
,
0000
0010
0100
1000
,
0100
0000
0000
0010
,
0001
0220
0300
0130
,
1000
0000
1001
0220
,
0330
0000
0000
0001
,
1000
0000
0000
0100
,
0010
0000
0000
2000
,
0200
0300
3100
0220
,
0000
0000
0330
1000
,
0100
0010
0001
0002
,
0000
0000
0003
0100
,
1000
0010
0001
0200
,
0000
0000
0300
1000
,
0010
0100
2000
0020
,
3000
0130
0000
0001
,
0100
1000
0010
1001
,
1001
1001
1001
0001
,
0100
1000
0010
0001
,
0100
1000
0020
0130
,
1001
0000
0110
0020
,
0130
1000
0100
0010
,
0011
0010
0000
0000
,
0100
2000
3100
0000
,
0010
0001
0100
0110
,
0110
0110
0120
0130
,
0000
1000
0000
0000
0010
0000
0000
0001
,
0000
0100
1000
0001
,
0000
0010
0000
0000
0100
0000
0000
1000
,
0000
0100
1000
0001
,
0000
1000
0000
0000
0100
0000
0000
0010
,
0000
0001
1000
0100
,
0000
0010
0000
0000
0001
0000
0000
0100
,
0000
1000
0100
2002
,
3003
0000
0000
0000
;

//---------------dance-single - ----------------
#NOTES:
     dance-single:
     :
     Challenge:
     9:
     0.590,0.589,0.631,0.176,0.455: // measure 1
0000
0000
0000
0000
0000
0000
1000
0001
,  // measure 2
0100
0001
0100
0000
0010
0000
1000
0000
0001
0000
0100
0000
1000
0000
0100
0000
,  // measure 3
0010
0001
0010
0000
0100
0000
0001
0000
1000
0000
0010
0000
1000
0000
0100
0000
,  // measure 4
0010
0001
0010
0000
0100
0000
0001
0000
1000
0000
0001
0000
1000
0000
0010
0000
,  // measure 5
0100
0010
0100
0000
1000
0000
0100
0000
0010
0000
0001
0000
0010
0000
1000
0100
,  // measure 6
0010
0001
0100
0202
0303
0000
0000
0000
,  // measure 7
0010
1000
0010
1000
0001
0000
0100
0000
0000
0000
0000
0000
0000
0000
1000
0100
,  // measure 8
1000
0000
0100
0000
0010
0000
0001
0000
0010
0000
0100
0000
0010
0100
0001
1000
,  // measure 9
0010
1000
0001
0100
0010
1000
0001
0100
1000
0100
0010
0001
0010
0000
0001
0000
,  // measure 10
0200
0000
0000
0000
0301
0000
0000
0000
0100
0000
0010
0100
0010
0000
0100
0000
,  // measure 11
1000
0000
0000
0000
0100
0000
2000
0200
3300
0000
0000
0000
0010
0001
0010
0001
,  // measure 12
0010
0001
0200
0000
0310
0000
0110
1001
,  // measure 13
0000
0000
0000
0000
0000
0000
0000
0000
0000
0000
1000
0100
1000
0000
0100
0000
,  // measure 14
0020
0000
0000
0000
0001
0000
0000
0000
0031
0000
0100
0001
0100
0000
0001
0000
,  // measure 15
0200
0000
0000
0000
0310
0000
0010
0100
0000
0000
0000
0000
1000
0100
0010
0001
,  // measure 16
0010
0000
0100
0000
0002
0000
0000
0000
0103
0000
0000
0000
1000
0100
0010
0001
,  // measure 17
0010
0100
0001
1000
0001
1000
0001
1000
0010
1000
0010
1000
0001
0000
0000
0011
,  // measure 18
0000
0000
0011
0000
0000
0011
0000
0000
0011
0000
0000
0011
0000
0000
0011
0000
,  // measure 19
0000
0011
0000
0000
0001
0000
0010
0000
0100
1000
0100
0000
1100
0000
0000
1100
,  // measure 20
0000
0000
1100
0000
0000
1100
0000
0000
1100
0000
0000
1100
0000
0000
1100
0000
,  // measure 21
0000
1100
0000
0000
1000
0000
0100
0000
0010
1000
0010
0000
1010
0000
0000
1010
,  // measure 22
0000
0000
1010
0000
0000
1010
0000
0000
1010
0000
0000
1010
0000
0000
1010
0000
,  // measure 23
0000
1010
0000
0000
0010
0000
1000
0000
0001
0100
0001
0000
0101
0000
0000
0101
,  // measure 24
0000
0000
0101
0000
0000
0101
0000
0000
0101
0000
0000
0101
0000
0000
0101
0000
,  // measure 25
0000
0101
0000
0000
0101
0000
0000
0000
1000
0000
1000
0100
1000
0000
0100
0000
,  // measure 26
0020
0000
0000
0000
0030
0000
0000
0000
0000
0000
0001
0100
0001
0000
0100
0000
,  // measure 27
0001
0000
0000
0000
0010
0000
0002
0010
0000
0000
0003
0000
1000
0100
1000
0100
,  // measure 28
1000
0000
0000
0000
0110
0000
1001
1001
,  // measure 29
0000
0000
0000
0000
0000
0000
0000
0000
0000
0000
1000
0100
1000
0100
1000
0000
,  // measure 30
2000
0000
0000
0000
3000
0000
0000
0000
0000
0000
0001
0100
0001
0000
0100
0000
,  // measure 31
0001
0000
0000
0000
1000
0000
0020
1000
0000
0000
0030
0000
1000
0100
1000
0100
,  // measure 32
2000
0000
0000
0000
0000
0000
0000
0000
3010
0000
0000
0000
0001
1000
0010
1000
,  // measure 33
0001
0100
0010
1000
0001
0100
1000
0100
0010
0001
0010
0100
1000
0000
0100
0000
,  // measure 34
0020
0000
0000
0000
0001
0000
0000
0000
0130
0000
0000
0000
1000
0000
1000
0100
,  // measure 35
0000
0100
0010
0000
0011
0000
0000
0000
0000
0000
0000
0000
0001
0000
0010
0000
,  // measure 36
0200
0000
0000
0000
0010
0000
0000
0000
0310
0000
0000
0000
0000
0000
0010
0100
,  // measure 37
0010
0000
0100
0000
1000
0100
1000
0100
1000
0000
0100
0000
1000
0000
0100
0000
,  // measure 38
0020
0000
0000
0000
0001
0000
0000
0000
0031
0000
0000
0000
0001
0000
0001
0100
,  // measure 39
0000
0010
1000
0000
1001
0000
0000
0000
0000
0000
0000
0000
0100
0000
1000
0000
,  // measure 40
0100
0010
0001
1200
,  // measure 41
0001
0000
1000
0000
0301
0000
0010
1000
,  // measure 42
0001
0100
0001
0000
0001
0000
0010
0000
0100
0000
1000
0000
0100
0000
0010
0000
,  // measure 43
0001
1000
0001
0000
0020
0000
1030
0000
0002
0000
1003
0000
0001
0100
0001
0100
,  // measure 44
0001
0010
0100
1000
1100
0010
0001
0001
,  // measure 45
1000
0001
1000
0000
0010
0000
0100
0000
0010
0000
1000
0000
0100
0000
1000
0100
,  // measure 46
1000
0100
0010
0001
0100
0001
0100
0001
,  // measure 47
0010
1000
0010
1000
0010
0000
1000
0000
0100
0000
0010
0000
0001
0000
1000
0001
,  // measure 48
1000
0000
0010
0000
0100
0000
1000
0000
1100
0000
0000
0000
1000
0100
0010
0001
,  // measure 49
0010
0100
0001
0100
0010
1000
0001
1000
0010
1000
0001
0100
1100
0000
0000
0011
,  // measure 50
0000
0000
0110
0000
0000
1100
0000
0000
0011
0000
0000
0101
0000
0000
0110
0000
,  // measure 51
0000
1100
0000
0000
0110
0000
0001
0000
1000
0010
0100
0000
0110
0000
0000
0110
,  // measure 52
0000
0000
1001
0000
0000
1100
0000
0000
0011
0000
0000
0101
0000
0000
1100
0000
,  // measure 53
0000
0011
0000
0000
0110
0000
0001
0000
1000
0100
0010
0000
0011
0000
0000
1100
,  // measure 54
0000
0000
0101
0000
0000
1010
0000
0000
1100
0000
0000
0011
0000
0000
1001
0000
,  // measure 55
0000
1100
0000
0000
0011
0000
1000
0000
0001
1000
0001
0000
1001
0000
0000
0101
,  // measure 56
0000
0000
0011
0000
0000
1100
0000
0000
1010
0000
0000
1100
0000
0000
0011
0000
,  // measure 57
0000
1100
0000
0000
1002
0000
0000
0000
2000
0000
0000
0000
3003
0000
0000
0000
;

//---------------dance-single - ----------------
#NOTES:
     dance-single:
     :
     Beginner:
     1:
     0.050,0.089,0.032,0.000,0.000:
0000
0000
0000
0100
,
0000
0000
0000
0000
,
0000
0000
0000
0000
,
0000
0000
0000
0000
,
0000
0000
0000
0000
,
1000
0000
0000
0000
,
0001
0000
0000
0000
,
0100
0000
0000
1001
,
0000
0000
0000
1000
,
0000
0000
0000
0000
,
0000
0000
0000
0001
,
0000
0000
0000
0010
,
0000
0000
0000
0100
,
0000
0000
0000
0100
,
0000
0000
0000
0010
,
0000
0000
0000
1001
,
0000
0000
0000
1000
,
0000
0000
0000
0000
,
0000
0000
0000
0001
,
0000
0000
0000
0000
,
0000
0000
0000
0010
,
0000
0000
0000
0000
,
0000
0000
0000
0100
,
0000
0000
0000
0000
,
0000
0000
0000
1000
,
0000
0000
0000
0000
,
0000
0000
0000
0001
,
0000
0000
0000
0000
,
0000
0000
0000
0010
,
0000
0000
0000
0000
,
0000
0000
0000
0100
,
0000
0000
0000
1000
,
0000
0000
0000
0000
,
0001
0000
0000
0000
,
0000
0000
0000
0000
,
1000
0000
0000
0000
,
0000
0000
0000
0000
,
0010
0000
0000
0000
,
0000
0000
0000
0000
,
0100
0000
0000
0000
,
0000
0000
0000
1001
,
0000
0000
0000
0000
,
0000
0000
0000
0001
,
0000
0000
0000
1000
,
0000
0000
0000
0000
,
0010
0000
0000
0000
,
0100
0000
0000
0000
,
0001
0000
0000
1001
,
0000
0000
0000
1000
,
0000
0000
1000
0000
,
0000
0000
0000
0001
,
0000
0000
0001
0000
,
0000
0000
0000
0100
,
0000
0000
0100
0000
,
0000
0000
0000
0010
,
0000
0000
0010
0000
;
