#TITLE:Ganymede;
#SUBTITLE:;
#ARTIST:玄武;
#TITLETRANSLIT:;
#SUBTITLETRANSLIT:;
#ARTISTTRANSLIT:genbu;
#CREDIT:;
#BANNER:bn.PNG;
#BACKGROUND:bg.PNG;
#LYRICSPATH:;
#CDTITLE:13 dd.png;
#MUSIC:Ganymede.mp3;
#OFFSET:-0.535;
#SAMPLESTART:37.830;
#SAMPLELENGTH:13.030;
#SELECTABLE:YES;
#DISPLAYBPM:*;
#BPMS:0.000=82.000,159.000=78.000,161.000=75.000,162.000=72.000,163.000=78.000;
#STOPS:;
#BGCHANGES:;

//---------------dance-single - ----------------
#NOTES:
     dance-single:
     :
     Hard:
     10:
     0.578,0.800,0.307,0.245,0.828:
0000
0000
0000
0000
,
0000
0000
0000
0000
,
0000
0000
0000
0000
,
0000
0000
0000
0000
,
0000
0000
0000
0000
0000
0000
0000
0000
0000
0000
0000
0000
1000
0100
0010
0001
,
0010
0000
0100
0000
1000
0000
0100
0000
0001
0000
1000
0000
0010
1000
0010
1000
,
0010
0000
0100
0000
1000
0000
0100
0000
0001
0000
0010
0000
0001
1000
0010
0100
,
1000
0000
0100
0000
0010
0000
0001
0000
0100
0000
1000
0000
0001
0010
0100
1000
,
0010
0000
0100
0000
1000
0000
0100
0000
0001
0001
0001
0001
1001
0000
0000
0000
,
1020
0130
0012
0103
2100
3010
0120
0130
,
2100
3010
0012
0103
0120
1030
2100
3010
,
0012
0103
0021
0130
1020
0130
1002
0103
,
2100
3010
0012
0103
0120
0130
1001
1010
,
0000
0000
0000
0000
0000
0000
0011
1100
,
0000
0000
0000
0000
0000
0000
0000
0000
0000
0000
0000
0000
0000
0000
0000
0000
0000
0000
0000
0000
0000
0000
0001
0100
0001
0000
0000
0000
1010
0000
0000
0000
,
0000
0000
0000
0000
0000
0000
0000
0000
0000
0000
0100
0100
1100
0000
0011
0000
,
0000
0000
0101
0000
0000
0000
1010
0000
0000
0000
1001
0000
0000
0000
0100
1000
0100
0000
0001
0000
0100
0000
1000
0000
1100
0000
0000
0000
1100
0000
0000
0000
,
0010
0100
1100
1100
0010
1000
0101
0011
,
0010
0000
0100
0000
1010
0000
0110
0000
0001
0000
1000
0100
1100
0000
0110
0000
,
0001
0100
1000
0100
0010
1000
1001
1001
,
0010
0000
0000
0000
0100
0000
0000
0000
1000
0000
1000
0000
1100
0000
0100
0000
0010
0000
0001
0100
0001
0000
0001
0000
2000
3000
0000
0000
0000
0000
0000
0000
,
0000
0000
0000
0000
0000
0000
0000
0000
0200
0300
0000
0000
0000
0000
0000
0000
0000
0000
0000
0000
0000
0000
0000
0000
0020
0030
0000
0000
0000
0000
0000
0000
,
0000
0000
0000
0000
0000
0000
0000
0000
0000
0000
0000
0000
0000
0000
0000
0000
0000
0000
0000
0000
0000
0000
0000
0000
0002
0003
0000
0000
0000
0000
0000
0000
,
0000
0000
0000
0000
0000
0000
0000
0000
0020
0030
0000
0000
0000
0000
0000
0000
0000
0000
0000
0000
0000
0000
0000
0000
0200
0300
0000
0000
0000
0000
0000
0000
,
0000
0000
0000
0000
0000
0000
0000
0000
0000
0000
0000
0000
0000
0000
0000
0000
0000
0000
0000
0000
0000
0000
0000
0000
2000
3000
0000
0000
0000
0000
0000
0000
,
2002
0000
0000
0000
0000
0000
0000
0000
0000
0000
0000
0000
0000
0000
0000
3003
0000
0000
1000
0100
1000
0100
1000
0100
,
1000
0100
1000
0100
1000
0100
1000
0100
1000
0100
1000
0100
1000
0100
1000
0100
1000
0100
0010
1000
0010
1000
0010
1000
,
0010
1000
0010
1000
0010
1000
0010
1000
0010
1000
0010
1000
0010
1000
0010
1000
0010
1000
0010
0001
0010
0001
0010
0001
,
0010
0001
0010
0001
0010
0001
0010
0001
0010
0001
0010
0001
0010
0001
0010
0001
0010
0001
0100
0001
0100
0001
0100
0001
,
0100
0001
0100
0001
0100
0001
0100
0001
0100
0001
0100
0001
0100
0001
0100
0001
0100
0001
1000
0100
0010
0001
0010
0100
,
1000
0100
0010
0001
0010
0100
1000
0100
0010
0001
0010
0100
1000
0100
0010
0001
0010
0100
0001
0010
0100
1000
0100
0010
,
0001
0010
0100
1000
0100
0010
0001
0010
0100
1000
0100
0010
0001
0010
0100
1000
0100
0010
0100
0001
1000
0010
1000
0001
,
0100
0001
1000
0010
1000
0001
0100
0001
1000
0010
1000
0001
0100
0001
1000
0010
1000
0001
0010
0100
0001
1000
0001
0100
,
0010
0100
0001
1000
0001
0100
0010
0100
0001
1000
0001
0100
0010
0100
0001
1000
0001
0100
0010
1000
0010
1000
0010
0000
,
0001
0100
0001
0100
0001
0000
0100
0010
0001
0010
0100
1000
0010
0100
0001
1000
0100
0010
1000
0100
1000
0100
1000
0000
,
0010
0001
0010
0001
0010
0000
0001
1000
0010
1000
0001
0100
1000
0001
0010
0100
0001
1000
0100
0001
0100
0001
0100
0000
,
1000
0010
1000
0010
1000
0000
0010
0100
1000
0100
0010
0001
0100
0010
1000
0001
0010
0100
1000
0100
1000
0100
1000
0100
,
0010
0100
0010
0100
0010
0001
0010
0001
0010
1000
0100
0010
0001
0100
1000
0010
1000
0001
0100
0000
0000
1000
0000
0000
,
0010
0000
0100
0000
1000
0000
0001
0000
0010
0000
0000
0100
1000
0000
0100
0000
,
0010
0000
1000
0000
0001
0000
0100
0000
1000
0000
0000
0010
0100
0000
1000
0000
,
0100
0000
0010
0000
0001
0000
0010
0000
0100
0000
0010
0001
2000
0000
3000
0000
,
2000
0000
0000
0000
3000
0000
0000
0000
2000
0000
0000
0000
3000
0000
0000
0000
2000
0000
0000
0000
3000
0000
0000
0000
2000
0000
0000
0000
3000
0000
0000
0001
,
2000
3000
2000
3000
2000
3000
0000
0000
;

//---------------dance-single - ----------------
#NOTES:
     dance-single:
     :
     Medium:
     6:
     0.340,0.572,0.146,0.192,0.180:
0000
0000
0000
0000
,
0000
0000
0000
0000
,
0000
0000
0000
0000
,
0000
0000
0000
0000
,
0000
0000
0000
0000
0000
0000
1000
0100
,
0010
0001
0100
1000
0010
0001
0010
0100
,
1000
0100
0010
1000
0001
1000
0001
0100
,
1000
0100
0010
0001
1000
0010
0001
0100
,
1000
0000
0100
0000
0010
0000
0001
0000
0100
1000
0100
1000
0100
0000
0001
0000
,
2000
3100
0020
0031
0200
0301
0020
1030
,
0200
0310
2000
3100
0020
0031
0200
0310
,
2000
3100
0200
0310
0020
0031
0002
1003
,
0002
0000
0103
0000
0020
0000
1030
0000
0002
0000
1003
0100
0001
0000
1001
0000
,
0000
0000
0000
0000
0000
0000
1010
0110
,
0000
0000
0000
0000
0000
0000
0011
1100
,
0000
0000
0000
0000
0000
0000
0000
0000
0000
0000
0001
1000
1001
0000
1001
0000
,
0000
0010
0000
0100
0000
1000
0000
0100
1000
0100
0010
0001
0010
0000
0100
0000
,
1100
0100
0110
0010
0011
0001
0021
0000
,
0001
0000
0000
0000
0200
0000
0000
0030
1000
0000
0000
0000
1300
0000
0100
0000
,
0010
1000
1001
0010
0100
1000
1010
0001
,
0100
0000
1000
0000
1000
0100
0010
1000
0001
0100
0010
1000
0010
0000
0000
0000
,
0000
1000
0000
0010
,
0000
0000
0000
0001
,
0000
0100
0000
0010
,
0000
0000
0000
1000
,
2002
0000
0000
0000
3003
0000
1000
0100
,
0010
0001
1000
0010
0100
1000
0001
0010
,
1000
0100
0010
0001
1000
0100
0001
1000
,
0100
0010
1000
0001
0010
0100
1000
0010
,
1000
0100
0010
0001
0010
0001
0101
0010
,
0100
1000
0001
0100
1000
0100
1010
0100
,
1000
0100
0001
1000
0010
0100
0101
0010
,
1000
0001
0100
1000
0001
0010
0110
1000
,
0001
0000
0000
0100
0000
0000
1001
0000
0000
0010
0000
0000
0100
0000
0000
1000
0000
0000
0100
0010
0100
0010
0100
0000
,
0010
0000
0100
0000
0010
0000
0100
0000
0010
0000
0000
0000
1000
0000
0000
0100
0000
0000
0010
0000
0000
0001
0000
0000
0020
0000
0000
0000
0000
0000
0100
0000
0000
0000
0000
0000
0031
0000
1000
0000
0001
0000
1000
0000
0001
0000
0000
0000
,
1000
0000
0001
0000
1000
0000
0001
0000
1000
0000
0000
0000
0100
0000
0000
0001
0000
0000
1000
0000
0000
0010
0000
0000
2000
0000
0000
0000
0000
0000
0001
0000
0000
0000
0000
0000
3010
0000
1000
0000
0010
0000
1000
0000
0010
0000
0000
0000
,
1000
0000
0010
0000
1000
0000
0010
0000
1000
0000
0000
0000
0001
0000
0000
0010
0000
0000
1000
0000
0000
0100
0000
0000
2000
0000
0000
0000
0000
0000
0010
0000
0000
0000
0000
0000
3100
0000
0001
0000
0100
0000
0001
0000
0100
0000
0000
0000
,
0001
0000
0100
0000
0001
0000
0100
0000
0001
0000
0000
0000
0010
0000
0000
0100
0000
0000
0001
0000
0000
1000
0000
0000
0002
0000
0000
0000
0000
0000
0100
0000
0000
0000
0000
0000
0103
0000
0000
0000
0000
0000
0000
0000
0000
0000
0000
0000
,
1000
0000
0000
0000
0010
0000
0000
0000
0001
0000
0000
0100
1000
0000
0000
0000
,
0010
0001
1000
0100
,
0010
0001
0200
2000
,
0000
0000
0000
0000
,
0000
0000
0000
0000
0000
3300
0000
0000
;

//---------------dance-single - ----------------
#NOTES:
     dance-single:
     :
     Easy:
     2:
     0.130,0.265,0.015,0.222,0.000:
0000
0000
0000
0000
,
0000
0000
0000
0000
,
0000
0000
0000
0000
,
0000
0000
0000
0000
,
0000
0000
0000
1000
,
0100
0010
0001
0010
,
0100
1000
0001
0010
,
0100
1000
0010
0001
,
0100
1000
0020
0130
,
1000
0100
0010
0001
,
0000
0010
0100
1000
,
0000
0001
0000
0100
,
0000
0000
0010
0000
0000
0000
1000
1000
,
0000
0000
0000
0000
0000
0000
0010
0010
,
0000
0000
0000
0000
0000
0000
0100
0100
,
0000
0000
0000
0000
0000
0000
0001
0001
,
0000
0000
0000
0000
,
1000
0010
0001
0100
,
0000
1000
0100
0001
,
0000
1000
0000
0010
,
0000
0001
0100
1000
,
0000
0002
0003
1000
,
0000
0000
0000
0010
,
0000
0010
0000
0100
,
0000
0000
0000
0000
,
2000
0000
0000
0000
0000
3000
0202
0000
,
0000
0000
0000
0000
0000
0300
0020
0000
,
0000
0000
0000
0000
0000
0003
0200
0000
,
0000
0000
0000
0000
0000
0030
2000
0000
,
0000
0000
0000
0000
0000
3300
2020
0000
,
0000
0000
0000
0000
0000
3000
0200
0000
,
0000
0000
0000
0000
0000
0030
0002
0000
,
0000
0000
0000
0000
0000
0300
0020
0000
,
0000
0000
0000
0000
0000
0033
2000
3000
,
0200
0300
0020
0000
0032
0000
0023
0030
,
0200
0300
2000
0000
0200
3300
0020
0030
,
0002
0003
2000
0000
3020
0000
0230
0000
,
0302
2003
3200
0301
,
0001
0001
0001
0001
,
1000
0100
0010
0001
,
0000
1000
0000
0100
;

//---------------dance-single - ----------------
#NOTES:
     dance-single:
     :
     Beginner:
     1:
     0.057,0.109,0.031,0.000,0.000: // measure 1
0000
0000
0000
0000
,  // measure 2
0000
0000
0000
0000
,  // measure 3
0000
0000
0000
0000
,  // measure 4
0000
0000
0000
0000
,  // measure 5
0000
0000
0000
1000
,  // measure 6
0000
0000
0000
0000
,  // measure 7
0000
0000
0000
0001
,  // measure 8
0000
0000
0000
0000
,  // measure 9
0000
0000
0000
0000
,  // measure 10
0010
0000
0000
1000
,  // measure 11
0000
0001
0000
0001
,  // measure 12
0000
1000
0000
0100
,  // measure 13
0000
0010
0000
1001
,  // measure 14
0000
0000
0000
1001
,  // measure 15
0000
0000
0000
1001
,  // measure 16
0000
0000
0000
1001
,  // measure 17
0000
0000
0000
0000
,  // measure 18
0010
0000
0000
0001
,  // measure 19
0000
0000
0000
1000
,  // measure 20
0000
0010
0000
0100
,  // measure 21
0000
0001
0000
0000
,  // measure 22
0000
0000
0000
0000
,  // measure 23
0000
0000
0000
0000
,  // measure 24
0000
0000
0000
0000
,  // measure 25
0000
0000
0000
0000
,  // measure 26
0000
0000
0000
0100
,  // measure 27
0000
0000
0000
0010
,  // measure 28
0000
0000
0000
1000
,  // measure 29
0000
0000
0000
0001
,  // measure 30
0000
0000
0000
0010
,  // measure 31
0000
0010
0000
0010
,  // measure 32
0000
0100
0000
1000
,  // measure 33
0000
1000
0000
0001
,  // measure 34
0000
0001
0000
1000
,  // measure 35
1000
1000
0000
0001
,  // measure 36
0001
0001
0000
0010
,  // measure 37
0010
0010
0000
0100
,  // measure 38
0100
0100
0000
1000
,  // measure 39
0000
0000
0000
0000
,  // measure 40
0001
0000
0000
2000
,  // measure 41
0000
0001
0000
0100
;
