#TITLE:Gabba-Bond;
#SUBTITLE:(4SKIPS vs BIG KISS remix);
#ARTIST:Teranoid and Mc Natsack;
#TITLETRANSLIT:;
#SUBTITLETRANSLIT:;
#ARTISTTRANSLIT:;
#CREDIT:;
#BANNER:bn.PNG;
#BACKGROUND:bg.PNG;
#LYRICSPATH:;
#CDTITLE:;
#MUSIC:Gabba-Bond (4SKIPS vs BIG KISS remix).mp3;
#OFFSET:-0.540;
#SAMPLESTART:50.480;
#SAMPLELENGTH:12.000;
#SELECTABLE:YES;
#BPMS:0.000=84.020,69.000=168.040,70.000=168.040;
#STOPS:68.000=0.180
,68.250=0.180
,68.500=0.180
,68.750=0.180
,229.000=0.179
,229.500=0.180
,230.000=0.180
,230.500=0.180
,231.000=0.240
,231.250=0.140
,231.500=0.320
;
#BGCHANGES:;

//---------------dance-single - ----------------
#NOTES:
     dance-single:
     :
     Hard:
     8:
     0.474,0.666,0.312,0.143,0.446:
0000
0000
0000
0000
,
0000
0000
0000
0000
,
0000
0000
0000
0000
,
0000
0000
0000
0000
,
2000
0000
3002
0000
,
2003
0000
3200
2300
,
3002
0000
0000
0000
,
0203
0000
0320
2030
,
3001
0000
0000
0010
0000
0000
0100
0000
0000
1000
0000
1000
0100
0000
0000
0010
0000
0000
0001
0000
0000
0100
0000
0001
,
0100
0000
0000
0010
0000
0000
0100
0000
0000
1000
0000
1000
0100
0000
0000
0010
0000
0000
0100
0000
0000
1000
0000
1000
,
0001
0000
0000
0001
0000
1000
0010
0000
0000
0001
0000
0010
0100
0000
0000
0001
0000
1000
0100
0000
0000
0020
0000
0000
,
0031
0010
0100
1000
0100
0010
0001
0100
,
2000
0000
0000
3000
,
0001
0000
1000
0000
,
0001
0000
1000
0000
,
0001
1000
0001
1000
0001
1000
0001
1000
,
0001
1000
0001
1000
0001
1000
0001
1000
0001
1000
0001
1000
0001
0000
0000
0000
0000
0000
0000
0000
0000
0000
0000
0000
,
1000
0000
0000
0100
0000
0000
0010
0000
0000
0001
0000
0000
1000
0000
0000
0000
0000
0000
0000
0000
1000
0000
0000
0000
0100
0000
0000
0000
0000
0000
0000
0000
0010
0000
0000
0000
0001
0000
0000
0000
0000
0000
0000
0000
0010
0000
0000
0000
,
0100
0000
0001
1000
0000
0010
1000
0000
0001
0100
0000
0010
,
1000
0000
0001
0100
0000
1000
0100
0000
0010
0001
0000
0010
,
0100
0000
0010
0100
0000
0000
0010
0000
0000
0100
0000
0000
,
1000
0000
1000
0100
0000
0000
0010
0000
0001
0100
0000
0000
,
0010
0000
0010
0100
0000
0000
0010
0000
0010
1000
0000
0000
,
0001
0100
0001
0100
0000
0000
0010
0000
0000
0100
0000
0000
,
1000
0000
0000
0100
0000
0000
0010
0000
0000
0001
0000
0001
,
1000
0000
1000
0001
0000
0010
0100
0000
0010
1000
0000
0001
,
0100
0000
1000
0100
0000
0010
0001
0000
0001
0100
0000
0010
,
1000
0000
0001
1000
0000
0010
1000
0000
0001
0100
0000
1000
,
0100
0000
0010
0001
0000
0011
0000
0000
0000
0100
0000
0000
,
1100
0000
0010
0100
0000
0000
0110
0000
1000
0100
0000
0000
,
1100
0000
0010
0001
0000
0000
0010
0000
0010
0100
0000
0000
,
0010
0100
0010
0100
0000
0000
1000
0000
0000
0100
0000
0000
,
0010
0000
0000
0011
0000
0000
1100
0000
0000
0010
0000
0010
,
1000
0000
0001
0100
0000
0000
1100
0000
0000
0011
0000
0000
,
0110
1001
1100
0110
,
0101
0000
0001
0100
0000
0000
0110
0000
0000
1100
0000
0000
,
0011
0110
1010
0101
,
0110
0000
0001
0100
0000
0000
0110
0000
1000
0100
0000
0000
,
1100
0000
0010
1000
0000
0001
0100
0000
0100
1000
0000
0000
,
0010
0110
0010
1100
,
0010
0000
0000
0011
0000
0000
1100
0000
0000
1000
0000
1000
,
0100
0000
0010
0001
0000
0001
0100
0000
0001
0100
0000
0001
,
0100
0002
1000
0103
,
0000
0000
0000
0010
0000
0010
0100
0000
0001
1000
0000
0010
,
1000
2000
0100
3010
,
1001
0000
0000
0010
0000
0010
0100
0000
0100
0010
0000
0010
,
0100
0200
0010
0310
,
0000
0000
0000
0001
0000
0001
0010
0000
0100
1000
0000
1000
,
0100
0020
1000
0100
,
0031
0000
0000
0001
0000
0001
0100
0000
0001
0100
0000
0010
,
1000
0000
0001
0100
0000
0010
1000
0000
0001
0100
0000
0010
,
1000
0000
0000
1000
0000
1000
0100
0000
0010
0001
0000
0010
,
0100
0000
0001
1000
0000
0010
1000
0000
0000
1000
0000
0000
,
1000
0000
0000
1000
0000
1000
0100
0000
0010
0001
0000
0001
,
0100
0000
0010
1000
0000
0001
0100
0000
1000
0100
0000
0010
,
0001
0000
0000
0010
0000
0010
0100
0000
1000
0100
0000
0001
,
0010
0000
0010
0100
0000
0010
1000
0000
0001
0100
0000
0100
,
1000
0000
0000
0000
0011
0000
1100
0000
0011
0000
0110
0000
1100
0011
0110
1000
,
0100
1000
0100
0010
,
0001
0011
0100
0110
,
1000
2002
0000
0000
,
0000
0000
0000
0000
,
0000
0000
0000
0000
,
0000
3003
0000
0000
;

//---------------dance-single - ----------------
#NOTES:
     dance-single:
     :
     Medium:
     6:
     0.360,0.479,0.396,0.194,0.101:
0000
0000
0000
0000
,
0000
0000
0000
0000
,
0000
0000
0000
0000
,
0000
0000
0000
0000
,
2000
0000
3002
0000
,
2003
0000
3020
2030
,
0020
0000
0000
3000
,
0200
0000
0030
0000
,
0301
1000
1000
1000
,
0100
0010
0001
0010
,
0010
0100
1000
0001
,
0100
1000
0010
0001
,
2000
0000
0000
0000
,
3002
0000
2003
0000
,
3001
0010
0100
1000
,
0100
0100
0100
0100
,
2002
0000
3003
0000
,
0000
1000
0100
0010
,
0001
0010
0100
1000
,
0100
0000
0001
0100
0000
0000
0010
0000
0000
1000
0000
0000
,
0100
0010
0011
0100
,
1100
0000
0010
0100
0000
0000
0010
0000
0010
0100
0000
0000
,
0010
0000
0010
0100
0000
0000
0010
0000
0010
0100
0000
0000
,
2000
3100
0010
0001
,
0100
0000
0000
1000
0000
0000
0100
0000
0000
0010
0000
1000
,
0001
0000
1000
0001
0000
0000
0010
0000
0000
0100
0000
0000
,
1000
0100
0010
0001
,
0100
0000
0010
0100
0000
0000
0100
0000
0000
1000
0000
0000
,
0100
0010
0001
0011
,
0100
0000
1000
0100
0000
0000
0010
0000
0001
0100
0000
0000
,
0010
0000
0010
0100
0000
0000
0001
0000
1000
0010
0000
0000
,
0010
0100
0010
0100
0000
0000
1000
0000
0000
0001
0000
0000
,
0100
0000
0000
0010
0000
0000
0110
0000
0000
1000
0000
1000
,
0100
0000
0010
0001
0000
0000
0011
0000
0000
0100
0000
0000
,
1100
0010
0110
0001
,
0101
0000
0010
0100
0000
0000
0110
0000
0000
1000
0000
0000
,
1100
0010
0011
1100
,
0011
0000
0010
0100
0000
0000
0110
0000
1000
0100
0000
0000
,
1100
0000
0010
0001
0000
0000
0110
0000
0010
0100
0000
0000
,
0000
1001
1010
0101
,
1100
0000
0000
0011
0000
0000
0110
0000
0000
0001
0000
0001
,
1000
1010
0101
1100
,
0011
0102
0010
0103
,
0000
0110
1100
0011
,
1010
2000
0100
0010
,
3001
0110
1100
0011
,
0101
0012
0010
0013
,
0000
0110
1100
0011
,
0110
2100
0100
0010
,
3001
0010
0010
0010
,
0010
0010
0010
0010
,
0110
0100
0100
0100
,
0100
0100
1100
1100
,
1100
1000
1000
1000
,
1000
1000
1000
1000
,
1001
0001
0001
0001
,
0001
0002
2003
3020
,
0230
0000
0000
0000
0301
0000
1000
0000
0001
0000
1000
0000
0001
0100
1000
0100
,
1000
2000
0000
0000
,
0000
0100
0100
0010
,
0001
0002
0000
0000
,
0000
0000
0000
0000
,
0000
0000
0000
0000
,
0000
3003
0000
0000
;

//---------------dance-single - ----------------
#NOTES:
     dance-single:
     :
     Easy:
     4:
     0.262,0.346,0.152,0.076,0.000:
0000
0000
0000
0000
,
0000
0000
0000
0000
,
0000
0000
0000
0000
,
0000
0000
0000
0000
,
2000
0000
0000
0000
,
0000
0000
0000
0000
,
3002
0000
0000
0000
,
0000
0000
0000
0000
,
0103
0100
0100
0100
,
0010
0010
0010
0010
,
0001
1000
0100
0010
,
0002
0000
0000
0000
,
1003
0000
0000
0000
,
0001
0000
0000
0000
,
0010
0000
0000
0000
,
0100
0100
0100
0100
,
0200
0000
0020
0000
,
0330
1000
0001
1000
,
0001
0100
0010
0100
,
0010
1000
0100
0010
,
0001
0100
0101
0010
,
1010
1000
0100
0010
,
0001
0100
1000
0010
,
0002
0103
0010
1000
,
0001
0100
0001
0010
,
0010
0100
1000
0001
,
0100
1000
0100
0001
,
0100
0010
0100
0010
,
1000
0001
0100
1000
,
0100
1000
0100
0010
,
0001
0100
1000
0010
,
0002
0103
0001
0100
,
1000
0100
0010
0001
,
0100
0001
0001
0001
,
0001
0001
0001
0001
,
0001
1000
1000
1000
,
1000
1000
0010
1000
,
0010
0100
0100
0100
,
0100
0100
0100
0100
,
0000
0001
0001
1000
,
1000
0100
0010
0001
,
0100
1000
0001
0100
,
0010
0110
0110
0110
,
0000
1000
0001
0100
,
1000
1010
1010
1010
,
1001
0100
0100
0100
,
0010
1000
1000
1001
,
0000
0010
0001
0100
,
1000
0101
0101
0101
,
0001
0100
0100
0100
,
0100
0100
0100
0100
,
0110
0010
0010
0010
,
0010
0010
0110
0110
,
0110
0001
0001
0001
,
0001
0001
0001
0001
,
1001
1000
1000
1000
,
1000
1000
0001
0100
,
0010
0010
0000
0000
,
0000
1000
0001
0100
,
0010
2000
0100
0010
,
0001
0002
0000
0000
,
0000
0000
0000
0000
,
0000
0000
0000
0000
,
0000
3003
0000
0000
;

//---------------dance-single - ----------------
#NOTES:
     dance-single:
     :
     Beginner:
     1:
     0.053,0.101,0.017,0.000,0.000: // measure 1
0000
0000
0000
0000
,  // measure 2
0000
0000
0000
0000
,  // measure 3
0000
0000
0000
0000
,  // measure 4
0000
0000
0000
0000
,  // measure 5
1000
0000
0000
0000
,  // measure 6
0000
0000
0000
0000
,  // measure 7
0001
0000
0000
0000
,  // measure 8
0000
0000
0000
0000
,  // measure 9
0010
0000
0000
0000
,  // measure 10
0000
0000
0000
0000
,  // measure 11
0100
0000
0000
0000
,  // measure 12
0000
0000
0000
0000
,  // measure 13
1000
0000
0000
0000
,  // measure 14
0000
0000
0000
0000
,  // measure 15
0000
0000
0000
0000
,  // measure 16
0000
0000
0000
0000
,  // measure 17
0100
0000
0010
0000
,  // measure 18
0000
1000
0000
0000
,  // measure 19
0000
0000
0000
0000
,  // measure 20
0000
0001
0000
0000
,  // measure 21
0000
0000
0000
0000
,  // measure 22
0000
0010
0000
0000
,  // measure 23
0000
0010
0000
0000
,  // measure 24
0000
0100
0000
0000
,  // measure 25
0000
0100
0000
1000
,  // measure 26
0000
0001
0000
0000
,  // measure 27
0000
0000
0000
0000
,  // measure 28
0000
1000
0000
0000
,  // measure 29
0000
0000
0000
0000
,  // measure 30
0000
0100
0000
0000
,  // measure 31
0000
0100
0000
0000
,  // measure 32
0000
0010
0000
0000
,  // measure 33
0000
0010
0000
0010
,  // measure 34
0000
0001
0000
0000
,  // measure 35
0000
0000
0000
0000
,  // measure 36
1000
1000
0000
0000
,  // measure 37
0000
0000
0000
0000
,  // measure 38
0000
0100
0000
0100
,  // measure 39
0000
0100
0000
0100
,  // measure 40
0000
0010
0000
0010
,  // measure 41
0000
0010
0000
0000
,  // measure 42
0000
0001
0000
0000
,  // measure 43
0000
0000
0000
0000
,  // measure 44
0000
1000
0000
0000
,  // measure 45
0000
0000
0000
0000
,  // measure 46
0000
1001
0000
0000
,  // measure 47
0000
0000
0000
0000
,  // measure 48
0000
0010
0000
0000
,  // measure 49
0000
0000
0000
0000
,  // measure 50
0000
0100
0000
0000
,  // measure 51
0000
0000
0000
0000
,  // measure 52
0000
0010
0000
0000
,  // measure 53
0000
0000
0000
0000
,  // measure 54
0000
0001
0000
0000
,  // measure 55
0000
0000
0000
0000
,  // measure 56
0000
1000
0000
0000
,  // measure 57
0000
0000
0000
0000
,  // measure 58
0000
0100
0000
0000
,  // measure 59
0000
1000
0000
0000
,  // measure 60
0000
0000
0000
0000
,  // measure 61
0000
0110
0000
0000
;
