#TITLE:GRID KNIGHT;
#SUBTITLE:;
#ARTIST:SAW WAVE SQUAD;
#TITLETRANSLIT:;
#SUBTITLETRANSLIT:;
#ARTISTTRANSLIT:;
#CREDIT:;
#BANNER:bn.PNG;
#BACKGROUND:bg.PNG;
#LYRICSPATH:;
#CDTITLE:iidx.png;
#MUSIC:gridknight.mp3;
#OFFSET:-0.540;
#SAMPLESTART:74.020;
#SAMPLELENGTH:12.000;
#SELECTABLE:YES;
#BPMS:0.000=160.000;
#STOPS:;
#BGCHANGES:;

//---------------dance-single - ----------------
#NOTES:
     dance-single:
     :
     Hard:
     9:
     0.530,0.644,0.402,0.079,0.567:
0000
0000
0000
0000
,
0000
0000
0000
0000
,
0000
0000
0000
0000
,
0000
0000
0000
0000
,
0000
0000
0000
0000
,
1001
1000
0001
0100
,
0010
1000
0010
0100
,
0001
0100
1000
0100
,
1000
0000
0000
0100
0000
1000
0000
0100
0000
0010
0000
0001
,
2000
0000
0000
0000
,
3100
0000
0010
0000
,
0012
0000
0000
0000
0000
0013
0000
0000
0000
0000
0000
0000
,
0020
0000
0130
1000
,
1001
0000
0000
0000
,
0110
0000
0000
0000
,
2100
3100
0012
0013
,
0110
1001
1100
0011
,
0110
1000
0100
0010
,
0011
0000
0000
0100
0000
0000
1000
0000
0100
0000
1000
0000
,
0100
0000
0000
1000
0000
0000
0100
0000
0010
0001
0000
0010
,
0001
0000
0000
0100
0000
0000
0010
0000
0000
0001
1000
0001
,
1000
0100
1000
0100
,
1000
0000
0100
0000
0010
0000
0001
0000
0010
0000
0100
0000
,
1001
0010
0110
0100
,
1000
0100
0010
0001
,
1001
0010
0100
1000
,
1000
0000
1000
0100
0000
0010
0001
0000
0001
0010
0000
0000
,
0011
0010
0100
1000
,
1000
0000
1000
0100
0000
0010
0001
0000
0001
0100
0000
0010
,
1000
0001
1000
0100
,
0010
0000
0010
0100
0000
0100
1000
0000
1000
0100
0000
0010
,
0001
0001
1000
0100
,
0010
0010
0100
0010
,
1001
0000
1000
0100
0000
0010
0001
0000
0001
0010
0000
0000
,
0001
0100
0010
1000
,
0001
0000
0001
1000
0000
1000
0001
0000
0001
0100
0000
0100
,
0010
0000
0000
0010
0000
0000
1000
0000
0000
0100
0000
1000
,
0100
0000
0000
0010
0000
0000
0001
0000
0000
0100
0000
0001
,
0100
0000
0000
0010
0000
1000
0100
0000
0000
0010
0000
0001
,
1000
0000
0010
1000
0000
0001
0100
0000
1000
0100
0000
0000
,
1000
0100
0000
0010
0000
0001
0000
0010
0000
0100
0000
1000
,
0001
0000
0000
0010
1000
0010
1000
0000
0000
1000
0000
0000
,
0100
0000
0000
0010
0001
0010
0001
0000
0000
0100
0000
0000
,
0101
0000
0000
0010
1000
0010
1000
0000
0000
0100
0000
0000
,
1000
0000
0000
0001
1000
0001
1000
0000
0000
0010
1000
0010
,
1000
0000
0000
0100
0000
0000
1000
0100
0010
0001
0000
0010
,
0100
0000
0000
1000
0000
0000
0010
1000
0010
1000
0000
0000
,
1010
0010
0110
0001
,
0001
0000
0001
0010
0000
0010
0100
0000
0100
1000
0000
0000
,
1100
0000
0000
0011
0000
0000
1000
0100
0010
0001
0010
0100
,
1000
0000
0000
0001
0000
0000
0100
0001
0100
0001
0100
0001
,
0100
0000
0000
0110
0000
0000
1000
0100
1000
0100
1000
0100
,
1000
0000
0000
1000
0000
1000
0100
0000
0010
0001
0000
0001
,
0100
0000
0100
0010
0000
0000
0010
0100
0010
0100
0010
0100
,
0010
0000
0001
0010
0000
0100
1000
0100
1000
0100
0000
0000
,
1100
0011
0010
0110
,
1000
0100
0010
0001
0010
0100
1000
0000
0000
0000
0000
0000
,
1001
0000
0000
0110
0000
0000
0010
0000
0010
0100
0000
0100
,
0010
0000
0000
1000
0000
0000
1000
0000
1000
0100
0000
0010
,
0001
0000
0000
0101
0000
0000
0001
0000
0001
0100
0000
0100
,
0001
0000
0000
0110
0000
0000
0010
0100
0010
0100
0010
0100
,
0010
0000
0000
1000
0000
0000
1000
0100
1000
0100
0000
0000
,
0010
0000
0000
0100
0000
0000
0001
0100
0001
0100
0000
0000
,
0001
1000
0001
1000
0000
0000
0010
1000
0010
1000
0000
0000
,
1000
0100
0010
0001
0010
0100
0001
1000
0001
1000
0000
0000
,
0002
0000
0000
1003
,
2000
0000
0000
0000
0000
3100
0000
0000
0000
0010
0000
0000
,
0011
0000
0000
0000
0000
0001
0000
0000
0000
0100
0000
0000
,
2000
0000
0000
3100
,
0110
0000
0000
0010
,
1001
0000
0000
0000
0000
1000
0000
0000
0000
0100
0000
0000
,
1100
0010
0011
0100
,
0000
1100
0000
0011
0000
0110
0000
1001
0000
1100
0000
0001
,
1000
0000
1000
0100
0000
0010
0001
0000
0001
0100
0000
0010
,
1000
0000
0000
0001
0000
0000
0100
0000
1000
0100
0000
0010
,
0001
0000
0000
0100
0000
0000
0010
0000
0000
1000
0000
1000
,
0100
0000
0000
0010
0000
0000
0100
0000
0000
0001
0000
0001
,
0100
0000
0010
1000
0000
0001
0100
0000
1000
0100
0000
0010
,
0001
0000
0010
0100
0000
0001
1000
0000
0010
1000
0000
0010
,
0000
1001
0000
0011
0000
1100
0000
0011
0000
0110
0000
1001
,
0000
1100
0000
0011
0000
1010
0000
0011
0000
0110
0000
0002
,
2000
0000
0000
3003
;

//---------------dance-single - ----------------
#NOTES:
     dance-single:
     :
     Medium:
     7:
     0.431,0.549,0.276,0.102,0.327:
0000
0000
0000
0000
,
0000
0000
0000
0000
,
0000
0000
0000
0000
,
0110
0000
0000
0000
,
0000
0000
0000
0000
,
1001
1000
1000
0001
,
0010
0100
1000
0001
,
0100
0010
1000
0100
,
0001
1000
0001
0100
,
0110
0000
0000
0000
,
0020
0000
0130
0000
,
1100
0000
0000
0000
0000
0001
0000
0000
0000
0000
0000
0000
,
0010
0000
0001
0100
,
0101
0000
0000
0000
,
1010
0000
0000
0000
,
0110
0000
1001
0000
,
1100
0101
0011
1010
,
1001
0001
1000
0100
,
0011
0000
0000
0100
0000
0000
0001
0000
0100
0000
0001
0000
,
0100
0001
1000
0100
,
0020
0031
0200
1300
,
1010
0010
1000
0001
,
0100
0000
0010
0000
0100
0000
0010
0000
0100
0000
0010
0000
,
0100
1000
0100
0010
,
0001
0100
1000
0010
,
1001
0001
1000
0100
,
0010
0000
0000
0000
0000
0002
0000
0000
0003
0100
0000
0000
,
0020
0000
0000
0000
0000
0130
0000
0000
0000
0000
0000
0000
,
1000
0000
0000
0100
0000
0000
0010
0000
0000
0001
0000
0001
,
0100
0000
0000
0000
0000
0010
0000
0000
0000
0000
0000
0000
,
1100
0010
0001
0100
,
2000
0000
0000
0000
,
0001
0000
0002
3003
,
0110
0010
0100
1000
,
0100
0000
0000
0010
0000
0000
0001
0000
0000
0100
0000
0001
,
0100
0001
0100
1000
,
0100
0000
0000
0001
0000
0000
0100
0000
0000
0010
0000
0010
,
1000
0000
0000
1000
0000
0000
0100
0000
0000
0010
0000
0001
,
0010
0000
0000
0001
0000
0000
0100
0000
0000
0010
0000
0010
,
1000
0000
0000
0010
0000
0010
0100
0000
0000
0001
0000
0000
,
1000
0100
1000
0100
,
0010
0000
0000
0001
0000
0001
0100
0000
0000
0001
0000
0000
,
0100
0000
0000
0001
0000
0001
0100
0000
0000
0001
0000
0000
,
1010
0000
0000
0010
0000
1000
0010
0000
0000
1000
0000
0000
,
0010
0000
0000
0010
0000
0010
1000
0000
0000
1000
0000
1000
,
0100
0000
0000
0010
0000
0000
0001
0010
0001
0010
0000
0000
,
0100
0000
0000
0001
0000
0000
0100
0001
0100
0001
0000
0000
,
0010
1000
0010
1000
0000
0000
0010
0100
0010
0100
0000
0000
,
1000
0100
1000
0100
1000
0100
1000
0100
1000
0100
0000
0000
,
0001
0000
0000
1000
0000
0000
0100
0000
0010
0100
0000
0010
,
0100
0000
0000
0010
0000
0000
1000
0000
0000
0001
0000
0001
,
0100
0000
0000
0001
0000
0000
0100
0000
0010
0100
0000
0010
,
0100
0100
1000
0100
,
0001
0000
0000
1000
0000
0000
0001
0000
0001
1000
0000
1000
,
0001
0001
0100
0001
,
0101
0010
1010
0010
,
0001
1000
0001
1000
0001
1000
0001
0000
0000
0000
0000
0000
,
0110
0000
0000
0110
0000
0000
0010
0000
0010
0100
0000
0100
,
0010
0000
0000
0010
0000
0000
1000
0000
0010
1000
0000
1000
,
0010
0000
0000
1010
0000
0000
0001
0000
0001
0100
0000
0100
,
0001
0000
0000
0101
0000
0000
0001
0000
0001
1000
0000
1000
,
0001
0000
0000
1001
0000
0000
0010
0100
0010
0100
0000
0000
,
0010
0000
0000
1000
0000
0000
0010
1000
0010
1000
0000
0000
,
0001
0100
0001
0100
0000
0000
0010
0001
0010
0001
0000
0000
,
1000
0100
0010
0001
0010
0100
1000
0100
0010
0001
0000
0000
,
0002
0000
0000
1003
,
2000
0000
0000
0100
3000
0000
0010
0000
,
0011
0000
0000
0010
0000
0000
0100
0000
,
0200
0000
0000
0310
,
0110
0000
0000
0010
,
1001
0000
0000
0000
0000
1000
0000
0000
0000
0100
0000
0000
,
1100
0000
0011
0000
,
0000
1000
0000
1000
0000
1000
0000
1000
0000
1000
0000
1000
,
0001
0010
0100
1000
,
1100
0000
0000
0010
0000
0000
1000
0000
0000
0010
0000
0010
,
1000
0000
0000
0000
0000
0020
0000
0000
0000
0130
0000
0000
,
0110
0010
1000
0100
,
0011
0100
0001
0100
,
0101
1000
0100
0010
,
0000
0001
0000
1000
0000
0001
0000
1000
0000
0001
0000
1000
,
0000
0010
0000
0100
0000
1000
0000
0100
0000
0010
0000
0002
,
0020
0000
0000
0000
,
0033
0000
0000
0000
;

//---------------dance-single - ----------------
#NOTES:
     dance-single:
     :
     Easy:
     5:
     0.391,0.479,0.425,0.252,0.047: // measure 1
0000
0000
0000
0000
,  // measure 2
0000
0000
0000
0000
,  // measure 3
0000
0000
0000
0000
,  // measure 4
1001
0000
0000
0000
,  // measure 5
0000
0000
0000
0000
,  // measure 6
1000
1000
0001
0001
,  // measure 7
0100
0100
0010
0010
,  // measure 8
1000
0001
0100
0010
,  // measure 9
2002
0000
0000
3003
,  // measure 10
0002
0000
0000
0000
,  // measure 11
1003
0000
2000
0000
,  // measure 12
3001
0000
0100
0000
,  // measure 13
0001
0000
0100
0100
,  // measure 14
0110
0000
0000
0000
,  // measure 15
0101
0000
0000
0000
,  // measure 16
1010
0000
0101
0000
,  // measure 17
1100
0011
1100
1001
,  // measure 18
1010
0010
1000
0100
,  // measure 19
0001
0100
0001
0100
,  // measure 20
0001
0100
0001
0100
,  // measure 21
0010
1000
0100
0010
,  // measure 22
1001
0001
1000
0001
,  // measure 23
0200
0301
0020
1030
,  // measure 24
1000
0100
0010
0001
,  // measure 25
1000
0001
0100
0010
,  // measure 26
1010
1000
0010
0001
,  // measure 27
0010
1000
0100
0001
,  // measure 28
0100
1000
0001
1000
,  // measure 29
0002
0103
2000
3100
,  // measure 30
0010
1000
0001
0100
,  // measure 31
0011
0100
1100
0010
,  // measure 32
2002
0000
0000
3000
,  // measure 33
2000
0000
3003
0000
,  // measure 34
0101
0001
0100
0010
,  // measure 35
1000
0100
0010
0001
,  // measure 36
0100
0001
0100
1000
,  // measure 37
0010
0001
1000
0001
,  // measure 38
1000
0001
0100
0010
,  // measure 39
0100
0010
1000
0010
,  // measure 40
1000
0001
0100
0010
,  // measure 41
2000
0000
0000
0000
,  // measure 42
3001
0200
0001
0001
,  // measure 43
0301
0002
0100
0103
,  // measure 44
0101
2000
0100
0100
,  // measure 45
3200
1300
0200
1300
,  // measure 46
1100
0010
1000
1000
,  // measure 47
1010
0100
0001
0001
,  // measure 48
0101
0100
1100
0100
,  // measure 49
1010
0011
1001
1100
,  // measure 50
0102
0103
1000
0100
,  // measure 51
0001
1000
0001
0100
,  // measure 52
0010
1010
1000
0100
,  // measure 53
0002
0103
1000
0100
,  // measure 54
0011
1100
0010
1000
,  // measure 55
0002
0103
1000
0010
,  // measure 56
0012
0103
2010
3100
,  // measure 57
1001
1001
1001
0000
,  // measure 58
1010
0001
0100
0001
,  // measure 59
0101
0001
0100
1000
,  // measure 60
2100
3100
1000
0100
,  // measure 61
0012
0013
0010
0010
,  // measure 62
0120
0130
1000
0100
,  // measure 63
0102
0103
1000
0001
,  // measure 64
1100
0100
0011
0100
,  // measure 65
0101
1010
1100
0011
,  // measure 66
1002
0000
0000
0000
,  // measure 67
2003
0000
0000
0000
,  // measure 68
3002
0000
0000
0100
,  // measure 69
0200
0000
0000
0303
,  // measure 70
1010
0000
0000
0000
,  // measure 71
0101
0000
0000
0000
,  // measure 72
1100
0000
0011
0000
,  // measure 73
0000
1000
0000
0001
0000
1000
0000
0001
0000
1000
0000
0001
,  // measure 74
1000
1000
0001
0001
,  // measure 75
0100
0100
0020
0100
,  // measure 76
0130
1000
0100
0010
,  // measure 77
0002
0000
0000
0003
,  // measure 78
1001
1000
0100
0010
,  // measure 79
0011
0100
0001
1000
,  // measure 80
0000
0001
0000
1000
0000
0001
0000
1000
0000
0001
0000
1000
,  // measure 81
0000
0001
0000
1000
0000
0001
0000
1000
0000
0001
0000
1000
,  // measure 82
0001
0000
0000
0000
;

//---------------dance-single - ----------------
#NOTES:
     dance-single:
     :
     Beginner:
     3:
     0.111,0.351,0.134,0.000,0.000: // measure 1
0000
0000
0000
0000
,  // measure 2
0000
0000
0000
0000
,  // measure 3
0000
0000
0000
0000
,  // measure 4
0100
0000
0000
0000
,  // measure 5
0000
0000
0000
0000
,  // measure 6
0001
0000
0000
0000
,  // measure 7
0000
0000
0000
0000
,  // measure 8
1000
0000
0000
0000
,  // measure 9
0010
0000
0000
0000
,  // measure 10
0100
0000
0000
0000
,  // measure 11
0000
0000
0000
0000
,  // measure 12
0010
0000
0000
0000
,  // measure 13
0000
0000
0000
0000
,  // measure 14
0001
0000
0000
0000
,  // measure 15
1000
0000
0000
0000
,  // measure 16
0001
0000
1000
0000
,  // measure 17
0100
0100
0100
0100
,  // measure 18
0110
0000
0000
0000
,  // measure 19
0010
0000
0000
0000
,  // measure 20
1000
0000
0000
0000
,  // measure 21
0001
0000
0001
0000
,  // measure 22
0001
0000
0000
0000
,  // measure 23
0100
0000
0000
0000
,  // measure 24
0010
0000
0000
0000
,  // measure 25
1000
0000
0000
0000
,  // measure 26
1001
0000
0000
0000
,  // measure 27
1000
0000
0000
0000
,  // measure 28
1000
0000
0000
0000
,  // measure 29
0001
0000
1000
0000
,  // measure 30
0001
0000
0000
0000
,  // measure 31
0100
0000
0100
0000
,  // measure 32
0100
0000
0000
0000
,  // measure 33
0010
0000
0000
0000
,  // measure 34
0110
0000
0000
0000
,  // measure 35
0000
0000
0000
0000
,  // measure 36
0100
0000
0000
0000
,  // measure 37
0000
0000
0000
0000
,  // measure 38
0001
0000
0000
0000
,  // measure 39
0000
0000
0000
0000
,  // measure 40
1000
0000
0000
0000
,  // measure 41
0010
0000
0000
0000
,  // measure 42
0110
0000
0000
0000
,  // measure 43
0000
0000
0000
0000
,  // measure 44
0110
0000
0000
0000
,  // measure 45
0000
0000
0000
0000
,  // measure 46
1001
0000
0000
0000
,  // measure 47
1001
0000
0000
0000
,  // measure 48
1001
0000
1001
0000
,  // measure 49
1001
0110
1001
0110
,  // measure 50
1001
0000
0000
0000
,  // measure 51
1000
0000
0000
0000
,  // measure 52
0001
0000
0000
0000
,  // measure 53
0100
0000
0000
0000
,  // measure 54
0010
0000
0000
0000
,  // measure 55
0100
0000
0000
0000
,  // measure 56
1000
0000
0000
0000
,  // measure 57
0001
0001
0001
0000
,  // measure 58
1001
0000
0000
0000
,  // measure 59
0100
0000
0000
0000
,  // measure 60
0010
0000
0000
0000
,  // measure 61
1000
0000
0000
0000
,  // measure 62
0001
0000
0000
0000
,  // measure 63
0001
0000
0000
0000
,  // measure 64
0001
0000
0001
0000
,  // measure 65
0001
0000
1000
0000
,  // measure 66
1001
0000
0000
0000
,  // measure 67
0000
0000
0000
0000
,  // measure 68
0010
0000
0000
0000
,  // measure 69
0000
0000
0000
0000
,  // measure 70
0100
0000
0000
0000
,  // measure 71
0100
0000
0000
0000
,  // measure 72
0100
0000
0100
0000
,  // measure 73
0000
0000
0000
0000
,  // measure 74
1000
0000
0000
0000
,  // measure 75
0001
0000
0100
0000
,  // measure 76
1000
0000
0000
0000
,  // measure 77
0010
0000
0000
0000
,  // measure 78
1001
0000
0000
0000
,  // measure 79
0010
0000
0000
0000
,  // measure 80
0000
0000
0000
0000
,  // measure 81
0000
0000
0000
0000
,  // measure 82
0001
0000
0000
0000
;
