#TITLE:GOLD RUSH;
#SUBTITLE:;
#ARTIST:DJ YOSHITAKA-G feat.Michael a la mode;
#TITLETRANSLIT:;
#SUBTITLETRANSLIT:;
#ARTISTTRANSLIT:;
#CREDIT:;
#BANNER:bn.PNG;
#BACKGROUND:bg.PNG;
#LYRICSPATH:;
#CDTITLE:14 Gold.png;
#MUSIC:GOLD RUSH.mp3;
#OFFSET:-1.120;
#SAMPLESTART:69.248;
#SAMPLELENGTH:12.000;
#SELECTABLE:YES;
#BPMS:0.000=162.000;
#STOPS:;
#BGCHANGES:;

//---------------dance-single - ----------------
#NOTES:
     dance-single:
     :
     Hard:
     8:
     0.504,0.564,0.156,0.093,0.218:
0000
0000
0000
0000
,
0000
0000
0000
0000
,
0000
0000
0000
0000
,
0000
0000
0000
0000
,
0001
0000
0000
1000
0000
0000
0001
0000
0000
0000
1000
0000
0100
0000
1000
0000
,
0100
0000
0000
1000
0000
0000
0100
0000
0000
0000
0010
0000
0001
0000
0010
0000
,
0001
0000
0000
0001
0000
0000
0001
0000
1000
0000
0000
1000
0000
0000
1000
0000
,
1001
0000
0000
0110
0000
0000
1100
0000
0000
0010
0100
0001
,
1000
0000
0000
0000
,
0002
0000
0000
0000
,
0000
0000
0000
0003
,
1000
0000
0100
0000
0010
0000
0000
0001
0000
0000
0010
0000
0100
0000
0000
1000
,
0000
0000
0100
0000
0001
0000
0000
1000
0000
0000
0001
0000
1000
0000
0001
0000
,
1000
0000
0010
0000
1000
0000
0000
0010
0000
0000
1000
0000
0100
0000
0000
1000
,
0000
0100
1000
0100
0010
0010
0010
0000
,
0001
0000
1000
0000
0001
0000
0000
0100
0000
0000
0010
0000
0100
0000
0010
0000
,
0100
1000
0100
0010
0001
0010
0100
0000
,
1000
0100
0010
0001
0010
0100
1000
0100
,
0010
0001
0010
0100
0001
0100
0001
0100
,
0001
0000
1000
0000
0100
0000
0000
1000
0000
0000
0010
0000
0100
0000
0000
0010
,
0000
0000
1000
0000
0100
0000
0000
0010
0000
0000
0001
0000
0100
0000
0001
0000
,
0100
0000
0001
0000
0100
0000
0000
0001
0000
0000
0010
0000
1000
0000
0000
0010
,
0000
1000
0100
0010
0001
0010
0100
1000
,
0001
0000
1000
0000
0001
0000
0000
1000
0000
0000
0001
0000
1000
0000
0001
0000
,
1000
0010
1000
0001
0010
0100
1000
0000
,
1000
0100
0010
0001
0010
0100
0001
0100
,
0001
0000
0100
0000
0010
0000
1000
0000
0010
0000
1000
0000
0010
0000
1000
0001
,
1000
0000
0000
1000
0000
0000
1000
0000
0000
0000
1000
0000
0100
0000
0010
0000
,
0001
0000
0000
0001
0000
0000
0001
0000
0000
0000
0010
0000
0100
0000
0001
0000
,
1000
0000
0000
1000
0000
0000
1000
0000
0000
0000
1000
0000
0100
0000
0010
0000
,
0001
0000
1000
1000
0000
0000
0000
0000
,
0110
0000
0000
0000
,
1100
0000
0000
0000
,
0011
0000
0000
0000
,
0101
0000
0000
0000
,
1100
0000
0200
0000
0000
0310
0000
0010
,
0200
0000
1000
1000
0000
1000
0000
1300
,
1100
0011
0000
0000
,
0110
1001
0000
0000
,
2000
0000
3001
0000
0000
0100
0000
1000
,
0100
0000
0010
0100
0000
0002
0000
1003
,
1100
0000
0011
0000
1000
0001
1000
0000
,
1000
0000
0100
0000
0010
0000
0001
0000
0010
0000
0100
0000
,
1000
0000
0000
0000
0000
0000
0001
0000
0000
0000
0000
0000
0000
0000
0000
0000
0000
2002
0000
0000
0000
0000
0000
0000
,
0000
0000
0000
0000
,
0000
0000
0000
0000
0000
0000
0000
3003
,
1000
0000
0100
0000
0010
0000
0000
0100
0000
0000
0010
0000
0100
0000
0000
1000
,
0000
0000
0100
0000
1000
0000
0000
0100
0000
0000
1000
0000
0100
0000
0010
0000
,
0001
0000
0010
0000
0001
0000
0000
0001
0000
0000
0001
0000
1000
0000
0000
0100
,
0000
1000
0100
0010
0001
0010
0001
0000
,
0010
0000
0100
0000
0010
0000
0000
0100
0000
0000
0010
0000
0100
0000
0001
0000
,
1000
0000
0100
0000
0001
0010
0001
0000
0001
0000
0010
0000
0100
0000
1000
0000
,
0001
0000
1000
0000
0001
0000
0000
0010
0000
0000
0100
0000
1000
0000
0010
0000
,
0001
0010
0100
1000
0001
0010
0100
1000
,
0001
0000
0100
0000
0010
0000
0000
0100
0000
0000
1000
0000
0100
0000
0000
0010
,
0000
0000
0001
0000
0100
0000
0000
0001
0000
0000
0010
0000
1000
0000
0010
0000
,
1000
0000
0010
0000
0001
0000
0000
1000
0000
0000
0001
0000
0010
0000
0000
0100
,
0000
1000
0100
0010
0001
1000
1000
0001
,
0001
0000
0010
0000
0100
0000
0000
1000
0000
0000
0001
0000
0010
0000
0100
0000
,
1000
0100
0010
0001
1000
0001
1000
0100
,
0001
0000
0100
0000
0001
0000
0000
0010
0000
0000
0100
0000
0001
0000
0010
0000
,
0100
1000
0001
1000
0001
0100
0010
2000
,
0002
0000
0000
0000
,
0000
0000
0000
0000
,
3003
0000
0000
0000
;

//---------------dance-single - ----------------
#NOTES:
     dance-single:
     :
     Medium:
     6:
     0.418,0.531,0.166,0.114,0.010:
0000
0000
0000
0000
,
0000
0000
0000
0000
,
0000
0000
0000
0000
,
0000
0000
0000
0000
,
2000
0000
0100
0000
3100
0000
0010
0001
,
0020
0000
0001
0000
0031
0000
0100
0001
,
0101
0010
1010
0010
,
0110
0000
0000
1100
0000
0000
0011
0000
0000
1000
0001
1000
,
0002
0000
0000
0000
,
2000
0000
0000
0000
,
0000
0000
0000
3003
,
1000
0100
0010
0001
0010
0100
0001
0000
,
0100
0001
0100
0010
,
1000
0100
0010
0001
0010
0100
1000
0000
,
0001
0000
1000
0000
0010
1000
0010
0000
,
1000
0100
1000
0010
0001
0010
0100
0000
,
0001
0000
0100
0001
0100
0000
0010
0000
,
1000
1100
0010
0011
,
0100
0110
0010
1010
,
1000
0100
0010
0001
0010
0100
1000
0001
,
1000
0001
0100
0010
,
1000
0001
1000
0010
1000
0001
0100
0001
,
0100
0000
0001
0000
0010
0001
0010
0000
,
0100
1000
0100
0010
0001
0010
0100
0001
,
0100
0001
0100
1000
,
1000
0100
1000
0000
0010
0001
0010
0000
,
0100
0001
0100
0000
0010
1000
0010
0000
,
2000
0000
3000
0100
,
0200
0000
0000
0310
,
0020
0000
0000
0000
,
0031
1001
0000
0000
,
1000
0000
0000
0000
,
1000
0000
0000
0000
,
0100
0000
0000
0000
,
0001
0000
0000
0000
,
0010
0000
0001
0000
0000
1000
0000
0000
,
0001
0000
1000
0001
0000
1000
0000
0001
,
1000
1000
0000
0000
,
0001
0001
0000
0000
,
0010
0000
0100
0000
0000
1000
0000
1000
,
0100
0000
0010
0001
0000
0010
0000
0100
,
1000
0000
0001
0000
0100
0001
0100
0000
,
1100
0011
0110
1100
,
2002
0000
0000
0000
,
0000
0000
0000
0000
,
0000
0000
0000
3003
,
0010
0100
0001
1000
0010
0100
1000
0000
,
0001
1000
0100
0010
,
0001
0010
0100
1000
0100
0010
0001
1000
,
0001
0000
0010
0000
0100
0100
0100
0000
,
0001
1000
0001
0010
0100
1000
0100
1000
,
0100
0000
1000
0000
0100
1000
0100
0000
,
1000
0100
0010
0000
0001
0010
0100
0000
,
0001
1000
0001
1000
0010
1000
0001
0100
,
0001
0010
0001
0100
1000
0100
1000
0100
,
1000
0010
0001
0100
,
1000
0100
0010
0001
0100
0001
1000
0010
,
1000
0100
0010
0001
,
1000
0001
1000
0010
1000
0010
0100
0001
,
0100
0001
0010
0001
,
1000
0100
1000
0000
0010
0001
0010
0000
,
1000
0100
0010
0000
0001
0000
0100
0000
,
2002
0000
0000
0000
,
0000
0000
0000
0000
,
3003
0000
0000
0000
;

//---------------dance-single - ----------------
#NOTES:
     dance-single:
     :
     Easy:
     4:
     0.293,0.465,0.176,0.145,0.000:
0000
0000
0000
0000
,
0000
0000
0000
0000
,
0000
0000
0000
0000
,
0000
0000
0000
0000
,
2000
0000
0000
3001
,
0002
0000
0000
1003
,
1001
0000
1001
0000
,
1001
0110
1100
0011
,
0202
0000
0000
0000
,
0000
0000
0000
0000
,
0000
0000
0000
0303
,
1000
0001
0100
0010
,
1000
0010
1000
0010
,
0001
0100
1000
0100
,
0010
0001
0010
0001
,
0100
0001
0010
1000
,
0010
1000
0100
0010
,
0001
1000
0001
0101
,
1000
0200
1000
1300
,
1000
0100
0010
0001
,
0100
0001
0100
0001
,
0010
1000
0100
0010
,
0001
1000
0100
1000
,
0010
1000
0001
0100
,
0010
1000
0001
1000
,
0100
0100
0010
0011
,
0100
0101
1000
0001
,
1002
0000
0000
1000
,
2003
0000
3002
0000
,
0200
0000
0303
0000
,
0000
0000
1000
0001
0000
0000
0000
0000
,
1100
0000
0000
0000
,
0010
0000
0000
0000
,
0100
0000
0000
0000
,
0001
0000
0000
0000
,
1000
0000
0000
0000
,
0100
0000
0000
0000
,
0010
0000
0000
0000
,
0001
0000
0000
0000
,
1000
0000
0000
0000
,
0100
0000
0000
0000
,
0010
0000
0001
0000
,
1000
0100
0010
0001
,
2000
0001
0002
0000
,
0000
0000
0000
0000
,
0000
0000
0000
3003
,
0001
0100
0001
0100
,
1000
0100
0001
0010
,
1000
0100
1000
0100
,
0010
0000
1000
0000
0001
1000
0001
0000
,
1000
0001
1000
0100
,
0010
0001
0100
0001
,
0100
1100
0010
0011
,
1000
0200
1000
1300
,
1000
0100
0010
0001
,
0100
0001
0100
0001
,
0100
0010
1000
0100
,
0010
0001
0100
0001
,
0100
1000
0100
0010
,
0001
1000
0001
0100
,
1000
1100
0010
0011
,
1000
0100
0010
0001
,
2002
0000
0000
0000
,
0000
0000
0000
0000
,
3003
0000
0000
0000
;

//---------------dance-single - ----------------
#NOTES:
     dance-single:
     :
     Challenge:
     9:
     0.584,0.664,0.311,0.145,0.394:
0000
0000
0000
0000
,
0000
0000
0000
0000
,
0000
0000
0000
0000
,
0000
0000
0000
0000
,
1001
0000
0000
1010
0000
0000
0101
0000
0000
0000
1000
0000
0100
0000
0010
0000
,
0011
0000
0000
0011
0000
0000
0011
0000
0000
0000
0001
0000
0100
0000
0010
0000
,
1010
0000
0000
1010
0000
0000
0010
0000
0100
0000
0000
0001
0000
0000
1000
0000
,
0100
0000
0000
0010
0000
0000
0001
0000
0000
0010
0000
0000
0100
0000
0000
0010
0000
0000
1000
0000
0001
0000
0100
0000
,
0020
0000
0000
0000
0000
0000
0200
0000
0300
0000
0200
0000
0000
0030
0300
0000
,
2002
0000
0000
0000
,
0000
0000
0000
3003
,
0010
0000
1000
0000
0010
0100
0000
0001
0000
0000
1000
0000
1000
0100
0000
0001
,
0000
0000
0001
0000
0010
0100
0000
1000
0000
0000
0001
0000
0010
0000
1000
0000
,
0001
0000
1000
0000
0010
0001
0000
1000
0000
0000
1000
0000
1000
0100
0000
1000
,
0000
0000
0001
0000
0010
0001
0000
0100
0000
0000
0100
0000
0001
0000
0100
0000
,
0010
0000
0100
0000
0001
1000
0000
0100
0000
0000
0100
0000
0010
0100
0000
0001
,
0000
0000
0100
0000
0001
0010
0000
1000
0000
0000
0001
0000
0010
0000
0100
0000
,
0001
1000
0010
0100
0001
1000
0010
0100
,
1000
0001
0010
0100
1000
0001
0010
1000
,
1100
0000
1000
0000
0010
0100
0000
0010
0000
0000
0001
0000
0010
1000
0000
0001
,
0000
0100
1000
0010
0001
0010
0100
1000
,
0101
0000
0100
0000
1000
0001
0000
1000
0000
0000
0010
0000
1000
0100
0000
0010
,
0000
0001
0100
1000
0010
1000
0001
0100
,
0101
0000
0100
0000
1000
0001
0000
1000
0000
0000
0010
0000
1000
0100
0000
0010
,
0000
0001
0100
1000
0010
1000
0001
0100
,
0010
1000
0100
0010
0001
0100
0010
1000
,
0001
0010
1000
0001
0100
0010
1000
0001
,
1002
0000
0000
1000
0000
0000
1000
0000
0003
0000
0010
0000
1000
0000
0010
0000
,
2010
0000
0000
0100
0000
0000
3001
0000
0000
0000
0100
0000
1000
0000
0100
0000
,
2100
0000
0000
0010
0000
0000
3001
0000
0000
0000
0010
0000
0100
0000
0010
0000
,
1000
0000
0002
2000
3003
0000
0000
0000
,
0010
0010
0000
0000
0000
0000
0000
0000
,
1000
1000
0000
0000
0000
0000
0000
0000
,
0001
0000
0001
0001
0000
0000
0000
0000
,
0010
0000
0000
0010
0000
0000
0000
0000
0000
0000
0000
0000
0000
0000
0000
0000
,
1000
0000
0000
0100
0010
0000
0000
0000
0000
0000
0000
0000
0000
0000
0000
0000
,
0001
0000
0000
0010
0100
0000
0000
0000
0000
0000
0000
0000
0000
0000
0000
0000
,
1000
0000
0001
0001
0000
0000
0000
0000
,
0010
0000
0100
0100
0000
0000
0000
0000
,
1100
0000
0001
0001
0000
0000
0000
0000
,
0110
0000
0010
0010
0000
0000
0000
0000
,
1100
0000
0011
0000
0010
0010
0010
0000
,
0011
0000
0110
0000
1100
0000
1010
0000
0110
0000
1001
0000
,
1001
0000
0010
0000
0000
0022
0000
0000
,
0000
0000
0000
0000
,
0000
0000
0000
0033
,
1000
0000
0100
0000
1000
0001
0000
0010
0000
0000
0100
0000
0100
0001
0000
0010
,
0000
0000
0010
0000
1000
0001
0000
0100
0000
0000
0010
0000
1000
0000
0100
0000
,
0010
0000
0100
0000
1000
0010
0000
0100
0000
0000
0100
0000
0100
0001
0000
0100
,
0000
0000
0010
0000
1000
0010
0000
0001
0000
0000
0001
0000
0010
0000
0001
0000
,
1000
0000
0001
0000
0010
0100
0000
0001
0000
0000
0001
0000
1000
0001
0000
0010
,
0000
0000
0001
0000
0010
1000
0010
1000
0000
0000
0010
0000
1000
0000
0001
0000
,
0010
0100
1000
0001
0010
0100
1000
0001
,
0100
0010
1000
0001
0100
0010
1000
0100
,
0101
0000
0100
0000
1000
0001
0000
1000
0000
0000
0010
0000
1000
0100
0000
0010
,
0000
0001
0100
1000
0010
1000
0001
0100
,
0011
0000
0001
0000
0100
0010
0000
0100
0000
0000
1000
0000
0100
0001
0000
1000
,
0000
0010
0001
0100
1000
0100
0010
0001
,
0011
0000
0001
0000
0100
0010
0000
0100
0000
0000
1000
0000
0100
0001
0000
1000
,
0000
0010
0001
0100
1000
0100
0010
0001
,
1000
0100
0001
1000
0010
0001
1000
0100
,
0010
1000
0100
0010
0001
1000
0200
0020
,
0000
0000
0000
0000
,
0000
0000
0000
0000
,
0330
0000
0000
0000
;

//---------------dance-single - ----------------
#NOTES:
     dance-single:
     :
     Beginner:
     1:
     0.064,0.161,0.031,0.000,0.000: // measure 1
0000
0000
0000
0000
,  // measure 2
0000
0000
0000
0000
,  // measure 3
0000
0000
0000
0000
,  // measure 4
0000
0000
0000
0000
,  // measure 5
1000
0000
0000
0000
,  // measure 6
0000
0000
0000
0000
,  // measure 7
0001
0000
0000
0000
,  // measure 8
1000
0000
0001
0000
,  // measure 9
1001
0000
0000
0000
,  // measure 10
0000
0000
0000
0000
,  // measure 11
0000
0000
0000
0000
,  // measure 12
0100
0000
0000
0000
,  // measure 13
0000
0000
0000
0000
,  // measure 14
0001
0000
0000
0000
,  // measure 15
0000
0000
0000
0000
,  // measure 16
1000
0000
0000
0000
,  // measure 17
0000
0000
0000
0000
,  // measure 18
0010
0000
0000
0000
,  // measure 19
0000
0000
0000
0000
,  // measure 20
0100
0000
0000
0000
,  // measure 21
0000
0000
0000
0000
,  // measure 22
0001
0000
0000
0000
,  // measure 23
0000
0000
0000
0000
,  // measure 24
1000
0000
0000
0000
,  // measure 25
0000
0000
0000
0000
,  // measure 26
0010
0000
0000
0000
,  // measure 27
0000
0000
0000
0000
,  // measure 28
1000
0000
0000
0000
,  // measure 29
0000
0000
0000
0000
,  // measure 30
0001
0000
0000
0000
,  // measure 31
0000
0010
0000
0000
,  // measure 32
0100
0000
0000
0000
,  // measure 33
0100
0000
0000
0000
,  // measure 34
0100
0000
0000
0000
,  // measure 35
0100
0000
0000
0000
,  // measure 36
0100
0000
0000
0000
,  // measure 37
0100
0000
0000
0000
,  // measure 38
0100
0000
0000
0000
,  // measure 39
0100
0000
0000
0000
,  // measure 40
0100
0000
0000
0000
,  // measure 41
0100
0000
0000
0000
,  // measure 42
0100
0000
0100
0000
,  // measure 43
0100
0000
0100
0000
,  // measure 44
1001
0000
0000
0000
,  // measure 45
0000
0000
0000
0000
,  // measure 46
0000
0000
0000
0000
,  // measure 47
0001
0000
0000
0000
,  // measure 48
0000
0000
0000
0000
,  // measure 49
1000
0000
0000
0000
,  // measure 50
0000
0000
0000
0000
,  // measure 51
0010
0000
0000
0000
,  // measure 52
0000
0000
0000
0000
,  // measure 53
0100
0000
0000
0000
,  // measure 54
0000
0000
0000
0000
,  // measure 55
1000
0000
0000
0000
,  // measure 56
0000
0000
0000
0000
,  // measure 57
0001
0000
0000
0000
,  // measure 58
0000
0000
0000
0000
,  // measure 59
0100
0000
0000
0000
,  // measure 60
0000
0000
0000
0000
,  // measure 61
0010
0000
0000
0000
,  // measure 62
0000
0000
0000
0000
,  // measure 63
1001
0000
0000
0000
;
