#TITLE:GET IT ALL;
#SUBTITLE:From Nonstop MegaMix;
#ARTIST:BRASS TRICKS;
#TITLETRANSLIT:;
#SUBTITLETRANSLIT:;
#ARTISTTRANSLIT:;
#CREDIT:;
#BANNER:GET IT ALL.png;
#BACKGROUND:GET IT ALL-bg.png;
#LYRICSPATH:;
#CDTITLE:Konami Original.png;
#MUSIC:GET IT ALL (Mega Mix).mp3;
#OFFSET:-7.197;
#SAMPLESTART:68.649;
#SAMPLELENGTH:12.000;
#SELECTABLE:YES;
#BPMS:0.000=140.000;
#STOPS:;
#BGCHANGES:;

//---------------dance-single - ----------------
#NOTES:
     dance-single:
     :
     Hard:
     8:
     0.511,0.768,0.493,0.223,0.433:
0000
0000
0000
0000
,
0000
0000
0000
0000
,
0000
0000
0000
0000
,
0000
0000
0000
0000
,
0000
0000
0000
0000
,
0000
0000
0000
0000
,
0000
0000
0000
0000
,
1100
0000
0011
0000
,
0110
0000
1010
0000
,
0101
1100
0011
1010
,
0001
0000
1000
0000
0001
0000
1000
0000
0001
1000
0001
1000
0001
1000
0001
1000
,
0002
0103
0010
1010
,
0020
2030
0000
0000
,
3100
0000
0000
0000
0000
0000
0010
0100
0010
0000
0100
0000
0010
0000
0000
1000
,
0000
0000
0001
0000
0000
0100
0000
0000
1000
0000
0000
0010
0000
0000
0100
0000
,
0000
0000
0010
0000
1000
0000
0001
0000
0101
0000
0000
0101
0000
0000
0101
0000
,
0000
0020
0000
0000
,
0000
0030
0000
0000
0000
0000
1000
0100
1000
0000
0100
0000
0010
0000
0000
0100
,
0000
0000
0010
0000
0000
1000
0000
0000
0001
0000
0000
0100
0000
0000
1000
0000
,
0000
0000
0010
0100
0000
0010
0100
0000
0010
0000
0000
1000
0000
0000
0001
0000
,
0010
0100
0000
0000
0010
1000
0000
0000
0001
0100
0000
0010
0000
0000
0000
0000
,
0000
0000
1000
0000
0000
0100
0000
0000
0010
0100
0000
0001
0000
0000
0000
0000
,
1000
0100
0000
0000
1000
0100
0000
0000
1000
0100
0000
1000
0000
0000
0000
0000
,
0000
0000
0010
0000
0000
0100
0000
0000
1000
0000
0000
0100
0000
0000
0010
0000
,
0100
0010
0000
0000
0100
0010
0000
0000
0010
0100
0000
0110
0000
0000
0000
0000
,
0000
0000
0010
0000
0010
1000
0000
0001
0000
0100
0000
1000
0000
0000
0000
0000
,
0010
0100
0000
0000
0010
0100
0000
0000
0010
1000
0000
0001
0000
0000
0000
0000
,
0000
0000
0100
0000
0000
1000
0000
0000
0100
0000
0000
0000
0000
0000
0000
0000
,
1000
0100
0000
0000
0000
0000
0010
0100
0000
0000
0001
0000
1000
0000
0100
0000
,
0000
0000
0001
0000
0000
0010
0000
0000
1000
0000
0000
0100
0000
0000
0010
0000
,
0001
0100
0000
0000
0000
0000
0010
1000
0000
1000
0000
0000
1000
0000
0100
0000
,
0000
0000
0010
0000
0000
0100
0000
0000
1000
0000
0000
0001
0000
0000
0100
0000
,
0001
0100
0001
0100
0010
1000
0010
1000
,
0010
0100
0010
0100
0001
0100
0001
0100
,
0010
1000
0010
1000
0001
1000
0001
1000
,
0100
0000
1000
0000
0100
0000
0000
1000
0000
0000
0001
0000
0010
0000
0100
0000
,
1000
0010
0101
0010
0110
0010
1010
0010
,
0020
0000
0230
0000
0320
2030
0000
3002
0203
0000
0320
0000
2030
0000
0000
0000
,
3100
0000
1000
0000
1000
0100
0000
0010
0000
0200
0000
0000
0000
0000
0000
0000
,
0000
0000
0310
0000
0000
0000
0000
0002
,
0000
0000
0013
0000
0100
0000
0010
0000
0010
1000
0000
0001
0000
0000
0010
0100
,
0001
1000
0000
0010
0000
0000
0010
0100
0010
0100
0000
0010
0000
1000
0000
0100
,
0000
2002
0000
3003
,
0001
0000
0100
0000
0010
0000
1000
0000
0001
0000
0000
0010
0000
0000
0100
0000
,
0000
0000
1000
0100
0010
0001
0000
0000
0010
0100
0000
0000
0010
0100
0000
0000
,
0010
1000
0010
0100
0001
1000
0010
0100
,
0001
0010
0001
0000
0022
0000
0000
0000
0000
0000
0000
0000
0033
0000
0000
0000
,
0010
0001
0000
0000
0001
0100
0000
0000
0010
0100
0000
0020
0000
0000
0000
0000
,
0030
0000
1000
0000
0000
0100
0000
0000
0010
0100
0000
0020
0000
0000
0000
0030
,
1000
0001
0000
0000
0100
0010
0000
0000
0001
1000
0000
0020
0000
0000
0000
0000
,
0030
0000
1000
0000
0000
0100
0000
0000
0010
0000
0000
0100
0000
0000
0001
0000
,
0100
0000
1100
0000
0010
0010
1010
0000
,
0001
0000
0010
0000
0010
0010
0110
0000
,
1000
0100
0000
0000
0010
0100
0000
0000
0001
0100
0000
0010
0000
0000
0000
0000
,
0100
1000
0100
0000
0020
0000
0031
0000
,
1001
0000
0000
0110
0000
0000
1001
0000
0110
0000
0000
0000
1001
0000
0000
0000
,
1010
0000
0000
0101
0000
0000
1010
0000
0101
0000
0000
0000
1010
0000
0000
0000
,
1100
0000
0000
0011
0000
0000
1100
0000
0011
0000
0000
0000
1100
0000
0000
0000
,
1010
0000
0000
0101
0000
0000
1100
0000
0011
0000
0000
0000
1001
0000
0000
0000
,
1010
0000
0000
0101
0000
0000
1100
0000
0011
0000
0000
0000
1001
0000
0000
0000
,
0010
0000
0000
0100
0000
0000
1000
0000
0100
0000
0000
0000
0011
0000
0000
0000
,
0101
0000
0000
0010
0000
0000
1000
0000
0100
0000
0000
0000
2002
0000
0000
3003
,
0010
0000
0000
0100
0000
0000
1000
0000
0200
0000
0000
0000
0301
0000
0000
0000
,
1010
0000
0000
1010
0000
0000
1010
0000
0101
0000
0000
0101
0000
0000
0101
0000
,
1100
0000
0000
1100
0000
0000
1100
0000
0011
0000
0000
0011
0000
0000
0011
0000
,
0001
1000
0010
0100
0001
1000
0010
0100
,
0010
1000
0010
1000
0010
1000
0010
1000
0020
0000
0000
0000
0130
0000
0000
0000
,
0000
0000
1000
0100
0000
0001
0100
0000
0010
0000
0000
0001
0000
0000
1000
0000
,
0100
2002
0000
0000
,
3003
0000
0000
0000
;

//---------------dance-single - ----------------
#NOTES:
     dance-single:
     :
     Medium:
     6:
     0.401,0.494,0.175,0.469,0.048:
0000
0000
0000
0000
,
0000
0000
0000
0000
,
0000
0000
0000
0000
,
0000
0000
0000
0000
,
1100
1000
1000
1000
,
0101
0001
0001
0001
,
0011
0010
0010
0010
,
0110
0000
0110
0000
,
0110
0000
0110
0000
,
0110
0110
0110
0110
,
0010
0100
0010
0100
0010
0100
0010
0100
,
0020
0000
0000
0000
,
1030
0200
0000
0000
,
0301
0000
0000
0000
0010
1000
0010
0000
,
0200
1300
0100
0010
,
0000
0001
1000
0010
0200
0000
0000
0000
,
0000
0320
0000
0000
,
0130
0000
0000
0000
0001
1000
0010
0000
,
0100
0000
1000
0000
0010
0000
0100
0002
,
2000
0000
0000
0000
0000
0000
3000
0003
,
0020
0230
2300
3001
,
0000
0000
0010
0000
0100
1000
0001
0000
,
0020
0230
2300
3020
,
0130
0000
0001
0000
0010
0100
1000
0000
,
0020
0000
0230
0000
0301
0001
0002
0000
,
0013
0000
1000
0000
0001
1000
0001
0000
,
0020
0230
2300
3010
,
0000
0002
0000
0000
0103
0000
0000
0000
,
1000
0000
0000
0100
0000
0000
0000
0000
,
0000
0002
0000
0000
0203
0000
0000
0300
,
1000
0000
0000
1100
0000
0000
0000
0000
,
0010
0100
2000
3002
,
2003
3100
0002
0103
,
2000
3100
0002
0103
,
2000
3100
0002
0103
,
2000
3100
0002
0013
,
0011
0010
0110
0000
1000
0100
1000
0000
,
0010
1000
0001
0100
0001
0010
1002
0000
,
1003
0000
0100
1000
0200
0000
0310
0000
,
0010
0000
2000
0000
0000
0000
0000
3001
,
0000
0000
0100
1000
0200
0000
0310
0000
,
0001
0000
0100
0000
1000
0100
0010
0002
,
0000
0203
0000
0000
,
0310
0100
0020
0000
1030
0000
0100
0000
,
0001
1000
0020
0000
0230
0000
0310
0000
,
0001
0100
0020
0000
1030
0001
2000
0000
,
0001
3001
2002
0000
0000
0000
3003
0000
,
0010
1001
0020
1030
,
0100
0000
1000
0000
1000
0100
0002
0000
,
0010
0100
0010
0203
,
0301
0000
0100
0000
0010
0001
0010
0000
,
2000
0000
3100
0000
1000
0100
0020
0000
,
0031
0000
0011
0000
0001
0100
0010
0000
,
2000
0000
3002
0000
0103
0100
0200
0000
,
0320
0130
0010
1001
,
1000
0000
0000
0010
0000
0000
0100
0000
1000
0000
0000
0000
0001
0000
0000
0000
,
0001
0000
0000
0100
0000
0000
1000
0000
0010
0000
0000
0000
0001
0000
0000
0000
,
0010
0000
0000
0100
0000
0000
0010
0000
1000
0000
0000
0000
0001
0000
0000
0000
,
0001
0000
0000
0010
0000
0000
0100
0000
1000
0000
0000
0000
0100
0000
0000
0000
,
0010
0000
0000
0100
0000
0000
1000
0000
0100
0000
0000
0000
0101
0000
0000
0000
,
0010
0000
0000
0100
0000
0000
1000
0000
0001
0000
0000
0000
0110
0000
0000
0000
,
1000
0000
0000
0100
0000
0000
0001
0000
0010
0000
0000
0000
1001
0000
0000
0000
,
0010
0000
0000
0100
0000
0000
1000
0000
0200
0000
0000
0300
1000
0000
0000
0000
,
0001
0000
0000
1000
0000
0000
0001
0000
1000
0000
0000
0001
0000
0000
1000
0000
,
0001
0000
0000
1000
0000
0000
0001
0000
1000
0000
0000
0001
0000
0000
1000
0000
,
0001
1000
0001
1000
0001
1000
0001
1000
,
0001
1000
0001
1000
0002
0000
1003
0000
,
0000
0010
0100
1000
,
0002
2000
0000
0000
,
3003
0000
0000
0000
;

//---------------dance-single - ----------------
#NOTES:
     dance-single:
     :
     Easy:
     3:
     0.201,0.407,0.095,0.286,0.000:
0000
0000
0000
0000
,
0000
0000
0000
0000
,
0000
0000
0000
0000
,
0000
0000
0000
0000
,
0000
0000
0000
0000
,
0000
0000
0000
0000
,
0000
0000
0000
0000
,
1000
0000
0001
0000
,
1000
0000
0001
0000
,
1000
0001
1000
0001
,
1001
1001
1001
1001
,
2002
0000
0000
3003
,
1000
0200
0000
0000
,
1300
0000
0010
1000
,
0001
0100
0001
0100
,
0010
1000
0002
0000
,
0003
0020
0000
0000
,
0000
0000
0130
0010
,
1000
0001
0100
0010
,
1000
0000
0000
0000
,
0001
0001
0001
0000
,
0000
0000
0010
0000
,
1000
1000
1000
0000
,
0000
0100
0010
0000
,
0100
0100
0100
0000
,
0000
0000
0000
0000
,
0010
0010
0010
0000
,
0000
0000
0000
0000
,
1000
0000
0000
0001
0000
0000
0000
0000
,
0000
0000
0000
0000
,
0010
0000
0000
0100
0000
0000
0000
0000
,
0000
0000
0000
0000
,
2000
0000
0000
0000
,
3002
0000
0000
0000
,
0203
0000
0000
0000
,
0320
0000
0000
0000
,
0130
0110
0010
0110
,
1100
0101
1100
1001
,
1000
0002
0000
0000
,
0000
1003
0000
0000
,
1000
0100
0010
0001
,
0100
0001
0200
0000
,
0300
0002
0000
0000
,
1003
0001
0100
0010
,
0000
1000
0000
0001
,
0000
0100
0000
0010
,
1000
2002
0000
3003
,
1000
1000
1000
0000
,
0000
0000
0010
0000
,
0100
0100
0100
0000
,
0000
0000
0001
0000
,
0010
0010
0010
0000
,
0000
0000
0000
0000
,
0100
0100
0100
0000
,
0000
0000
0000
0000
,
0002
0000
0000
1003
,
2000
0000
0000
3001
,
0002
0000
0000
1003
,
2000
0000
0002
3003
,
0020
0000
0000
0130
,
0200
0000
0000
0310
,
0020
0000
0000
0130
,
0200
0000
0020
0330
,
2000
0000
3002
0000
,
2003
0000
3002
0000
,
2003
3002
2003
3002
,
2003
3002
2003
3001
,
0000
0000
0000
0000
,
0020
0130
0000
0000
;

//---------------dance-single - ----------------
#NOTES:
     dance-single:
     :
     Beginner:
     1:
     0.060,0.136,0.016,0.000,0.000: // measure 1
0000
0000
0000
0000
,  // measure 2
0000
0000
0000
0000
,  // measure 3
0000
0000
0000
0000
,  // measure 4
0000
0000
0000
0000
,  // measure 5
0001
0000
0000
0000
,  // measure 6
0001
0000
0000
0000
,  // measure 7
0001
0000
0000
0000
,  // measure 8
1001
0000
0000
0000
,  // measure 9
0010
0000
0000
0000
,  // measure 10
0010
0000
0000
0000
,  // measure 11
0010
0000
0000
0000
,  // measure 12
0100
0000
0000
0000
,  // measure 13
0000
1000
0000
0000
,  // measure 14
0000
0000
0000
0000
,  // measure 15
0001
0000
0000
0000
,  // measure 16
0000
0000
0000
0000
,  // measure 17
0000
0010
0000
0000
,  // measure 18
0000
0000
0000
0000
,  // measure 19
1000
0000
0000
0000
,  // measure 20
0000
0000
0000
0000
,  // measure 21
0001
0000
0000
0000
,  // measure 22
0000
0000
0000
0000
,  // measure 23
1000
0000
0000
0000
,  // measure 24
0000
0000
0000
0000
,  // measure 25
0010
0000
0000
0000
,  // measure 26
0000
0000
0000
0000
,  // measure 27
0100
0000
0000
0000
,  // measure 28
0000
0000
0000
0000
,  // measure 29
0100
0000
0000
0000
,  // measure 30
0000
0000
0000
0000
,  // measure 31
0100
0000
0000
0000
,  // measure 32
0000
0000
0000
0000
,  // measure 33
1000
0000
0000
0000
,  // measure 34
1000
0000
0000
0000
,  // measure 35
0001
0000
0000
0000
,  // measure 36
0001
0000
0000
0000
,  // measure 37
0000
0100
0000
0100
,  // measure 38
0000
0000
0000
0000
,  // measure 39
0000
1000
0000
0000
,  // measure 40
0000
0000
0000
0000
,  // measure 41
0001
0000
0000
0000
,  // measure 42
0000
0000
0000
0000
,  // measure 43
0000
0010
0000
0000
,  // measure 44
0000
0000
0000
0000
,  // measure 45
0100
0000
0000
0000
,  // measure 46
0000
0000
0000
0000
,  // measure 47
0000
1000
0000
0000
,  // measure 48
0001
0000
0000
0000
,  // measure 49
0000
0000
0000
0000
,  // measure 50
0100
0000
0000
0000
,  // measure 51
0000
0000
0000
0000
,  // measure 52
0010
0000
0000
0000
,  // measure 53
0000
0000
0000
0000
,  // measure 54
0010
0000
0000
0000
,  // measure 55
0000
0000
0000
0000
,  // measure 56
1000
0000
0000
0000
,  // measure 57
1000
0000
0000
0000
,  // measure 58
1000
0000
0000
0000
,  // measure 59
1000
0000
0000
0000
,  // measure 60
0001
0000
0000
0000
,  // measure 61
0001
0000
0000
0000
,  // measure 62
0001
0000
0000
0000
,  // measure 63
0001
0000
0000
0000
,  // measure 64
0100
0000
0100
0000
,  // measure 65
0100
0000
0100
0000
,  // measure 66
0100
0000
0010
0000
,  // measure 67
0100
0000
1000
1000
,  // measure 68
0000
0000
0000
0000
,  // measure 69
0000
1001
0000
0000
;
