#TITLE:GENOCIDE;
#SUBTITLE:;
#ARTIST:dj Killer;
#TITLETRANSLIT:;
#SUBTITLETRANSLIT:;
#ARTISTTRANSLIT:;
#CREDIT:;
#BANNER:bn.bmp;
#BACKGROUND:bg.bmp;
#LYRICSPATH:;
#CDTITLE:Beatmania IIDX.png;
#MUSIC:genocide.mp3;
#OFFSET:-0.100;
#SAMPLESTART:33.160;
#SAMPLELENGTH:12.000;
#SELECTABLE:YES;
#BPMS:0.000=43.760,7.500=35.000,8.000=175.000;
#STOPS:;
#BGCHANGES:;

//---------------dance-single - ----------------
#NOTES:
     dance-single:
     :
     Hard:
     10:
     0.884,0.913,0.122,0.347,0.856:
0000
0000
0000
0000
,
0000
0000
0000
0000
,
1001
0000
1000
0000
0001
0000
0000
1000
0100
0000
0010
0000
0001
0000
0100
0000
,
0001
0000
0000
0100
0000
0000
0010
0100
0010
0000
1000
0000
0001
0000
0010
0000
,
0100
0000
0010
0000
1000
0000
0001
1000
0000
1000
0001
0000
0010
0000
0100
0000
,
1000
0000
0000
0100
0000
0000
0001
0010
0001
0000
0010
0000
0100
0000
0010
0000
,
1000
0100
1000
0000
0001
0010
0001
0000
0001
0100
0001
0100
0001
0000
0010
0000
,
0100
0010
0100
0000
1000
0000
0001
0000
0010
0000
0100
0000
1000
0000
0000
0000
,
1000
0001
0000
0001
0010
0000
1000
0100
0000
0001
1000
0000
0001
0000
0000
0000
,
1000
0001
0010
0100
1000
0001
0100
0010
0100
1000
0001
0010
0001
0100
1000
0100
,
0002
0000
0203
0000
0300
0000
0010
0100
0010
0000
1000
0001
1000
0000
1000
0000
,
0002
0000
0023
0000
0030
0000
1000
0100
1000
0000
0001
0010
0001
0000
1000
0000
,
0002
0000
0023
0000
0030
0000
1000
0000
0001
0000
0001
0010
0001
0000
1000
0100
,
1000
0000
0001
0000
0010
0000
1000
0100
1000
0100
1000
0000
0001
0010
0001
0000
,
1000
0001
1000
0000
0001
0100
0001
0000
0010
1000
0010
1000
0010
0000
0001
0000
,
1000
0001
1000
0000
1000
0100
1000
0000
0001
0010
0100
1000
0100
0000
0001
0000
,
1000
2000
0000
0010
0010
3020
0000
1030
,
1001
0000
0001
0010
0000
0100
1000
0000
1000
0100
0000
0001
0010
0100
1000
0001
,
1000
0000
0001
0000
0010
0100
1000
0001
1000
0100
0010
0000
0001
1000
0000
0000
,
1000
0000
1001
0000
0001
0010
0100
1000
0001
0100
0001
0100
0000
0010
0100
0000
,
1000
0000
1100
0000
1000
0100
0010
0001
0100
0001
0010
0100
0000
0100
0010
0000
,
0001
0000
0001
0000
1000
0001
0010
0100
1000
0100
0010
0001
0000
1000
0001
0000
,
1001
0000
0000
1000
0100
0000
0000
0100
0010
0000
0000
0010
0002
0000
0000
0000
,
0103
0000
0000
0010
0100
0000
0000
1000
0001
0000
0000
0001
0010
0000
0100
0010
,
0100
0000
0000
0010
0100
0000
0000
1000
0001
0000
0000
0001
0100
0000
0000
0000
,
1000
0000
0001
0000
0100
0000
0010
0100
0010
0000
1000
0001
1000
0000
0100
0000
,
0001
1000
0001
0010
0100
1000
0100
0010
0001
0010
0000
0000
,
0001
0100
0001
1000
0010
0100
1000
0100
0010
0001
0010
0100
,
1000
0100
0010
0001
0010
0100
0010
1000
0001
1000
0000
0000
,
0010
1000
0001
0010
0001
0010
0100
1000
0100
0010
0001
1000
,
0001
0000
0001
0010
0000
0010
0100
0000
0100
1000
0000
0000
,
1000
0000
0000
0001
0010
0000
0000
0010
0100
0000
0000
1000
0100
0000
0000
0001
,
1000
0002
0103
0002
0013
0002
0103
0002
,
1003
0000
0011
0000
0001
0010
0100
1000
0001
1000
0100
0010
0001
1000
0001
0100
,
0010
0100
0010
0100
0010
0000
0000
0000
1000
0100
1000
0100
1000
0000
0000
0000
,
0100
0001
0100
0001
0100
0000
0000
0000
0001
0010
0001
0010
0001
0000
0000
0000
,
1000
0100
1000
0100
1000
0000
0000
0000
0001
0100
0001
0100
0001
0000
0000
0000
,
0010
0010
0020
0000
0100
0100
0200
0330
,
1000
0001
1000
0000
0001
0000
0010
0000
1000
0100
1000
0000
1000
0000
0100
0000
,
0010
0001
0010
0000
0001
0000
1000
0000
0010
0100
0010
0000
1000
0000
0100
0000
,
1000
0100
1000
0000
0001
0000
0100
0000
0001
0010
0001
0000
1000
0000
0001
0000
,
0100
0010
0100
0000
0001
0000
1000
0000
0100
1000
0100
0000
0010
0000
0001
0000
,
1000
0001
0100
0000
0010
0000
0100
0000
0010
0100
0001
0000
1000
0000
0001
0000
,
1000
0001
0100
0000
0010
0000
0100
0000
0010
0100
0001
0000
1000
0000
0001
0000
,
1000
0100
1000
0000
0001
0000
0001
0000
0001
0100
0001
0000
0001
0000
0100
0000
,
0100
0000
0000
1000
0000
0000
0100
0000
0000
0010
0000
0000
0001
0000
0000
0010
0000
0000
0100
0000
0000
1000
0000
0000
0001
0000
0000
1000
0000
0000
0001
0000
0000
0010
0000
0000
0100
0000
0000
1000
0000
0000
0100
0000
1000
0000
0100
0000
,
2000
0100
3100
0000
0120
0100
0130
0000
,
0102
0000
0100
0000
0103
0000
0000
0000
2100
0000
0100
0000
3100
0000
0010
0100
,
0020
0000
0000
0000
0130
0000
0100
0001
0200
0000
0000
0000
0301
0000
0001
0010
,
0002
0000
0000
0000
0000
0000
0000
0000
0000
0000
0000
0000
1003
0000
0000
0000
0000
0000
1000
0000
0000
0001
0000
0000
1000
0000
0000
0000
0000
0000
0001
0000
0000
0000
0000
0000
0001
0000
0000
0000
0010
0000
0000
0000
0100
0000
0000
0000
,
2000
0100
3100
0000
0012
0010
0013
0000
,
0210
0010
0310
0000
0200
0000
2000
3000
,
2000
3000
0020
0030
,
0000
0000
2000
3000
0020
0030
0302
0000
,
0103
0010
1000
0100
0010
0001
0010
0100
,
1000
0001
1000
0010
0100
1000
0100
0010
,
0001
0010
0100
1000
0100
0010
0001
0010
,
1000
0000
0010
1000
0010
1000
0010
1000
,
0001
0100
0010
0001
0010
0100
1000
0100
,
0010
0001
0010
1000
0001
1000
0010
0100
,
1000
0100
0010
0001
0010
1000
0001
0100
,
0001
0010
0100
1000
0001
1000
0010
0100
1000
0100
0010
0001
0010
0100
0001
1000
,
2002
0000
0000
0000
,
0000
0000
0000
0000
,
3003
0000
0000
0000
;

//---------------dance-single - ----------------
#NOTES:
     dance-single:
     :
     Medium:
     7:
     0.567,0.555,0.051,0.489,0.076:
0000
0000
0000
0000
,
0000
0000
0000
0000
,
0001
1000
0100
0000
0001
0100
1000
0000
,
0010
0000
1010
0000
1000
0100
1000
0000
,
0010
0100
0010
0000
0001
1000
0010
0000
,
0001
0100
0000
0010
0000
0001
1000
0000
,
1000
0100
1000
0000
0001
0100
0010
0000
,
0001
0100
0000
0020
0000
1030
0001
0000
,
1000
0100
1000
0000
0001
0100
0001
0000
,
0001
1000
0010
1000
0001
1000
0010
1000
,
0001
0100
0000
0010
0100
0010
0000
0010
,
1000
0010
0000
0001
0100
1000
0000
1000
,
0100
1000
0000
0010
0100
0010
0000
0001
,
1000
0001
0000
0010
0100
0010
0000
1000
,
0100
2000
0000
3100
1000
0100
0000
0010
,
0100
0010
0000
0001
0100
0001
0000
0001
,
1000
0001
0000
0100
0010
1000
0000
1000
,
0100
0000
0000
0010
0000
0000
1000
0000
0000
0001
0000
0100
0001
0100
0001
0100
,
0001
0000
1000
0000
0001
0000
1000
0000
0001
0000
0000
1000
0000
0000
0100
0000
,
1000
0100
1000
0100
1000
0100
0010
0001
,
0010
0000
0100
0000
0010
0000
0100
0000
0001
0000
0000
0100
0000
0000
0010
0000
,
0001
1000
0001
1000
0001
0100
0001
0100
,
0002
0203
0320
1030
,
2000
3200
0320
0031
,
0002
2003
3020
0130
,
0020
0230
0302
1003
,
1002
1000
1000
1003
,
2001
0001
0001
3002
,
0203
0320
2030
3002
,
0203
0320
2030
3002
,
0203
0320
2030
3001
,
0002
2003
3002
0203
,
0320
2030
3020
1030
,
1000
0100
0010
0001
0010
0100
0010
1000
,
0001
1000
0001
0000
0001
0001
0001
0000
,
1000
1000
1000
0000
0010
0100
0001
0000
,
1000
0001
0100
0000
0001
1000
0010
0000
,
0002
0000
0200
0303
,
1000
0100
0000
0010
0001
0010
0000
0001
,
0100
0001
0000
0010
1000
0010
0000
1000
,
0100
1000
0000
0010
0001
0010
0000
0100
,
0001
0100
0000
0010
0100
0010
0000
1000
,
0100
1000
0000
0001
0100
0001
0000
0010
,
0100
0010
0000
1000
0100
1000
0000
0010
,
0001
0011
1000
1001
,
1000
0000
0001
0000
0010
0000
0100
0000
1000
0000
0100
0000
0010
0001
0010
0001
,
0020
0000
0032
0000
,
0203
0000
0000
0000
0000
0000
0000
0000
0320
0000
0000
0000
0030
0000
1000
0001
,
1000
0000
0000
0000
0000
0000
0001
1000
0001
0000
0000
0000
0000
0000
1000
0001
,
1000
0000
0000
0000
0000
0000
0100
1000
0100
0000
2000
0000
0000
0000
0000
0000
,
3020
0000
0130
0000
,
0002
0000
0100
0100
,
0200
0003
0020
0000
,
0330
0010
0100
0010
,
1000
0100
0000
0010
0001
0010
0100
0001
,
1000
0010
0000
1000
0100
0010
0001
0010
,
0100
0001
1000
0001
1000
0000
0100
0000
,
0010
0000
1000
0100
0010
0001
0010
0100
,
0001
1000
0001
0001
0100
0010
1000
0001
,
0100
0010
0000
1000
0100
0010
0001
0010
,
0100
1000
0000
0010
0001
0010
1000
0001
,
0100
0000
0000
0010
0000
0000
1000
0000
0000
0100
0000
0000
0010
0000
0000
0001
0000
0000
0010
0000
1000
0000
0002
0000
,
2000
0000
0000
0000
,
0000
0000
0000
0000
,
3003
0000
0000
0000
;

//---------------dance-single - ----------------
#NOTES:
     dance-single:
     :
     Easy:
     5:
     0.418,0.457,0.122,0.173,0.000:
0000
0000
0000
0000
,
0000
0000
0000
0000
,
0001
0000
1000
0000
0100
1000
0100
0000
,
0010
0100
0010
1000
,
0001
0000
1000
0000
0001
0100
0001
0000
,
0100
0010
1000
0001
,
0100
0000
1000
0000
0010
0000
1000
0001
,
0200
0010
0010
0310
,
1000
0001
0100
0010
,
1000
0100
0000
0010
0001
0000
0100
0000
,
0010
0100
0000
0010
0100
0000
0010
0000
,
0100
1000
0100
1000
,
1000
0100
0000
1000
0100
1000
0000
1000
,
0100
0010
0001
0100
,
0001
1000
0000
0001
1000
0001
0000
1000
,
0100
1000
0100
0010
,
0001
0100
0010
1000
,
1001
1001
1100
1100
,
0001
0000
1000
0001
0100
0000
0001
0000
,
1000
0000
0001
0000
0100
0001
0100
0000
,
0010
0000
1000
0000
0100
1000
0100
0000
,
1000
0100
0010
0001
,
0101
0001
0101
0100
,
1100
0100
1100
0100
,
1010
0010
1010
0010
,
0110
0010
0011
0001
,
2000
0001
0001
3001
,
0002
1000
1000
1000
,
1000
1000
1000
1003
,
0020
0100
0100
0130
,
0200
0010
0010
0310
,
0002
1000
1000
1003
,
2000
0001
0001
3001
,
0001
1000
0001
0100
,
0010
0100
0010
1000
,
0100
1000
0100
0000
0010
0001
0010
0000
,
0100
0010
1000
0001
,
2000
0000
0002
3003
,
0001
0100
0000
0000
0010
0100
0000
0000
,
1000
0100
0000
0000
0010
0001
0000
0000
,
0100
0001
0000
0000
0010
1000
0000
0000
,
1000
0100
0000
0000
0010
0001
0000
0000
,
0100
0001
0000
0000
0010
0100
0000
0000
,
1000
0100
0000
0000
0010
0001
0000
0000
,
0010
0100
0000
0000
0010
0100
0000
0000
,
1000
0000
0100
0000
1000
0100
0010
0001
,
0020
0000
0031
0000
,
0200
0000
0000
0000
0310
0000
0000
1000
,
0100
0000
0000
0010
0001
0000
0000
0010
,
0100
0000
0000
0010
0200
0000
0000
0000
,
0320
0000
0130
0000
,
0100
0000
0010
1000
,
0002
0000
0200
0000
,
0000
0303
0010
0000
0010
0000
0010
0000
,
1000
0100
0000
1000
0100
0000
0010
0000
,
0001
0100
0000
0001
0100
0000
0010
0000
,
1000
0100
0000
1000
0100
0000
0010
0000
,
0001
0000
0001
1000
0001
0100
0001
0100
,
0001
0100
0000
0010
0100
0000
0010
0000
,
0100
1000
0000
1000
0100
0000
0010
0000
,
0001
0100
0000
0010
1000
0000
0001
0000
,
1000
0100
0010
0001
0010
0100
0010
2000
,
0002
0000
0000
0000
,
0000
0000
0000
0000
,
3003
0000
0000
0000
;

//---------------dance-single - ----------------
#NOTES:
     dance-single:
     :
     Beginner:
     2:
     0.151,0.253,0.122,0.000,0.000: // measure 1
0000
0000
0000
0000
,  // measure 2
0000
0000
0000
0000
,  // measure 3
0001
0000
0000
0000
,  // measure 4
1000
0000
0000
0000
,  // measure 5
0010
0000
0000
0000
,  // measure 6
0100
0000
0000
0000
,  // measure 7
0010
0000
0000
0000
,  // measure 8
1001
0000
0000
0000
,  // measure 9
1000
0000
0000
0000
,  // measure 10
0001
0000
1000
0000
,  // measure 11
1001
0000
0000
0000
,  // measure 12
0010
0000
0000
0000
,  // measure 13
0100
0000
0000
0000
,  // measure 14
0010
0000
0000
0000
,  // measure 15
1000
0000
0000
0000
,  // measure 16
0001
0000
0000
0000
,  // measure 17
1000
0000
0000
0000
,  // measure 18
0110
0000
0010
0000
,  // measure 19
0110
0000
0000
0000
,  // measure 20
1001
0000
0000
0000
,  // measure 21
0001
0000
0000
0000
,  // measure 22
1000
0000
0000
0000
,  // measure 23
0010
0010
0010
0000
,  // measure 24
0100
0100
0100
0000
,  // measure 25
0010
0010
0010
0000
,  // measure 26
0100
0100
0100
0000
,  // measure 27
1000
1000
1000
0000
,  // measure 28
0001
0001
0001
0000
,  // measure 29
0010
0010
0010
0000
,  // measure 30
0100
0100
0100
0000
,  // measure 31
0110
0000
0010
0000
,  // measure 32
0110
0000
0100
0000
,  // measure 33
1001
0000
0001
0000
,  // measure 34
1001
0000
1000
0000
,  // measure 35
1001
0000
0000
0000
,  // measure 36
0010
0000
0000
0000
,  // measure 37
1000
0000
0000
0000
,  // measure 38
0000
0000
0000
0000
,  // measure 39
0010
0000
0010
0000
,  // measure 40
0100
0000
0100
0000
,  // measure 41
1000
0000
1000
0000
,  // measure 42
0001
0000
0001
0000
,  // measure 43
1000
0000
0001
0000
,  // measure 44
1000
0000
0001
0000
,  // measure 45
1000
0000
0001
0000
,  // measure 46
1001
0000
0000
0000
,  // measure 47
0010
0000
0000
0000
,  // measure 48
0010
0000
0000
0000
,  // measure 49
0100
0000
0100
0000
,  // measure 50
0100
0000
0000
0000
,  // measure 51
1000
0000
0000
0000
,  // measure 52
0001
0000
0000
0000
,  // measure 53
1000
0000
1000
0000
,  // measure 54
0000
0000
0000
0000
,  // measure 55
0001
0000
0000
0000
,  // measure 56
1000
0000
0000
0000
,  // measure 57
0001
0000
0000
0000
,  // measure 58
0100
0000
0010
0000
,  // measure 59
0100
0000
0000
0000
,  // measure 60
0010
0000
0000
0000
,  // measure 61
1000
0000
0000
0000
,  // measure 62
0001
0000
1000
0000
,  // measure 63
1001
0000
0000
0000
;
