#TITLE:Frozen Ray;
#SUBTITLE:(Original Mix);
#ARTIST:dj.TAKA;
#TITLETRANSLIT:;
#SUBTITLETRANSLIT:;
#ARTISTTRANSLIT:;
#CREDIT:;
#BANNER:bn.PNG;
#BACKGROUND:bg.PNG;
#LYRICSPATH:;
#CDTITLE:Beatmania IIDX.png;
#MUSIC:frozenRayOriginalMix.mp3;
#OFFSET:-0.031;
#SAMPLESTART:12.280;
#SAMPLELENGTH:24.660;
#SELECTABLE:YES;
#BPMS:0.000=155.940;
#STOPS:;
#BGCHANGES:;

//---------------dance-single - ----------------
#NOTES:
     dance-single:
     :
     Hard:
     7:
     0.495,0.500,0.099,0.230,0.000:
0000
0000
0000
0000
,
0000
0000
0000
0000
,
0000
0000
0000
0000
,
0000
0000
0000
0000
,
0001
0000
0100
0010
0000
0010
1000
0000
,
0100
0000
1000
0100
0000
0010
0001
0010
,
0100
0000
0001
1000
0000
0010
0000
0000
,
0002
0000
2000
3003
,
0001
0000
0101
0000
0000
0010
1000
0001
,
0000
1000
0000
0100
0000
1000
0100
0000
,
0001
0000
0100
0010
0000
0001
1000
0010
,
0000
0000
0000
1000
0100
0010
0001
0010
,
0001
0000
0101
0000
0001
0100
1000
0100
,
0000
0001
1000
0001
0000
1000
0000
0000
,
1000
0000
0000
0100
1000
0000
0000
1000
,
0200
0310
0020
0031
,
0001
0000
1001
0000
0001
1000
0001
0000
,
0001
0100
0001
0000
0010
0100
0010
0000
,
1000
0000
0100
0000
1000
0100
0001
0000
,
1000
0000
0001
1000
0010
1000
0001
0000
,
1000
0000
1100
0000
1000
0100
1000
0000
,
0010
0000
0110
0000
0010
0001
0010
0000
,
0100
0000
0001
0000
0010
1000
0001
0100
,
0000
1000
0100
1000
0000
0010
0001
0010
,
0000
0100
0001
0100
0000
0010
0100
0010
,
0000
1000
0100
1000
0000
0010
0100
0010
,
0000
1000
0100
1000
0000
0001
0100
0001
,
0000
0010
0001
0010
0000
0100
0010
0100
,
0000
0001
1000
0001
0000
0001
0100
0001
,
0000
0001
0010
0001
0000
0010
0100
0010
,
0000
0010
0100
0010
0000
0010
1000
0010
,
0000
0100
1000
0100
0000
1000
0100
1000
,
0000
1000
0100
2000
0000
3100
1000
0200
,
0000
1300
0100
2000
0000
3100
1000
0200
,
0000
0310
0100
0020
0000
0130
0010
0200
,
0000
0310
0100
0020
0000
0130
0010
0200
,
0000
0301
0100
0002
0000
0103
0001
0200
,
0000
0301
0100
0002
0000
0103
0001
0200
,
0000
0301
0010
0002
0000
0013
0001
0010
,
0001
0010
0100
1000
0100
0010
0001
0010
,
1000
0000
1001
0000
0001
0100
0000
1000
,
0100
0010
0001
0010
0000
0001
0100
0001
,
1000
0001
1000
0001
0001
0000
0001
0000
,
0100
0000
0010
0100
0000
1000
0100
0010
,
0001
0000
0011
0000
0001
0010
0100
1000
,
0100
0000
1100
0000
1000
0100
0010
0001
,
0010
0000
0010
0100
0000
1000
0100
0020
,
0002
0000
0000
0033
,
0001
0100
0001
0000
0010
1000
0010
0000
,
0100
1000
0100
0000
0010
0001
0010
0000
,
0001
1000
0010
0000
0100
1000
0001
0000
,
0100
1000
0010
1000
0100
0010
0001
0010
,
0100
0000
1100
0000
1000
0100
0001
0000
,
0001
0000
0010
0000
0001
0010
0100
0000
,
1000
0000
0001
0000
0100
0000
0001
0100
,
0020
0100
0100
0100
,
0200
0000
0000
0000
,
0330
0000
0000
0000
;

//---------------dance-single - ----------------
#NOTES:
     dance-single:
     :
     Medium:
     5:
     0.343,0.375,0.055,0.088,0.000:
0000
0000
0000
0000
,
0000
0000
0000
0000
,
0000
0000
0000
0000
,
0000
0000
0000
0000
,
0001
0000
0000
1000
0000
0100
0000
0000
,
1000
0000
0000
0100
0000
0010
0000
0000
,
0002
0000
0000
0000
,
2000
0000
0000
3003
,
0001
0101
0010
0100
,
1000
0100
0010
0001
,
1000
0000
0000
0001
0000
0000
0100
0010
,
0000
0000
0010
0100
,
0010
0000
0110
0000
0010
0000
1000
0001
,
0000
0000
1000
0100
0000
1000
0000
0000
,
0100
0000
0000
1000
0100
0000
0000
0010
,
0001
0001
1000
1000
,
0001
0000
1001
0000
0001
0100
0001
0000
,
0010
1000
0100
1000
,
0001
1000
0010
0000
0100
0000
0010
0000
,
1000
0001
0001
1000
,
0001
0000
0101
0000
0001
0100
0001
0000
,
0010
1000
0100
1000
,
1000
0000
0100
0000
0010
0000
1000
0001
,
0000
1000
0100
1000
0000
0010
0001
0010
,
0000
0100
0100
0000
0000
0010
0010
0000
,
0000
1000
1000
0000
0000
0001
0001
0000
,
0000
0100
0010
0000
0000
1000
0100
0000
,
0000
0010
0001
0000
0000
0100
0001
0100
,
0000
0010
0100
0000
0000
1000
0100
0000
,
0000
0010
0001
0000
0000
1000
0001
0000
,
0000
0010
0100
0000
0000
1000
0100
0000
,
0000
0010
0001
0000
0000
0010
0100
0000
,
0000
0001
1000
0001
0000
1000
0100
1000
,
0000
0010
0001
0010
0000
0100
0001
0100
,
0000
0010
0100
0010
0000
0001
1000
0001
,
0000
0100
1000
0100
0000
0010
0001
0010
,
0000
0100
0001
0100
0000
0010
0100
0010
,
0000
0010
1000
0010
0000
0100
1000
0100
,
0000
1000
0100
1000
0000
1000
0100
0020
,
0002
0000
0000
0033
,
0001
0000
0000
0100
0000
0010
0000
0000
,
1000
0000
0000
0001
0000
0100
0010
0100
,
0010
0000
0100
0000
,
1000
0000
0000
0001
0000
0000
0010
0000
,
0100
0000
0000
1000
0000
0100
0000
0000
,
1000
0000
0000
0100
0000
0000
0010
0000
,
0001
0000
0000
1000
0000
0001
0000
0200
,
0020
0000
0000
0330
,
0001
0001
1000
1000
,
0001
0010
0100
1000
,
0100
0010
0001
1000
,
0001
0100
0010
1000
,
0100
1100
1000
0100
,
0010
0001
0010
0100
,
1000
0001
0100
1000
,
0002
0000
0000
0000
,
2000
0000
0000
0000
,
3003
0000
0000
0000
;

//---------------dance-single - ----------------
#NOTES:
     dance-single:
     :
     Easy:
     2:
     0.171,0.215,0.022,0.044,0.000:
0000
0000
0000
0000
,
0000
0000
0000
0000
,
0000
0000
0000
0000
,
0000
0000
0000
0000
,
0001
0000
0000
0000
,
1000
0000
0000
0000
,
0100
0000
0000
0000
,
0000
0000
0000
0000
,
0001
0001
0000
1000
,
0000
0001
0000
0100
,
0010
0000
0010
0000
,
0100
0000
1000
0001
,
0100
0101
0000
0001
,
0000
1000
0000
0000
,
0100
0000
0100
0000
,
0010
0010
0010
0010
,
0100
0110
1000
0000
,
0001
0000
1000
0000
,
0001
0000
0100
0000
,
0010
0000
1000
0001
,
1000
0000
0001
0000
,
0100
0000
0010
0000
,
1000
0000
0001
0000
,
2000
0000
0000
3000
,
0000
0001
0000
0001
,
0000
0001
0000
0001
,
0000
1000
0000
1000
,
0000
1000
0000
1000
,
0000
0010
0000
0010
,
0000
0010
0000
0010
,
0000
0100
0000
0100
,
0000
0100
0000
0100
,
0000
1000
0000
0001
,
0000
1000
0000
0001
,
0000
0100
0000
0010
,
0000
0100
0000
0010
,
0000
1000
0000
0001
,
0000
0100
0000
0010
,
0000
1000
0000
0002
,
0200
0000
0000
0303
,
0001
0000
0000
0000
,
1000
0000
0000
0001
,
0100
0000
0010
0000
,
0100
0000
0000
0000
,
1000
0000
0000
0000
,
0001
0000
0000
0000
,
0100
0000
0010
0000
,
1000
0000
0000
0000
,
0010
0010
0100
0000
,
1000
0001
0100
0000
,
1000
0001
0100
0000
,
0010
0100
0010
0000
,
1000
0001
0100
0000
,
0001
1000
0010
0000
,
0001
0000
1000
0000
,
0002
0000
0000
0000
,
0003
0000
0000
0000
;

//---------------dance-single - ----------------
#NOTES:
     dance-single:
     :
     Beginner:
     1:
     0.070,0.121,0.000,0.000,0.000: // measure 1
0000
0000
0000
0000
,  // measure 2
0000
0000
0000
0000
,  // measure 3
0000
0000
0000
0000
,  // measure 4
0000
0000
0000
0000
,  // measure 5
0000
0000
0000
0000
,  // measure 6
0000
0000
0000
0000
,  // measure 7
0000
0000
0000
0000
,  // measure 8
0000
0000
0000
0000
,  // measure 9
0001
0000
0000
0000
,  // measure 10
1000
0000
0000
0000
,  // measure 11
0010
0000
0000
0000
,  // measure 12
0000
0000
0000
0000
,  // measure 13
0100
0100
0000
0000
,  // measure 14
0000
0000
0000
0000
,  // measure 15
1000
0000
0000
0000
,  // measure 16
0001
0000
0000
0000
,  // measure 17
0000
0100
0000
0000
,  // measure 18
0000
0000
0000
0000
,  // measure 19
0010
0000
0000
0000
,  // measure 20
0000
1000
0000
0000
,  // measure 21
1000
0000
0000
0000
,  // measure 22
0001
0000
0000
0000
,  // measure 23
0100
0000
0000
0000
,  // measure 24
0000
0000
0000
0000
,  // measure 25
0010
0000
0000
0000
,  // measure 26
0010
0000
0000
0000
,  // measure 27
0100
0000
0000
0000
,  // measure 28
0100
0000
0000
0000
,  // measure 29
1000
0000
0000
0000
,  // measure 30
1000
0000
0000
0000
,  // measure 31
0001
0000
0000
0000
,  // measure 32
0001
0000
0000
0000
,  // measure 33
0100
0000
0000
0000
,  // measure 34
0010
0000
0000
0000
,  // measure 35
1000
0000
0000
0000
,  // measure 36
0001
0000
0000
0000
,  // measure 37
0001
0000
0000
0000
,  // measure 38
1000
0000
0000
0000
,  // measure 39
0100
0000
0000
0000
,  // measure 40
0001
0000
0000
0000
,  // measure 41
1000
0000
0000
0000
,  // measure 42
0001
0000
0000
0000
,  // measure 43
0100
0000
0100
0000
,  // measure 44
0010
0000
0000
0000
,  // measure 45
0100
0000
0000
0000
,  // measure 46
0000
0000
0000
0000
,  // measure 47
1000
0000
0000
0000
,  // measure 48
0001
0000
0000
0000
,  // measure 49
0100
0000
0000
0000
,  // measure 50
0010
0000
0000
0000
,  // measure 51
1000
0000
0000
0000
,  // measure 52
0001
0000
0000
0000
,  // measure 53
1000
0000
0000
0000
,  // measure 54
0001
0000
0000
0000
,  // measure 55
0100
0000
0000
0000
,  // measure 56
0010
0000
0000
0000
;
