#TITLE:Freezing Atmosphere;
#SUBTITLE:;
#ARTIST:Twin AmadeuS;
#TITLETRANSLIT:;
#SUBTITLETRANSLIT:;
#ARTISTTRANSLIT:;
#CREDIT:;
#BANNER:bn.png;
#BACKGROUND:bg.png;
#LYRICSPATH:;
#CDTITLE:Beatmania IIDX.png;
#MUSIC:Freezing Atmosphere.mp3;
#OFFSET:-2.920;
#SAMPLESTART:16.700;
#SAMPLELENGTH:10.000;
#SELECTABLE:YES;
#BPMS:0.000=135.000;
#STOPS:131.750=0.444
;
#BGCHANGES:;

//---------------dance-single - ----------------
#NOTES:
     dance-single:
     :
     Hard:
     6:
     0.358,0.423,0.102,0.307,0.081:
0000
0000
0000
0000
,
0000
0000
0000
0000
,
0000
0000
0000
0000
,
0000
0000
0000
0000
,
0001
1000
0001
0000
0100
0000
0010
0000
,
1000
0100
0010
0001
0000
0000
0000
0000
,
0001
0100
0001
0000
0010
0000
0100
0000
,
1000
0100
0010
0001
1000
0000
0010
0010
,
0020
0000
0000
0000
0030
0000
0000
0001
,
0100
0000
0000
0010
0000
0000
1000
0000
0100
0000
0000
0010
0000
0000
0001
0000
,
2000
0000
0002
0000
,
0000
0000
0000
0000
3003
0000
0001
0100
,
0002
0000
0003
0010
,
0100
0000
0000
0010
0000
0000
1000
0000
0100
0000
0000
0010
0000
0000
0001
0000
,
0100
0000
0000
0010
0020
0000
0030
1000
,
2000
0000
3000
0001
0002
0000
0003
0000
,
1000
0000
0000
0000
0001
0000
0000
0000
0100
0000
0000
0010
0000
0000
0100
0000
,
0010
0000
0000
1000
0000
0000
0100
0000
0010
0000
0000
0001
0000
0000
0010
0000
,
0100
0000
0010
0000
1000
0000
0001
0100
,
0001
0000
0000
0100
0000
0000
0010
0000
1000
0000
0000
0010
0000
0000
1000
0000
,
0100
0000
1000
0000
0100
0000
0010
0001
,
0010
0000
0000
0100
0000
0000
1000
0000
0001
0000
0000
1000
0000
0000
0001
0000
,
0200
0000
0000
0300
,
0010
0000
0000
0100
0000
0000
1000
0000
0100
0000
0000
0010
0000
0000
0001
0000
,
2000
0000
0000
3000
,
0001
1000
0002
0000
1003
0001
2000
0000
,
3001
1000
0001
0100
0020
0000
1030
0000
,
0010
0100
0020
0000
0130
0010
0200
0000
,
0310
1000
0010
1000
0002
0000
1003
0000
,
1000
0100
2000
0000
3010
1000
0020
0000
,
0130
0010
1000
0001
2000
0000
3001
0000
,
0001
1000
0002
0000
1003
0001
2000
0000
,
3010
0100
0001
1000
0100
0010
0001
0010
,
0001
0100
2000
0000
0000
0000
0000
0000
,
0000
3100
1000
0000
0100
0000
0010
0000
,
0001
0100
0010
0000
1000
0000
0001
0000
,
0200
0310
2000
3001
,
0001
1000
0020
0000
0000
0130
0000
0000
,
1000
0100
0020
0000
0000
0031
0000
0000
,
0001
1000
0002
0000
0000
0103
0000
0000
,
0010
0000
0100
0010
0200
0000
0010
0000
,
0310
1010
0011
1100
,
0001
1000
0020
0000
0130
0000
1000
0000
,
0001
1000
0020
0000
1000
0000
0100
0000
,
0130
0000
0010
1000
0010
0000
0001
0000
,
1000
1002
0100
1000
,
0103
2001
0100
0001
,
3100
0000
0000
0000
1001
0000
0000
0010
0000
0000
0100
0000
1000
0000
0000
0100
,
0000
0000
0010
0000
0011
0000
0000
0100
0000
0000
1000
0000
1100
0000
0000
0010
,
0000
0000
0100
0000
0110
0000
0000
0010
0000
0000
1000
0000
1010
0000
0000
0010
,
0000
0001
0022
0000
0000
0000
0000
0000
,
0000
0000
0000
0033
,
0000
0000
0001
0100
0001
0000
1000
0000
,
0001
0000
0001
0010
0100
1000
0001
0000
,
0000
0000
0010
0010
0010
0000
0001
1000
,
0010
1000
0001
1000
0001
0100
0000
0000
,
0000
1000
0100
0010
,
0001
2000
0000
3000
,
0000
0202
0000
0000
,
0000
0000
0000
0000
,
0000
0000
0000
0000
,
0000
0000
0000
0000
,
0303
0000
0000
0000
;

//---------------dance-single - ----------------
#NOTES:
     dance-single:
     :
     Challenge:
     8:
     0.496,0.661,0.196,0.281,0.443:
0000
0000
0000
0000
,
0000
0000
0000
0000
,
0000
0000
0000
0000
,
0000
0000
0000
0000
,
0010
0100
0001
1000
0010
0000
0000
0000
0001
0000
0100
0000
0001
0000
1000
0000
,
0100
1000
0100
0001
0000
0000
0000
0000
,
0001
0010
0100
1000
0100
0000
0000
0000
0010
0000
1000
0000
0001
0000
0100
0000
,
1000
0000
0100
0000
0010
0000
0001
0000
2000
0000
0000
0000
3001
0100
0001
0100
,
0001
0000
0000
0100
0000
0000
1000
0000
0100
0000
0000
1000
0000
0000
0100
1000
,
0100
0000
0000
0010
0000
0000
0100
0000
1000
0000
0000
0100
0000
0000
0010
0000
,
0002
0000
0000
0000
0000
0000
1003
0001
2000
0000
0000
0000
0000
0000
0000
0000
,
0100
0000
0000
0100
0000
0000
0100
0000
3100
0000
0000
0000
0010
1000
0001
0100
,
0020
0000
0030
0001
,
0200
0000
0000
0310
0000
0000
0100
0000
2000
0000
0000
3100
0000
0000
0010
0000
,
0200
0000
0000
0000
0000
0000
0310
0100
0020
0000
0000
0000
0000
0000
0130
0010
,
0200
0000
0000
0000
0000
0000
0310
0100
0020
0000
0000
0000
0000
0000
0000
0000
,
0130
0000
0000
0000
1002
0000
0000
0000
0100
0000
0000
1000
0003
0000
0100
0000
,
1100
0000
0000
0010
0000
0000
0100
0000
0010
0000
0000
1000
0000
0000
0100
0000
,
0002
0000
0000
0000
0100
0000
0000
0000
0013
0000
0000
0000
0000
0000
0001
0100
,
0010
0000
0000
0100
0000
0000
1000
0000
0100
0000
0000
0010
0000
0000
0001
0000
,
2000
0000
0000
0000
3001
0000
0000
0000
0020
0000
0000
0000
0130
0000
0010
0100
,
0010
0000
0000
0100
0000
0000
1000
0000
0100
0000
0000
0010
0000
0000
0001
0000
,
2000
0000
0000
3000
,
1100
0000
0000
0110
0000
0000
0011
0000
0101
0000
0000
1100
0000
0000
0110
0000
,
1001
0000
0000
1100
0000
0000
0010
0000
0022
0000
0000
0000
0033
0000
0000
0000
,
0001
0100
0001
0100
0001
0000
0000
0000
1000
0100
1000
0100
1000
0000
0000
0000
,
0010
0100
0010
0100
0010
0000
1000
0000
0002
0000
0000
0000
0103
0000
0000
0000
,
0010
1000
0010
1000
0010
0000
0000
0000
0001
0100
0001
0100
0001
0000
0000
0000
,
1000
0100
1000
0100
1000
0000
0100
0000
0010
0000
0000
0000
0002
0000
0000
0000
,
1003
0100
1000
0100
1000
0000
0000
0000
0010
0100
0010
0100
0010
0000
0000
0000
,
0001
1000
0010
1000
0001
0000
0010
0000
0200
0000
0000
0000
0310
0000
0000
0000
,
1000
0010
1000
0010
1000
0000
0000
0000
0001
0100
0010
1000
0001
0000
0000
0000
,
1000
0100
0010
0001
0010
0100
1000
0001
1000
0001
0100
0010
0100
0010
1000
0001
,
0001
0100
0001
0100
0010
0000
0000
0100
0000
0000
1000
0000
0100
0000
0000
1000
,
0000
0000
0100
0000
1000
0000
0000
0100
0000
0000
0010
0000
0001
0000
0000
0010
,
0000
0000
0100
0000
1000
0000
0010
1000
0000
0000
0010
1000
0000
0010
1000
0000
,
0000
0010
0000
0000
0100
0000
0000
0000
1000
0000
0000
0100
0000
0000
0000
0000
,
0001
0100
0001
0100
0002
0000
0000
0000
0000
0000
0103
0000
0000
0000
0000
0000
,
0010
0000
0010
0100
0020
0000
0000
0000
0000
0000
0130
0000
0000
0000
0000
0000
,
1000
0100
1000
0100
2000
0000
0000
0100
0000
0000
0010
0000
0000
0000
0000
0000
,
0000
0000
0001
0000
0001
0000
0000
0002
0000
0000
0000
0000
0000
0000
0000
3003
,
0000
0000
0001
0000
0001
1000
0000
0100
0010
0000
1000
0001
0000
0010
0100
0000
,
1000
0000
0100
0000
2000
0000
0000
3100
0000
0000
0000
0000
0000
0000
0000
0000
,
0000
0010
0100
0010
1000
0001
0020
0000
,
0130
0000
0000
0000
0000
0000
0010
0000
0000
1000
0000
0000
0010
0000
0001
0000
0010
0000
0100
0000
0001
0000
1000
0000
,
0001
0000
0100
0000
0010
0000
0200
0000
0000
0000
0000
0000
0000
0000
0000
0310
0000
0000
0000
0000
0000
0000
0000
0000
,
0010
2000
0000
0000
,
3000
0000
0000
0000
0001
0000
0000
1000
0000
0000
0100
0000
1000
0000
0000
0100
,
0000
0000
0010
0000
0011
0000
0000
0110
0000
0000
1100
0000
0110
0000
0000
0011
,
0000
0000
1100
0000
0110
0000
0000
1001
0000
0000
1001
0000
1100
0000
0000
0000
,
0010
0000
0000
0000
0001
0100
0001
0100
0002
0000
0000
0000
1000
0000
0000
0000
,
0103
0000
1000
0100
0001
0200
0000
0000
,
0300
0000
0000
0000
0010
1000
0001
1000
0010
0000
0000
0000
1000
0000
0100
0000
,
0010
0001
0010
0010
0100
0100
0110
0000
,
0000
0000
0000
0000
0001
1000
0010
1000
0001
0000
0000
0000
1000
0000
0100
0000
,
0010
0001
0010
0100
1000
0002
0000
0000
,
0003
0000
0000
0000
0001
0100
0001
0100
0010
0000
0000
0000
1000
0000
0100
0000
,
0010
0001
0010
0100
0010
1000
0000
0000
,
0000
2002
0000
0000
,
0000
0000
0000
0000
,
0000
0000
0000
0000
,
0000
0000
0000
0000
,
3003
0000
0000
0000
;

//---------------dance-single - ----------------
#NOTES:
     dance-single:
     :
     Medium:
     4:
     0.311,0.339,0.102,0.477,0.000:
0000
0000
0000
0000
,
0000
0000
0000
0000
,
0000
0000
0000
0000
,
0000
0000
0000
0000
,
0001
0100
0001
0000
1000
0000
0001
0000
,
1000
0000
0001
0100
0000
0000
0000
0000
,
0010
0100
0010
0000
1000
0000
0001
0000
,
1000
0100
0010
0001
0010
0000
0001
0100
,
0002
0000
0000
0000
0003
0000
0000
1000
,
0200
0000
1300
0000
,
0020
0000
0130
0000
,
0001
0000
1000
0000
0100
0000
0001
0100
,
0020
0000
0030
0001
,
2000
3100
0010
0001
,
0200
0000
0310
0000
,
0002
0000
1003
0000
,
1000
0100
0010
0001
,
0200
0310
0020
0130
,
2002
0000
3003
0000
,
0002
1003
2000
3100
,
0010
0000
0100
0000
1000
0000
0001
1000
,
0002
0103
2000
3100
,
0020
0000
0000
0030
,
0101
0000
1100
0000
,
0220
0000
0000
0330
,
0001
1000
0001
0000
0001
0100
0001
0000
,
0010
1000
0200
2300
,
3100
1000
0100
0000
0010
0100
0010
0000
,
0001
0100
0002
0000
0100
0000
0103
0000
,
0010
0100
0010
0000
0001
1000
0001
0000
,
1000
0001
0200
0320
,
0130
0010
0100
0000
0001
1000
0001
0000
,
2000
3002
0203
0320
,
0130
0010
0200
0000
0000
0000
0310
0000
,
0000
0010
2000
0000
0100
0000
0100
0000
,
3100
0020
0032
0100
,
0100
2003
3020
0230
,
0310
0100
0020
0000
0000
1030
0000
0000
,
0001
0100
0002
0000
0000
0103
0000
0000
,
1000
0100
2000
0000
0000
3200
0000
0000
,
0000
0310
0200
0002
0000
0000
0000
0000
,
0303
0001
1000
0001
,
0100
0020
0100
0000
0200
0000
0000
0000
,
0330
0002
1000
0103
,
1000
0000
0100
0000
0001
0100
1000
0010
,
0001
1000
0002
0000
0000
1003
0000
0000
,
1000
0200
0000
0000
,
0300
2000
0000
3002
,
0000
0103
0000
0110
,
0000
1100
0000
0011
,
0000
0202
0000
0000
,
0000
0000
0000
0000
0000
0303
0000
0000
,
0000
2020
0000
0000
,
0000
0000
0000
3030
,
0000
2100
0100
0100
,
0100
0000
3100
1000
0100
2000
0000
0000
,
3000
0012
0010
0010
,
0010
0000
0013
0001
0010
0100
1000
0000
,
0000
2002
0000
0000
,
0000
0000
0000
0000
,
0000
0000
0000
0000
,
0000
0000
0000
0000
0000
0000
0000
0000
0000
0000
0000
0000
0000
0000
0000
0000
0000
0000
0000
0000
0000
0000
0000
0000
0000
0000
0000
0000
0000
0000
0000
0000
0000
0000
0000
0000
0000
0000
0000
0000
0000
0000
0000
0000
0000
0000
0000
0000
0000
0000
3003
0000
0000
0000
0000
0000
0000
0000
0000
0000
0000
0000
0000
0000
0000
0000
0000
0000
0000
0000
0000
0000
0000
0000
0000
0000
0000
0000
0000
0000
0000
0000
0000
0000
0000
0000
0000
0000
0000
0000
0000
0000
0000
0000
0000
0000
0000
0000
0000
0000
0000
0000
0000
0000
0000
0000
0000
0000
0000
0000
0000
0000
0000
0000
0000
0000
0000
0000
0000
0000
0000
0000
0000
0000
0000
0000
0000
0000
0000
0000
0000
0000
0000
0000
0000
0000
0000
0000
0000
0000
0000
0000
0000
0000
0000
0000
0000
0000
0000
0000
0000
0000
0000
0000
0000
0000
0000
0000
0000
0000
0000
0000
0000
0000
0000
0000
0000
0000
0000
0000
0000
0000
0000
0000
0000
0000
0000
0000
0000
0000
0000
0000
0000
0000
0000
0000
0000
0000
0000
0000
0000
0000
;

//---------------dance-single - ----------------
#NOTES:
     dance-single:
     :
     Easy:
     3:
     0.208,0.287,0.026,0.332,0.000:
0000
0000
0000
0000
,
0000
0000
0000
0000
,
0000
0000
0000
0000
,
0000
0000
0000
0000
,
0001
1000
0001
0100
,
0010
0100
0000
0000
,
0010
0100
1000
0001
,
1000
0100
0010
0000
,
0002
0000
0000
0000
,
2003
0000
3002
0000
,
0203
0000
0002
0000
,
0000
0000
0303
0010
,
0200
0000
0300
0010
,
2000
0000
3002
0000
,
1003
0000
0200
0300
,
0020
0030
2000
3000
,
0001
1000
0100
0010
,
0002
0013
0020
0031
,
0002
0000
0003
0000
,
1000
0001
0100
0010
,
2000
0000
3000
0000
,
0001
1000
0100
0010
,
0002
0000
0000
0003
,
2000
0000
3002
0000
,
0200
0000
0000
0303
,
0001
0000
1000
0000
,
0001
0010
0100
1000
,
1100
0000
0010
0000
,
0001
0010
0100
1000
,
1001
0000
0010
0000
,
0010
0100
1000
0001
,
1000
0000
0001
0000
,
1000
0100
0010
0001
,
0000
0002
0000
0003
,
0000
1000
0001
0100
,
0010
2000
0100
0100
,
3100
0100
1000
0100
,
0010
0002
0000
0003
,
0100
0020
0000
0030
,
0010
0200
0000
0300
,
0000
0020
0000
0030
,
0000
1000
0001
1000
,
0002
0200
0000
0000
,
0303
0001
1000
0010
,
0100
0010
1000
0100
,
0010
0002
0000
0000
,
0000
2000
0000
0000
,
3003
2000
0000
3200
,
0000
2300
0000
3020
,
0000
0230
0000
0302
,
0000
0020
0000
0000
,
0000
0000
0000
0003
,
0000
0002
0000
0000
,
0000
0000
0000
0033
,
0000
0001
0100
1000
,
0100
0010
0001
0000
,
0000
0001
1000
0100
,
0010
0001
0100
0010
,
0000
2002
0000
0000
,
0000
0000
0000
0000
,
0000
0000
0000
0000
,
0000
0000
0000
0000
0000
0000
0000
0000
0000
0000
0000
0000
0000
0000
0000
0000
0000
3003
0000
0000
0000
0000
0000
0000
0000
0000
0000
0000
0000
0000
0000
0000
0000
0000
0000
0000
0000
0000
0000
0000
0000
0000
0000
0000
0000
0000
0000
0000
0000
0000
0000
0000
0000
0000
0000
0000
0000
0000
0000
0000
0000
0000
0000
0000
;

//---------------dance-single - ----------------
#NOTES:
     dance-single:
     :
     Beginner:
     1:
     0.069,0.124,0.034,0.000,0.000: // measure 1
0000
0000
0000
0000
,  // measure 2
0000
0000
0000
0000
,  // measure 3
0000
0000
0000
0000
,  // measure 4
0000
0000
0000
0000
,  // measure 5
0010
0000
0000
0000
,  // measure 6
0000
0000
0000
0000
,  // measure 7
0100
0000
0000
0000
,  // measure 8
0000
0000
0000
1000
,  // measure 9
1000
0000
0000
0000
,  // measure 10
0001
0000
0000
0000
,  // measure 11
0100
0000
0100
0000
,  // measure 12
0000
0000
0000
0010
,  // measure 13
0010
0000
0000
0000
,  // measure 14
1000
0000
0000
0000
,  // measure 15
0001
0000
0000
0000
,  // measure 16
0100
0000
0000
0000
,  // measure 17
1001
0000
0000
0000
,  // measure 18
1000
0000
1000
0000
,  // measure 19
1000
0000
0000
0000
,  // measure 20
0001
0000
0001
0000
,  // measure 21
0001
0000
0000
0000
,  // measure 22
0010
0000
0010
0000
,  // measure 23
0010
0000
0000
0000
,  // measure 24
0100
0000
0100
0000
,  // measure 25
0110
0000
0000
0000
,  // measure 26
1001
0000
0000
0000
,  // measure 27
0000
0000
0000
0000
,  // measure 28
0100
0000
0000
0000
,  // measure 29
0000
0000
0000
0000
,  // measure 30
0001
0000
0000
0000
,  // measure 31
0000
0000
0000
0000
,  // measure 32
1000
0000
0000
0000
,  // measure 33
0000
0000
0000
0000
,  // measure 34
0000
0010
0000
0000
,  // measure 35
0000
0100
0000
0000
,  // measure 36
0000
1000
0000
0000
,  // measure 37
0000
0001
0000
0000
,  // measure 38
0000
0100
0000
0000
,  // measure 39
0000
0010
0000
0000
,  // measure 40
0000
1000
0000
0000
,  // measure 41
0000
0001
0000
0000
,  // measure 42
0000
0100
0000
0000
,  // measure 43
0000
0010
0000
0000
,  // measure 44
0000
1000
0000
0000
,  // measure 45
0000
0001
0000
0000
,  // measure 46
0000
0100
0000
0000
,  // measure 47
0000
0010
0000
0000
,  // measure 48
0000
1000
0000
0001
,  // measure 49
0000
0100
0000
0000
,  // measure 50
0000
0000
0000
0000
,  // measure 51
0000
0010
0000
0000
,  // measure 52
0000
0000
0000
0000
,  // measure 53
0000
0100
0000
0000
,  // measure 54
0000
0000
0000
0000
,  // measure 55
0000
1000
0000
0000
,  // measure 56
0000
0001
0000
0000
,  // measure 57
0000
0100
0000
0000
,  // measure 58
0000
0010
0000
0000
,  // measure 59
0000
1001
0000
0000
;
