#TITLE:Footloose;
#SUBTITLE:;
#ARTIST:Bus Stop;
#TITLETRANSLIT:;
#SUBTITLETRANSLIT:;
#ARTISTTRANSLIT:;
#CREDIT:;
#BANNER:bn.PNG;
#BACKGROUND:bg.PNG;
#LYRICSPATH:;
#CDTITLE:Dance Mania.png;
#MUSIC:13_-_bus_stop_-_footloose.mp3;
#OFFSET:-0.020;
#SAMPLESTART:60.220;
#SAMPLELENGTH:12.000;
#SELECTABLE:YES;
#BPMS:0.000=160.000;
#STOPS:160.000=1.125
;
#BGCHANGES:;

//---------------dance-single - ----------------
#NOTES:
     dance-single:
     :
     Hard:
     7:
     0.477,0.489,0.426,0.244,0.000:
0000
0000
0000
0000
,
0000
0000
0000
0000
,
0000
0000
0000
0000
,
0000
0000
0000
0110
,
1001
0010
0000
0010
,
0000
0010
0000
0100
,
0000
1000
0000
1000
,
1100
0101
0011
1010
,
0002
0000
0003
0110
,
0010
0000
1000
0100
0000
0010
0100
0000
,
0010
0002
0023
0130
,
1100
0000
0010
0010
0000
0100
0100
0000
,
1000
0020
2030
3001
,
0101
0000
0010
0010
0000
1000
1000
0000
,
0100
0002
0203
0310
,
1010
0000
0010
0100
0000
0100
1000
0000
,
0100
0000
0002
0000
2003
0000
0000
3000
,
0010
0100
0010
1000
0001
0100
0010
0000
,
0010
1000
0001
0100
0010
0001
0010
0000
,
0100
1000
0010
1000
0001
0010
0100
0000
,
0100
0001
1000
0100
1000
0010
0001
0000
,
0010
0100
0010
0100
1000
0010
1000
0000
,
0001
0100
0001
0100
0010
1000
0010
0000
,
0001
1000
0100
0010
0100
0010
1000
0000
,
0100
0010
1000
0000
0100
0001
0010
0000
,
0010
0000
1000
0001
0000
0100
1000
0000
,
1100
0000
0010
0100
0000
0100
0001
0000
,
0010
0000
0100
1000
0000
1000
0100
0000
,
0020
0230
0302
2003
,
3100
0000
0100
1000
0000
1000
0100
0010
,
0000
0011
0000
0000
0110
0000
0010
1000
,
0001
0000
0100
1000
0000
1000
0000
0010
,
0001
0100
0010
0000
0101
0000
1010
0000
,
0010
0000
0010
0100
0000
0010
0100
1000
,
0100
0000
0010
0100
0000
0000
0101
0000
,
1010
0000
0010
0100
0000
0100
1000
0000
,
1000
0100
0010
0001
,
0101
0000
0000
0000
,
1010
0000
0000
0000
,
1100
0000
0110
0000
,
1100
0011
0001
0100
,
1010
1010
1000
0100
,
0010
0100
0000
0001
0000
1000
0100
0000
,
1001
1001
0000
0000
,
0000
1100
0010
0100
,
0101
0011
1000
0100
,
0010
0000
1000
0000
0100
1000
0000
0100
,
1000
1001
0110
0002
,
0203
0301
1010
0001
,
0010
0100
0001
0000
1001
0000
0010
0000
,
0000
0100
0000
1000
0000
1000
0100
0000
,
0010
0011
0102
0100
,
0010
0010
0013
0000
1000
0100
0000
0100
,
1000
0000
1010
0000
0000
0000
0001
0001
,
0001
0000
0100
1000
0001
0100
1000
0000
,
0100
0000
0220
0000
0000
0330
0000
1000
,
0001
1000
0010
0000
1000
0100
0000
0010
,
0100
0000
0011
0102
,
0000
0000
0013
0000
1000
1000
0000
0100
,
0100
0000
0002
0203
,
0000
0000
0310
0000
1000
0100
0000
0001
,
0010
0000
1001
1002
,
0000
0000
0103
0000
1000
0100
0000
0010
,
0001
0000
2000
0002
,
0000
3003
0000
0000
;

//---------------dance-single - ----------------
#NOTES:
     dance-single:
     :
     Medium:
     5:
     0.348,0.390,0.355,0.274,0.000:
0000
0000
0000
0000
,
0000
0000
0000
0000
,
0000
0000
0000
0000
,
0000
0000
0000
1000
,
2100
0100
0000
0100
,
0000
0100
0000
3100
,
1100
0000
0011
0000
,
0110
0110
0120
0100
,
2000
0000
0000
3030
,
0001
0000
0000
0010
0000
0000
0100
0000
,
0000
2000
0200
3300
,
0011
0000
0000
0100
0000
0000
0101
0000
,
0000
0002
2000
3003
,
0110
0000
0000
0001
0000
0000
1000
0000
,
0000
2100
0020
3030
,
0101
0000
0000
0110
0000
0000
1100
0000
,
0000
2000
0020
3030
,
0001
0000
0100
0000
0001
0100
0001
0000
,
1000
0000
0100
0000
1000
0100
1000
0000
,
0010
0000
1000
0000
0010
1000
0010
0000
,
0001
0000
1000
0000
0001
0010
0100
0000
,
1000
0000
0001
0000
0100
0001
0010
0000
,
1000
0000
0001
0000
0100
1000
0010
0000
,
1000
0000
0001
0000
0100
0010
0100
0000
,
2000
3100
0002
0103
,
0000
1000
0100
0010
,
0002
0000
0000
0013
0000
0000
0000
0000
,
0000
0001
0100
1000
,
0100
0001
0100
1000
,
1010
0000
0000
0010
0000
0000
0100
0000
,
0000
1000
0000
0000
0100
0000
0010
0000
,
0001
0100
1000
0100
,
0010
1000
0001
0000
0100
0000
0010
0000
,
0010
1000
0100
0010
,
0002
0000
0000
0013
0000
0000
0000
0000
,
0000
1000
0001
0100
,
0010
0100
1000
0100
,
0011
0000
1000
0000
,
1100
0000
0010
0000
,
0101
0000
1010
0000
,
1001
0011
0000
0000
,
1100
0101
0000
0000
,
0000
0010
0000
0100
0000
1000
0100
0000
,
0010
0011
0000
0000
,
0000
0101
0000
0000
,
1100
0101
0000
0000
,
0000
0000
0110
0000
0010
0100
0000
1000
,
0100
0010
0000
0002
,
0203
0301
0000
0000
,
1010
0101
0000
0000
,
0000
0010
0000
0100
0000
1000
0100
0000
,
0010
0001
0000
0000
,
0000
0101
0000
0000
,
1100
0101
0000
0000
,
0000
0000
0001
0010
0100
1000
0100
0000
,
0020
2000
0000
0000
,
3030
0000
0001
0000
0000
0100
0000
0000
,
1000
0000
0002
2000
,
3003
0000
0100
0000
0000
0010
0000
0000
,
1000
0000
0002
0020
,
0033
0000
0001
0000
0000
1000
0000
0000
,
0010
0000
0200
0020
,
0330
0000
1100
0000
0000
0011
0000
0000
,
0101
0000
2000
0002
,
3003
0000
0000
0000
;

//---------------dance-single - ----------------
#NOTES:
     dance-single:
     :
     Easy:
     4:
     0.290,0.390,0.102,0.223,0.000: // measure 1
0000
0000
0000
0000
,  // measure 2
0000
0000
0000
0000
,  // measure 3
0000
0000
0000
0000
,  // measure 4
0000
0000
0000
1000
,  // measure 5
1000
0001
0000
0001
,  // measure 6
0000
0001
0000
0100
,  // measure 7
0110
0000
0110
0000
,  // measure 8
0110
0110
0110
0020
,  // measure 9
2000
0000
0000
3030
,  // measure 10
0001
1000
0001
1000
,  // measure 11
0001
0200
0002
0303
,  // measure 12
0001
1000
0001
1000
,  // measure 13
0001
2000
0200
3300
,  // measure 14
1000
0100
1000
0100
,  // measure 15
1000
0200
0002
0303
,  // measure 16
0001
0010
0001
0010
,  // measure 17
0000
0002
2000
3003
,  // measure 18
1000
1000
1000
1000
,  // measure 19
0001
1000
0001
0100
,  // measure 20
0001
0100
0010
1000
,  // measure 21
0100
0010
0001
0100
,  // measure 22
1000
1000
0001
0001
,  // measure 23
0100
0100
0010
0010
,  // measure 24
1000
0100
0001
0010
,  // measure 25
2000
3100
0002
0103
,  // measure 26
0000
1000
0001
1000
,  // measure 27
0002
0000
0003
0000
,  // measure 28
0000
0100
0010
0100
,  // measure 29
0010
0100
1000
0001
,  // measure 30
0101
0000
1000
0000
,  // measure 31
0010
0000
0001
1000
,  // measure 32
0001
0000
0100
0000
,  // measure 33
0010
0000
1000
0000
,  // measure 34
1001
0000
0100
0000
,  // measure 35
0020
0000
0030
0000
,  // measure 36
0000
0000
1000
0000
,  // measure 37
0001
1000
0001
0100
,  // measure 38
1100
0000
0010
0000
,  // measure 39
0010
0000
0001
0000
,  // measure 40
1000
0000
0001
0000
,  // measure 41
0101
0100
0000
0000
,  // measure 42
1000
1000
0000
0000
,  // measure 43
0000
0001
1000
0100
,  // measure 44
0010
0011
0000
0000
,  // measure 45
0000
0010
0000
0000
,  // measure 46
1000
1000
0000
0000
,  // measure 47
0000
0001
1000
0100
,  // measure 48
0010
0001
0000
2000
,  // measure 49
3200
1300
0000
0000
,  // measure 50
0001
0001
0000
0000
,  // measure 51
0000
0010
0100
0010
,  // measure 52
0100
1000
0000
0000
,  // measure 53
0000
0001
0000
0000
,  // measure 54
1000
1000
0000
0000
,  // measure 55
0000
1000
0001
0100
,  // measure 56
0020
2000
0000
0000
,  // measure 57
3030
1000
0001
1000
,  // measure 58
0001
1000
0002
0200
,  // measure 59
0303
0001
0010
0001
,  // measure 60
1000
0001
0100
0010
,  // measure 61
0000
0010
0100
1000
,  // measure 62
0001
1000
0001
1000
,  // measure 63
0000
1000
0001
0100
,  // measure 64
0010
0000
2000
0002
,  // measure 65
3003
0000
0000
0000
;

//---------------dance-single - ----------------
#NOTES:
     dance-single:
     :
     Beginner:
     1:
     0.065,0.162,0.020,0.000,0.000: // measure 1
0000
0000
0000
0000
,  // measure 2
0000
0000
0000
0000
,  // measure 3
0000
0000
0000
0000
,  // measure 4
0000
0000
0000
0010
,  // measure 5
0010
0000
0000
0000
,  // measure 6
0000
0000
0000
0000
,  // measure 7
1000
0000
0000
0000
,  // measure 8
0000
0000
0000
0000
,  // measure 9
0000
0000
0000
0000
,  // measure 10
0010
0000
0000
0000
,  // measure 11
0000
0000
0000
0000
,  // measure 12
0001
0000
0000
0000
,  // measure 13
0000
0000
0000
0000
,  // measure 14
1000
0000
0000
0000
,  // measure 15
0000
0000
0000
0000
,  // measure 16
0100
0000
0000
0000
,  // measure 17
0000
0000
0000
0000
,  // measure 18
1000
0000
0000
0000
,  // measure 19
0000
0000
0000
0000
,  // measure 20
0001
0000
0000
0000
,  // measure 21
0000
0000
0000
0000
,  // measure 22
0010
0000
0000
0000
,  // measure 23
0000
0000
0000
0000
,  // measure 24
0100
0000
0000
0000
,  // measure 25
0000
0000
0000
0000
,  // measure 26
1000
0000
0000
0000
,  // measure 27
0000
0000
0000
0000
,  // measure 28
0000
0000
0000
0000
,  // measure 29
0000
0000
0000
0000
,  // measure 30
0001
0000
0000
0000
,  // measure 31
0000
0000
0000
0000
,  // measure 32
0010
0000
0000
0000
,  // measure 33
0000
0000
0000
0000
,  // measure 34
0100
0000
0000
0000
,  // measure 35
0000
0000
0000
0000
,  // measure 36
0010
0000
0000
0000
,  // measure 37
0000
0000
0000
0000
,  // measure 38
0001
0000
0000
0000
,  // measure 39
0001
0000
0000
0000
,  // measure 40
1000
0000
1000
0000
,  // measure 41
1001
0100
0000
0000
,  // measure 42
0000
0100
0000
0000
,  // measure 43
0000
0000
0000
1000
,  // measure 44
1000
1000
0000
0000
,  // measure 45
0000
0001
0000
0000
,  // measure 46
0000
1000
0000
0000
,  // measure 47
0000
0010
0000
0000
,  // measure 48
0000
0000
0000
0100
,  // measure 49
0100
0100
0000
0000
,  // measure 50
0000
0000
0000
0000
,  // measure 51
0000
0010
0000
0000
,  // measure 52
0000
0000
0000
0000
,  // measure 53
0000
1000
0000
0000
,  // measure 54
0000
0000
0000
0000
,  // measure 55
0000
0001
0000
1000
,  // measure 56
0000
1001
0000
0000
,  // measure 57
0000
0010
0000
0000
,  // measure 58
0000
0000
0000
0000
,  // measure 59
0000
0100
0000
0000
,  // measure 60
0000
0000
0000
0000
,  // measure 61
0000
1000
0000
0000
,  // measure 62
0000
0000
0000
0000
,  // measure 63
0000
0001
0000
0000
,  // measure 64
0000
0000
0010
0100
;
