#TITLE:Flow(Unique's Direction Mix);
#SUBTITLE:;
#ARTIST:Scotty D. Revisits U1;
#TITLETRANSLIT:;
#SUBTITLETRANSLIT:;
#ARTISTTRANSLIT:;
#CREDIT:;
#BANNER:bn.PNG;
#BACKGROUND:bg.png;
#LYRICSPATH:;
#CDTITLE:Konami Original.png;
#MUSIC:Flow(Unique's Direction Mix).mp3;
#OFFSET:-0.060;
#SAMPLESTART:96.020;
#SAMPLELENGTH:12.000;
#SELECTABLE:YES;
#BPMS:0.000=140.020,96.000=70.010,144.000=280.040,200.000=70.010,202.000=140.020;
#STOPS:;
#BGCHANGES:;

//---------------dance-single - ----------------
#NOTES:
     dance-single:
     :
     Hard:
     8:
     0.482,0.640,0.222,0.214,0.333: // measure 1
0000
0000
0000
0000
,  // measure 2
0000
0000
0000
0000
,  // measure 3
0000
0000
0000
0000
,  // measure 4
0000
0000
0000
0000
,  // measure 5
1000
0100
0010
0001
0100
1000
0001
1000
,  // measure 6
0100
0010
0001
0100
1000
0010
0001
0100
,  // measure 7
0001
0010
0001
0010
1000
0100
0001
1000
,  // measure 8
0010
0001
0100
0010
2000
0000
0010
0000
,  // measure 9
3001
0000
0000
0000
0000
0000
1000
0000
0010
0000
1000
0000
0100
0000
1000
0010
,  // measure 10
0000
0001
0000
0001
0010
0000
0001
1000
0001
0000
0010
0100
0010
0000
0001
1000
,  // measure 11
0000
0000
0000
0000
0010
0000
0001
0000
1000
0000
0010
0000
1000
0100
1000
0000
,  // measure 12
0010
0000
0100
0000
0010
0000
0100
0000
0001
0000
0100
0000
1000
0100
1000
0000
,  // measure 13
1100
0000
0000
0000
0000
0000
0000
0000
0100
0000
1000
0001
1000
0000
0010
0000
,  // measure 14
1000
0000
0001
0100
0010
0000
0001
0000
1000
0000
0100
0000
0010
0000
1000
0000
,  // measure 15
1010
0000
0000
0000
0000
0000
0000
0000
1000
0000
0001
0100
0000
0000
1000
0000
,  // measure 16
0010
0000
1000
0000
0100
0000
0001
0000
0100
0010
0100
0000
1001
0000
0000
0000
,  // measure 17
0001
0000
1000
0000
0000
0000
0001
0000
0010
0000
0100
0000
0001
0000
1000
0100
,  // measure 18
0000
0000
1000
0000
0001
0000
1000
0000
0100
0000
0010
0000
1000
0000
0100
0001
,  // measure 19
0000
0000
0000
0000
1001
0000
0000
0000
0000
0010
0100
0000
1000
0000
0001
0000
,  // measure 20
0100
0000
0010
0000
0001
0000
1000
0000
0010
0000
1000
0001
0000
0000
1000
0000
,  // measure 21
0002
0000
0000
0000
0003
0000
0100
0000
0100
0001
0100
0000
1000
0000
0100
0000
,  // measure 22
0000
0000
0001
0010
0001
0000
0100
0000
1000
0000
0001
0000
0010
0000
1000
0000
,  // measure 23
1010
0101
1100
0011
,  // measure 24
1010
0110
0011
0101
,  // measure 25
2002
0000
0000
0000
0000
0000
0000
0000
0000
0000
0000
0000
0000
3003
0000
0000
,  // measure 26
0010
0100
1000
0001
0100
0010
1000
0001
0100
0010
1000
0001
0000
0000
2000
0000
,  // measure 27
3200
0000
0302
0000
,  // measure 28
0203
0000
0310
1000
0002
0000
0103
1000
0200
0000
0310
2000
0000
3000
0002
0000
,  // measure 29
0023
0000
0000
0000
,  // measure 30
0230
0000
2300
3200
,  // measure 31
0302
0000
0000
0203
,  // measure 32
0320
0000
2030
0000
,  // measure 33
3001
0000
0000
0001
0000
0000
0001
0000
0100
0000
0000
0100
0000
0000
0100
0000
1000
0000
0000
1000
0000
0000
1000
0000
0010
0000
0000
0010
0000
0000
0010
0000
,  // measure 34
0100
0000
0000
0100
0000
0000
0100
0000
1000
0000
0000
1000
0000
0000
1000
0000
0100
0000
0000
0100
0000
0000
0100
0000
0010
0000
0000
0010
0000
0000
0010
0000
,  // measure 35
0001
0000
0000
0001
0000
0000
0001
0000
0010
0000
0000
0010
0000
0000
0010
0000
0100
0000
0000
0100
0000
0000
0100
0000
1000
0000
0000
1000
0000
0000
1000
0000
,  // measure 36
0100
0000
0000
0100
0000
0000
0100
0000
0010
0000
0000
1000
0000
0000
0001
0000
0100
0000
0000
1000
0000
0000
0100
0000
0010
0000
0000
0001
0000
0000
0010
0000
,  // measure 37
1000
0100
1000
0100
1000
0000
0010
0100
,  // measure 38
0010
0100
0110
0000
,  // measure 39
0010
0100
0010
0100
0010
0000
0001
1000
,  // measure 40
0001
0001
1001
0000
,  // measure 41
0010
0100
0010
0100
0010
0000
0010
1000
,  // measure 42
0010
0001
0011
0000
,  // measure 43
0001
0100
0001
0100
0001
0000
0010
0100
,  // measure 44
0010
0010
1010
0000
,  // measure 45
0110
0000
0000
1000
,  // measure 46
1000
0100
0010
0000
0100
0000
0001
0000
,  // measure 47
0000
0000
1000
0010
0100
0000
0001
0000
,  // measure 48
1000
0010
0100
0010
,  // measure 49
1100
0000
0011
0000
,  // measure 50
0110
0000
1010
0000
,  // measure 51
0101
0000
1100
0000
0011
0000
1010
0000
1001
0000
0000
1000
0000
0000
0001
0000
,  // measure 52
1000
0000
0000
0001
0000
0000
0100
0000
0010
0000
0000
0100
0000
0000
1000
0000
,  // measure 53
0100
0000
0000
0010
0000
0000
0001
0000
0100
0000
0000
0001
0000
0000
0100
0000
,  // measure 54
1000
0000
0000
0100
0000
0000
1000
0000
0100
0000
0000
0010
0000
0000
0001
0000
,  // measure 55
0010
0000
0000
0100
0000
0000
1000
0000
0100
0000
0000
1000
0000
0000
0100
0000
,  // measure 56
1000
0000
0000
0100
0000
0000
0010
0000
0001
0000
0000
0010
0000
0000
0100
0000
,  // measure 57
0001
0000
0000
0100
0000
0000
0001
0000
0100
0000
0000
0000
1000
0000
0100
0000
,  // measure 58
1000
0000
0001
0100
0002
0000
0100
0100
,  // measure 59
0000
0000
0000
0000
0010
0003
0000
0000
0011
0000
0000
0001
0000
0000
0010
0000
,  // measure 60
0100
0000
0000
1000
0000
0000
0100
0000
1000
0000
0000
0100
0000
0000
1000
0000
,  // measure 61
0100
0000
0000
0010
0000
0000
0001
0000
1000
0000
0000
0001
0000
0000
0010
0000
,  // measure 62
0100
0000
0000
0010
0000
0000
0100
0000
1000
0000
0000
0100
0000
0000
1000
0000
,  // measure 63
0100
0000
0000
0010
0000
0000
0001
0000
0020
0000
0000
0130
0000
0000
1000
0000
,  // measure 64
0200
0000
0000
1300
0000
0000
1000
0000
0200
0000
0000
1300
0000
0000
1000
0000
,  // measure 65
0200
0000
0000
1300
0000
0000
0010
0000
0002
0000
0000
0013
0000
0000
0010
0000
,  // measure 66
0001
0000
0000
0010
0000
0000
0001
0000
0010
0000
0000
0001
0000
0000
0010
0000
,  // measure 67
0001
0000
0000
0010
0000
0000
0001
0000
2002
0000
0000
0000
0000
0000
0000
0000
,  // measure 68
3003
0000
0000
0000
;

//---------------dance-single - ----------------
#NOTES:
     dance-single:
     :
     Medium:
     5:
     0.316,0.461,0.183,0.252,0.000: // measure 1
0000
0000
0000
0000
,  // measure 2
0000
0000
0000
0000
,  // measure 3
0000
0000
0000
0000
,  // measure 4
0000
0000
0000
0000
,  // measure 5
0001
1000
0001
0000
1000
0100
1000
0000
,  // measure 6
0010
0001
0010
0000
0100
0001
0100
0000
,  // measure 7
1000
0100
1000
0000
0010
0100
0010
0000
,  // measure 8
1000
0100
1000
0000
0002
0000
2003
0000
,  // measure 9
3001
0000
0100
0000
1000
0100
1000
0000
,  // measure 10
0010
0000
0110
0000
1000
0100
0010
0000
,  // measure 11
0001
0000
1000
0000
0001
0100
0001
0000
,  // measure 12
0010
0000
0100
0000
1000
0000
0100
1000
,  // measure 13
1100
0000
0000
0000
0010
0010
0010
0000
,  // measure 14
0001
0000
1000
0000
0100
1000
0100
0000
,  // measure 15
0110
0000
0000
0000
0001
0100
0001
0000
,  // measure 16
0100
0000
1000
0000
0010
1000
0010
0000
,  // measure 17
1100
1000
0000
0100
1000
0100
1000
0000
,  // measure 18
0010
0000
0001
0000
0100
0001
0100
0000
,  // measure 19
0010
0000
1001
0000
0000
0001
1000
0001
,  // measure 20
1000
0000
0100
0000
1000
0100
0010
0000
,  // measure 21
0011
0000
0000
0000
0001
0100
0001
0100
,  // measure 22
0000
0000
1000
0000
0100
1000
0100
0000
,  // measure 23
1100
0011
0110
1001
,  // measure 24
1100
0011
0110
1010
,  // measure 25
2002
0000
0000
0000
0000
0000
0000
3000
,  // measure 26
2000
0000
0000
0003
0002
0000
0000
3000
,  // measure 27
0200
0000
0000
0003
0002
0000
0000
0300
,  // measure 28
0020
0000
0000
0003
0002
0000
0000
0030
,  // measure 29
0200
0000
0000
0000
0000
0000
0000
0303
,  // measure 30
2000
0000
3002
0203
,  // measure 31
0320
0000
0000
0230
,  // measure 32
0302
0000
0000
0000
2000
0000
0000
3003
,  // measure 33
0100
0100
0100
0100
,  // measure 34
0010
0001
1000
0100
,  // measure 35
0010
0001
0020
0001
,  // measure 36
0001
0031
0100
1000
,  // measure 37
0010
1000
0000
0100
,  // measure 38
1000
0100
1000
0000
,  // measure 39
0010
0001
0010
0000
,  // measure 40
0100
0001
0100
0000
,  // measure 41
0010
0000
0110
0000
,  // measure 42
0000
1000
0100
0010
,  // measure 43
0001
0000
0100
0000
,  // measure 44
1000
0001
1000
0000
,  // measure 45
1010
0000
0000
1000
,  // measure 46
0100
0010
0001
0010
,  // measure 47
0000
0001
0100
0001
,  // measure 48
0100
0001
0100
0001
,  // measure 49
0101
0000
1100
0000
,  // measure 50
0011
0000
0110
0000
,  // measure 51
2002
3003
2002
0000
,  // measure 52
3003
0001
1000
0001
,  // measure 53
0100
0000
0010
0000
1000
0100
1000
0100
,  // measure 54
1000
0100
1000
0100
1000
0100
1000
0200
,  // measure 55
0000
1000
1300
0100
,  // measure 56
0010
0001
0100
0001
,  // measure 57
1000
0000
0010
0000
0001
0000
0100
0001
,  // measure 58
0100
0000
0001
0100
0001
0000
0100
0001
,  // measure 59
0000
0001
0101
0001
,  // measure 60
0100
1000
0100
0001
,  // measure 61
0100
1000
0010
0001
,  // measure 62
0010
1000
0010
0100
,  // measure 63
1000
0010
0002
0000
,  // measure 64
2003
0000
3020
0000
,  // measure 65
0230
0000
0320
0000
,  // measure 66
2030
0000
3002
0000
,  // measure 67
0203
0000
0020
0000
,  // measure 68
0330
0000
0000
0000
;

//---------------dance-single - ----------------
#NOTES:
     dance-single:
     :
     Easy:
     3:
     0.194,0.280,0.092,0.183,0.000: // measure 1
0000
0000
0000
0000
,  // measure 2
0000
0000
0000
0000
,  // measure 3
0000
0000
0000
0000
,  // measure 4
0000
0000
0000
0000
,  // measure 5
1000
0001
1000
0001
,  // measure 6
1000
0001
1000
0001
,  // measure 7
1000
0001
1000
0001
,  // measure 8
1000
0001
0002
0103
,  // measure 9
0101
0000
0100
0001
,  // measure 10
0100
1000
0100
1100
,  // measure 11
0000
0010
1000
0010
,  // measure 12
0001
0001
1000
1000
,  // measure 13
1001
0000
0100
0000
,  // measure 14
0010
1000
0001
0100
,  // measure 15
0101
0000
0001
0000
,  // measure 16
1000
0001
0100
0010
,  // measure 17
1010
0000
1000
0100
,  // measure 18
0010
0001
0010
0100
,  // measure 19
1000
1001
0000
0010
,  // measure 20
0000
0010
0000
0000
,  // measure 21
1100
0000
0001
1000
,  // measure 22
0000
0100
0010
0001
,  // measure 23
1000
1000
0001
0001
,  // measure 24
0100
0100
0010
0010
,  // measure 25
1001
0000
0000
0000
,  // measure 26
2000
3000
0002
0003
,  // measure 27
0020
0030
0200
0300
,  // measure 28
2000
3000
0002
0003
,  // measure 29
2000
0000
0000
0000
,  // measure 30
0100
0000
0100
0100
,  // measure 31
0002
0000
0000
0000
0000
3000
1000
0000
,  // measure 32
0100
0000
0020
0033
,  // measure 33
2000
0000
0000
0000
,  // measure 34
3002
0000
2003
0000
,  // measure 35
3020
0000
0230
0000
,  // measure 36
0320
0000
0230
0000
,  // measure 37
0310
0000
0000
0000
,  // measure 38
0000
0000
0000
0000
,  // measure 39
0001
0000
0000
0000
,  // measure 40
0000
0000
0000
0000
,  // measure 41
0000
0000
1000
0000
,  // measure 42
0000
0000
0001
0000
,  // measure 43
0000
0000
1000
0000
,  // measure 44
0000
0000
0001
0000
,  // measure 45
1001
0000
0000
0000
,  // measure 46
1000
0000
0100
0000
,  // measure 47
0010
0000
0001
0000
,  // measure 48
0100
0000
1000
0000
,  // measure 49
0001
0000
1000
0000
,  // measure 50
0001
0000
0200
0000
,  // measure 51
0002
0000
0000
0303
1001
0000
0000
0000
,  // measure 52
0001
0000
1000
0000
,  // measure 53
0001
0000
1000
0100
,  // measure 54
0001
0100
1000
0010
,  // measure 55
0001
0010
1001
0000
,  // measure 56
1000
0000
0001
0000
,  // measure 57
0100
0000
0010
0001
,  // measure 58
0010
0001
0100
1000
,  // measure 59
0010
1000
2002
0000
,  // measure 60
0000
3003
1000
0000
,  // measure 61
0001
0000
0010
0000
,  // measure 62
0100
0000
1000
0000
,  // measure 63
0010
0000
0002
0000
,  // measure 64
0000
0000
0000
0000
,  // measure 65
1000
0000
2000
0000
,  // measure 66
0000
0003
0002
0000
,  // measure 67
0000
0000
3003
0000
;

//---------------dance-single - ----------------
#NOTES:
     dance-single:
     :
     Beginner:
     1:
     0.071,0.127,0.054,0.000,0.000: // measure 1
0000
0000
0000
0000
,  // measure 2
0000
0000
0000
0000
,  // measure 3
0000
0000
0000
0000
,  // measure 4
0000
0000
0000
0000
,  // measure 5
0000
0000
0000
0000
,  // measure 6
0000
0000
0000
0000
,  // measure 7
0000
0000
0000
0000
,  // measure 8
0000
0000
0000
0000
,  // measure 9
0010
0000
0000
0000
,  // measure 10
0000
0000
0000
0000
,  // measure 11
0100
0000
0000
0000
,  // measure 12
1000
0000
0001
0000
,  // measure 13
1001
0000
0000
0000
,  // measure 14
0100
0000
0000
0000
,  // measure 15
0001
0000
0000
0000
,  // measure 16
1000
0000
0000
0000
,  // measure 17
0110
0000
0000
0000
,  // measure 18
0000
0000
0000
0000
,  // measure 19
0000
0001
0000
0000
,  // measure 20
0000
0000
0000
0000
,  // measure 21
0010
0000
0000
0000
,  // measure 22
0100
0000
0000
0000
,  // measure 23
1000
0000
0000
0000
,  // measure 24
0001
0000
0000
0000
,  // measure 25
1001
0000
0000
0000
,  // measure 26
0100
0000
0000
0000
,  // measure 27
0001
0000
0000
0000
,  // measure 28
1000
0000
0000
0000
,  // measure 29
0010
0000
0000
0000
,  // measure 30
0000
0000
0000
0000
,  // measure 31
0001
0000
0000
0000
,  // measure 32
0000
0000
1000
0000
,  // measure 33
0001
0000
0000
0000
,  // measure 34
0000
0000
0000
0000
,  // measure 35
0000
0000
1000
0000
,  // measure 36
0000
0000
0000
0000
,  // measure 37
0010
0000
0000
0000
,  // measure 38
0010
0000
0000
0000
,  // measure 39
0010
0000
0000
0000
,  // measure 40
0010
0000
0000
0000
,  // measure 41
0000
0000
0100
0000
,  // measure 42
0000
0000
1000
0000
,  // measure 43
0000
0000
0001
0000
,  // measure 44
0000
0000
0000
0000
,  // measure 45
1001
0000
0000
0000
,  // measure 46
0010
0000
0010
0000
,  // measure 47
0000
0000
0100
0000
,  // measure 48
0100
0000
0100
0000
,  // measure 49
1000
0000
0000
0000
,  // measure 50
0001
0000
0000
0000
,  // measure 51
1000
0001
1001
0000
,  // measure 52
0000
0000
0000
0000
,  // measure 53
0000
0000
0010
0000
,  // measure 54
0000
0000
0100
0000
,  // measure 55
1000
0000
0001
0000
,  // measure 56
0000
0000
0000
0000
,  // measure 57
0000
0000
0100
0000
,  // measure 58
0000
0000
0010
0000
,  // measure 59
0100
0000
1001
0000
,  // measure 60
0000
0000
0000
0000
,  // measure 61
0000
0000
0001
0000
,  // measure 62
0000
0000
1000
0000
,  // measure 63
1000
0000
0100
0000
,  // measure 64
0000
0000
0000
0000
,  // measure 65
0010
0000
0001
0000
,  // measure 66
0000
0000
1000
0000
,  // measure 67
0001
0000
1001
0000
;
