#TITLE:Fire Fire;
#SUBTITLE:;
#ARTIST:StripE;
#TITLETRANSLIT:;
#SUBTITLETRANSLIT:;
#ARTISTTRANSLIT:;
#CREDIT:;
#BANNER:bn.PNG;
#BACKGROUND:bg.PNG;
#LYRICSPATH:;
#CDTITLE:14 Gold.png;
#MUSIC:FIRE FIRE.mp3;
#OFFSET:-8.072;
#SAMPLESTART:83.210;
#SAMPLELENGTH:12.000;
#SELECTABLE:YES;
#BPMS:0.000=150.000;
#STOPS:148.000=1.200
;
#BGCHANGES:;

//---------------dance-single - ----------------
#NOTES:
     dance-single:
     :
     Hard:
     9:
     0.582,0.731,0.317,0.079,0.218:
0001
1000
0100
0010
,
0001
0100
1000
0010
,
0010
0100
0010
0000
0001
1000
0001
0000
1000
0100
0010
0001
1000
0010
0100
0010
,
2000
0000
0000
0000
0000
0000
0000
0000
0000
0000
0000
0000
0000
3000
0000
0000
,
0001
0000
0000
0100
0000
0000
0010
0000
0100
0000
0010
0000
0000
0000
0010
0100
,
0010
0100
0000
0100
0000
1000
0100
1000
,
0100
0000
0000
1000
0000
0000
0100
0000
1000
0000
0100
0000
0000
0000
0010
0001
,
0010
0100
0000
0001
1000
0010
0100
0000
,
0100
0000
0000
0010
0000
0000
0100
0000
1000
0000
0100
0000
0000
0000
1000
0000
,
0100
0010
0001
0010
0002
0000
0103
0000
,
0001
0000
0000
1000
0000
0000
0100
0000
1000
0000
0100
0000
0000
0000
0020
0000
,
0200
0000
0000
0330
,
0001
0000
0000
1000
0000
0000
0100
0000
1000
0000
0100
0000
0000
0000
0010
0100
,
0010
0100
0000
0100
0000
0010
1000
0010
,
1000
0000
0000
0001
0000
0000
1000
0000
0100
0000
0010
0000
0000
0000
0001
0100
,
0001
0010
0000
0010
0100
0010
0100
0000
,
0001
1100
0000
0000
0100
1000
0100
0010
,
0001
0000
0101
0000
0000
0000
0010
0100
0010
0000
0001
1000
0001
0000
0000
0000
,
1000
0100
0010
0001
0020
0000
0130
0000
,
0001
1000
0001
1000
0010
0100
0010
1000
,
0001
1000
0001
1000
0001
1000
0001
1000
0001
1000
0001
1000
0001
1000
0001
1000
,
0001
1000
0001
0100
,
0010
1000
0100
0010
,
0011
0001
0010
0100
,
1000
0001
1000
0000
0010
0100
0010
0000
,
0110
0010
0100
1000
,
0001
0010
0100
1000
,
1100
1000
0100
0010
,
0011
0100
1100
0010
,
0001
0010
0100
1000
0100
0010
0011
0000
,
0001
0100
0010
1000
0001
0100
0110
0000
,
0010
1000
1010
0000
0001
0010
0011
0000
,
0100
1000
1100
0000
0010
0100
0110
0000
,
0001
1000
1001
0000
1000
0100
1100
0000
,
0010
0001
0011
0000
0001
0100
0101
0000
,
0101
0001
0110
1000
0110
0010
0110
0010
,
0001
0100
1000
0000
0010
0100
0010
0000
1000
0100
0010
0001
0010
0100
0010
1000
,
0001
0000
0000
0000
1000
0100
1000
0000
1100
0000
0001
0010
0100
1000
0100
0010
,
0002
1000
1003
0100
0010
0001
0010
0100
,
1000
0001
1000
0010
1000
0001
0100
0010
,
0110
0000
1000
0100
0001
1000
0010
0100
,
1000
0100
0010
0100
0010
1000
0001
0100
,
0101
0000
0001
0010
0100
1000
0100
0010
,
0001
1000
0001
1000
0010
1000
0001
0100
,
0101
0000
0010
0100
0001
1000
0010
0100
,
0010
0000
0100
0000
1100
0000
0000
0011
0000
0000
0110
0000
0000
0010
0100
0000
,
0010
1000
0001
1000
0100
1000
0100
0010
,
0001
1000
0001
0100
0010
1000
0001
0100
,
1000
0100
0010
0001
0010
0100
1000
0001
,
0100
0000
0010
0000
1000
0001
1000
0001
1000
0000
0001
0000
0010
0100
0010
0100
,
0010
0100
0001
1000
0010
0100
1000
0100
,
0010
0001
0010
0100
1000
0001
0100
0001
,
1000
0010
0100
1000
0100
0010
0001
0010
,
0100
0000
0010
0000
1100
0000
0000
0011
0000
0000
0110
0000
1000
0000
0000
0100
,
0000
0010
0202
0000
0000
0000
0303
0000
;

//---------------dance-single - ----------------
#NOTES:
     dance-single:
     :
     Medium:
     6:
     0.418,0.460,0.327,0.119,0.010:
1000
1000
0100
0100
,
0010
0010
0001
0001
,
1000
0001
0100
0010
,
2002
0000
0000
3003
,
0001
0100
0001
0100
,
0010
0000
1000
0000
0100
1000
0100
1000
,
0100
0010
0001
0100
,
0010
0000
0000
0000
0001
1000
0001
0000
,
1000
0100
0010
0001
,
0100
0001
0100
0000
0020
0000
0130
0000
,
0010
1000
0001
0100
,
0202
0000
0000
0303
,
0110
0010
0110
1000
,
1100
0000
0100
0000
1000
0000
0100
1000
,
0100
0000
1000
0000
0100
0000
0010
0001
,
0010
0000
0001
0000
0100
0010
0100
0000
,
1001
0000
0010
0000
0010
0100
0010
0000
,
0110
0000
0100
0000
0001
1000
0001
0000
,
1000
0100
1000
0100
2000
0000
3100
0000
,
0001
0100
0010
1000
,
2002
0000
0000
3003
,
0001
0001
1000
1000
,
0001
1000
0001
1000
,
1001
0001
0100
0010
,
1010
1010
0110
0110
,
0110
0010
1000
0001
,
1000
0001
0010
0100
,
1100
1000
0100
0010
,
0001
0100
0001
0000
0010
1000
0010
0000
,
1001
0010
0100
0010
,
0110
0010
0100
1000
,
1100
0100
0110
0010
,
0011
0001
0101
0001
,
0101
1100
0101
0110
,
1001
1100
0011
0110
,
0001
1000
0001
1000
0010
1000
0100
0010
,
0001
0010
0100
1000
0100
0010
0001
1000
,
0001
0000
0001
1000
0010
1000
0001
1000
,
0010
0000
0001
0100
0001
0000
0100
0000
,
0010
1000
0100
1000
,
0100
0000
0010
0001
0010
0000
0100
0000
,
0001
0000
1000
0001
2000
0000
3010
0100
,
0020
0000
0130
0000
0010
0000
1000
0100
,
1000
0000
0100
0000
0010
0000
0001
0100
,
0001
0000
0101
0000
1100
0000
0010
0100
,
0010
0000
0000
0000
1000
0000
0000
0100
0000
0000
0010
0000
0000
0001
0000
0000
,
0100
0010
1000
0000
0100
0000
0010
1000
,
0001
0000
0010
0100
0010
0000
1000
0000
,
1001
0000
0001
1000
0001
0000
0010
0000
,
0100
0000
1000
0100
1000
0000
0010
0001
,
0010
0000
0001
0100
0001
0000
1000
0000
,
0010
0000
0100
0010
0100
0000
1000
0000
,
0001
0000
0100
1000
0100
0000
0010
0000
,
0100
0000
0001
0100
0001
0000
0010
1000
,
0010
2002
0000
3003
;

//---------------dance-single - ----------------
#NOTES:
     dance-single:
     :
     Easy:
     4:
     0.359,0.488,0.465,0.109,0.000:
1000
0001
1000
0001
,
0100
0010
0100
0010
,
0110
0110
1001
1100
,
0202
0000
0000
0303
,
0001
0100
0001
0100
,
0001
0100
0001
0010
,
1000
0100
1000
0100
,
1000
0100
0010
0001
,
1001
0001
1000
0001
,
0100
0010
0200
0301
,
0001
0000
0010
0000
0100
0000
1000
0002
,
0200
0000
0000
0303
,
1001
0001
0100
1000
,
0100
0010
0001
0110
,
0010
0100
1000
0100
,
0010
0001
1000
1000
,
1001
0000
0010
0010
,
0110
0000
0100
0000
,
1100
0000
0011
0000
,
0101
0110
1010
1100
,
2002
0000
0000
3003
,
0001
0000
0001
0000
,
1000
0000
0001
1000
,
1001
0000
0100
0000
,
0010
0100
0010
1000
,
0101
0000
0010
0000
,
1000
0100
0010
0001
,
0101
0000
0010
0000
,
0110
0010
1010
1000
,
1100
0100
0010
0001
,
0011
0010
0100
1000
,
1100
0100
0110
0010
,
0011
0001
0101
0010
,
1001
0110
1100
0110
,
0011
0101
1010
0110
,
1001
1100
0011
0110
,
0101
0101
1100
0011
,
1001
0000
0001
1000
0001
0000
0100
0010
,
0100
0010
0010
0100
,
0100
1000
0100
0010
,
0001
0010
0100
1000
,
0001
2000
3100
0020
,
0031
0100
0001
0100
,
0010
1000
0100
0010
,
0001
0000
0100
0000
1000
0000
0010
0001
,
0100
0101
0000
0000
,
0000
1000
0001
0100
,
0010
1000
0100
0010
,
0001
0010
0100
1000
,
0001
1000
0001
0100
,
0010
1000
0100
0010
,
0001
0010
0100
1000
,
0001
1000
0100
0010
,
0001
0010
0100
1000
,
0001
2002
0000
3003
;

//---------------dance-single - ----------------
#NOTES:
     dance-single:
     :
     Beginner:
     1:
     0.098,0.134,0.049,0.000,0.000: // measure 1
0000
0000
0000
0000
,  // measure 2
0000
0000
0000
0000
,  // measure 3
0010
0000
0010
0000
,  // measure 4
1001
0000
0000
0000
,  // measure 5
0001
0000
0000
0000
,  // measure 6
0001
0000
0000
0000
,  // measure 7
0100
0000
0000
0000
,  // measure 8
0100
0000
0000
0000
,  // measure 9
0010
0000
0000
0000
,  // measure 10
1000
0000
0000
0000
,  // measure 11
1000
0000
0000
0000
,  // measure 12
0000
0000
0000
0000
,  // measure 13
0001
0000
0000
0000
,  // measure 14
1000
0000
0000
0000
,  // measure 15
0100
0000
0000
0000
,  // measure 16
0100
0000
0000
0000
,  // measure 17
0110
0000
0000
0000
,  // measure 18
0010
0000
0000
0000
,  // measure 19
0010
0000
0010
0000
,  // measure 20
0100
0000
0100
0000
,  // measure 21
0000
0000
0000
0000
,  // measure 22
0001
0000
0000
0000
,  // measure 23
0000
0000
0000
0000
,  // measure 24
1000
0000
0000
0000
,  // measure 25
0100
0000
0100
0000
,  // measure 26
0100
0000
0000
0000
,  // measure 27
0000
0000
0000
0000
,  // measure 28
0010
0000
0000
0000
,  // measure 29
0010
0000
0010
0000
,  // measure 30
0001
0000
0000
0000
,  // measure 31
1000
0000
0000
0000
,  // measure 32
0001
0000
0001
0000
,  // measure 33
1000
0000
1000
0000
,  // measure 34
0001
0000
1000
0000
,  // measure 35
0001
0000
1000
0000
,  // measure 36
0010
0000
0010
0000
,  // measure 37
0100
0000
0100
0000
,  // measure 38
1001
0100
0000
0000
,  // measure 39
0000
0010
0000
0000
,  // measure 40
0000
0010
0000
0000
,  // measure 41
0000
0100
0000
0000
,  // measure 42
0000
0100
0000
0100
,  // measure 43
0000
0100
0000
0000
,  // measure 44
0000
1000
0000
0000
,  // measure 45
0000
0001
0000
0000
,  // measure 46
0000
1001
0000
0000
,  // measure 47
0000
0100
0000
0000
,  // measure 48
0000
0010
0000
0000
,  // measure 49
0000
1000
0000
0000
,  // measure 50
0000
0001
0000
0001
,  // measure 51
0000
0001
0000
0000
,  // measure 52
0000
1000
0000
0000
,  // measure 53
0000
0100
0000
0000
,  // measure 54
0000
0010
0000
0100
,  // measure 55
0000
1001
0000
0000
;
