#TITLE:Fascination MAXX;
#SUBTITLE:(Cally & Juice's MAXXimum Overload Mix);
#ARTIST:100-200-400;
#TITLETRANSLIT:;
#SUBTITLETRANSLIT:;
#ARTISTTRANSLIT:;
#CREDIT:;
#BANNER:Fascination MAXX (Cally & Juice's MAXXimum Overload Mix) banner.png;
#BACKGROUND:Fasincation MAXX (Cally & Juice's MAXXimum Overload Mix)-bg.png;
#LYRICSPATH:;
#CDTITLE:;
#MUSIC:14_-_100-200-400_-_facination_maxx_(cally_&_juice's_maxximum_overload_mix).mp3;
#OFFSET:-0.060;
#SAMPLESTART:67.240;
#SAMPLELENGTH:12.000;
#SELECTABLE:YES;
#BPMS:0.000=150.000,12.000=300.001,20.000=150.000,24.000=300.001,32.000=150.000,36.000=300.001,44.000=150.000,48.000=600.001,64.000=300.001,317.000=37.500,319.000=75.000,335.000=150.000,396.000=300.000,461.000=150.001,462.000=75.000,462.500=50.000,463.000=40.000,463.500=30.000,464.000=20.000;
#STOPS:184.000=0.200
,185.000=0.200
,186.000=0.100
,186.500=0.100
,361.500=0.200
,362.500=0.200
,392.500=0.200
,393.500=0.200
,396.000=0.200
;
#BGCHANGES:;

//---------------dance-single - ----------------
#NOTES:
     dance-single:
     :
     Hard:
     11:
     0.813,1.000,0.517,0.127,0.179:
0000
0000
0000
0000
,
0000
0000
0000
0000
,
1001
0000
0000
0000
0101
0000
0100
0001
0000
0010
0100
0000
1000
0000
0001
1000
,
0100
1000
0100
1000
0100
1000
0100
1000
,
0001
1000
0001
1000
0001
0010
0001
0100
,
0001
0000
0001
0000
0001
0000
0001
0010
0000
0010
0100
0000
1000
0000
0001
0000
,
0110
1100
1001
0101
,
1010
0000
1000
0001
0000
0001
0100
0000
,
0110
0000
0000
0000
0010
0000
0010
0100
0000
1000
0000
0001
1000
0000
0001
0100
,
0010
0100
0010
1000
0010
0100
1000
0100
,
0010
0100
1000
0001
0100
0010
1000
0001
,
0010
1100
0010
0101
,
1000
0001
1000
0001
,
1000
0001
1000
0001
,
1000
0001
1000
0001
,
1000
0001
1000
0001
,
1000
0100
0000
1000
0100
0000
1000
0100
,
0000
1000
0000
0001
0100
0000
0010
0100
,
0000
0010
1000
0000
0001
0000
0001
1000
,
0000
0100
0010
1000
0001
0000
1000
0100
,
0000
1000
0000
0100
0010
0000
1000
0001
,
0000
0001
1000
0000
0001
0000
0001
1000
,
0000
0100
0000
0001
0100
0000
0100
0001
,
2000
0000
3002
0100
0003
1000
0002
0000
,
1003
0000
0010
0000
0001
0000
1000
0100
,
0000
1000
0000
0100
0001
0000
0100
0010
,
0000
0100
0000
0010
0100
0000
0001
1000
,
0000
0010
1000
0001
0100
0000
0000
0000
,
0001
0000
1000
0000
0010
0000
0100
0001
,
0000
0100
0000
0001
0010
0000
0001
1000
,
0001
1000
0010
0100
0001
1000
0001
0100
,
0010
1000
0001
1000
0200
0000
1000
0000
,
0301
0100
0000
1000
0100
0000
0001
1000
,
0000
0001
0000
0010
0100
0000
0100
0010
,
0000
0010
0001
0000
1000
0000
0001
1000
,
0000
0010
0100
0010
1000
0000
1000
0100
,
0000
1000
0000
0001
0100
0000
0001
1000
,
0000
0001
1000
0000
0010
0000
0010
1000
,
0000
0001
0000
1000
0001
0000
0100
0010
,
0200
0000
0320
1000
0030
0100
0020
0000
,
1030
0000
0010
0000
1000
0000
0100
0001
,
0000
0010
0000
0100
1000
0000
1000
0001
,
0000
1000
0000
0001
1000
0000
0100
0001
,
0000
0100
0010
1000
0001
0000
0000
0001
,
1000
0000
0100
0000
0010
0000
1000
0100
,
0000
0100
0000
0100
1000
0000
0001
0000
,
1100
0000
0011
0000
1001
0110
0000
0000
,
1001
0000
0001
1000
0001
0000
0100
0000
,
0010
0100
0010
0000
1000
0000
0001
0000
,
1000
0100
1000
0000
0001
0000
0100
0000
,
0100
0010
0000
0001
0100
0010
1000
0000
,
1001
0000
1000
0001
1000
0000
0001
0000
,
0100
0000
0010
1000
0001
0000
1000
0000
,
0001
0000
0100
0010
1000
0000
0001
0000
,
1000
0000
1000
0200
0000
0301
0020
0000
,
0032
0013
0001
0001
,
1000
0100
0000
0100
0000
0010
0001
0000
,
0100
0001
0000
0010
0100
0000
1000
0000
,
0001
1000
0000
1000
0001
0100
0010
1000
,
0001
1000
0100
0000
0100
1000
0100
0000
,
0001
0000
1000
0000
0010
1000
0001
0000
,
0100
0000
1000
0010
1000
0010
1000
0010
,
1000
0001
1000
0001
1000
0010
1000
0000
,
1001
0000
1000
0100
1000
0000
0001
0000
,
0100
0000
0001
0100
0001
0000
0010
0000
,
0100
0000
0010
1000
0001
0000
1000
0000
,
0001
0000
0100
0010
1000
0010
1000
0001
,
1000
0000
0100
1000
0100
0000
0001
0000
,
0100
0000
0001
0100
0001
0000
0010
0000
,
0100
0000
0010
1000
0001
0000
1000
0000
,
0001
0000
0001
0010
0001
0010
0001
0000
,
0100
0010
0100
1000
0001
1000
0001
0000
,
1000
0001
0100
0010
1000
0010
0100
0000
,
1000
0100
0010
0100
1000
0001
0100
0000
,
0010
1000
0001
1000
0001
0010
0001
0000
,
1000
0000
0100
0001
0100
0000
0010
0100
,
0010
0000
1000
0001
1000
0000
0001
0100
,
0001
0000
1000
0001
0100
0010
1000
0010
,
0100
0001
0010
0001
0100
1000
0001
0100
,
0010
0000
0000
0000
1000
0000
0000
0000
0100
1000
0100
0010
0001
0000
0001
0001
0001
0000
0001
0100
0000
0010
0000
1000
0201
0000
0000
0000
0000
0000
0010
0000
,
0000
0010
0000
0010
0000
0000
0010
0000
0010
0000
0310
0000
1002
0000
0000
0100
,
0000
1000
0000
0100
0000
0000
0010
0000
0010
0000
0013
0000
2100
0000
0000
0100
,
0000
0010
0000
0100
0000
0000
0001
0000
0001
0000
3001
0000
0120
0000
0000
1000
,
0000
0000
0000
0001
0000
0000
0000
0000
0000
1030
0000
0000
0000
0000
0000
0000
0000
0000
0001
0000
0000
0001
0000
0000
0000
0000
0001
0000
0000
0000
0101
0000
0000
0000
0000
0000
1001
0000
0000
0000
0000
0000
0000
0000
0000
0000
0000
0000
,
0110
0000
0110
0000
0000
0110
0000
0000
0110
0000
0000
0000
0000
0000
0000
0000
,
1100
0000
0011
0000
0000
1100
0000
0000
0011
0000
0000
0000
0000
0000
0000
0000
,
0101
0000
1010
0000
0000
0101
0000
0000
1010
0000
0000
0000
0000
0000
0000
0000
,
0110
0000
0100
0000
0010
0000
1000
0000
0001
1000
0001
0000
1001
0000
0000
0000
,
1100
0000
0011
0000
0000
1100
0000
0000
1001
0000
0000
0000
0000
0000
0000
0000
,
0110
0000
1001
0000
0000
1100
0000
0000
0011
0000
0000
0000
1000
0000
1000
0000
,
0001
0000
0001
0000
0100
0000
0010
0000
0100
0000
0101
0000
0001
0100
0010
1000
,
0100
0000
1000
0100
0010
0000
0000
0000
0001
0000
0100
0000
0010
0000
0100
0000
,
0010
1000
1010
0000
0010
0100
0001
1000
,
0001
0100
0011
0000
0001
0010
0100
0010
,
0001
0010
0110
0000
0010
1000
0001
0100
,
0010
0000
1000
0000
0001
0100
0001
0000
0101
0000
0000
0000
0010
0000
1000
0000
,
0010
0100
0010
0000
1000
0000
0010
1000
,
0001
0100
0010
0000
0011
1100
0110
1100
,
0011
0000
0011
0000
1001
0000
1001
0000
0001
0010
0100
1000
0001
0000
0010
1000
,
1001
0001
0100
0010
,
0100
0000
0100
0000
,
0100
0010
1000
1010
,
0000
0011
0000
1001
,
0000
0001
0100
0010
,
1000
0000
1000
0000
,
0010
0000
0000
0010
,
0110
0000
0001
1001
,
0000
1000
0000
0100
,
1000
0100
0000
0010
,
0001
0010
0000
0001
,
0100
0001
0000
0100
,
0000
0010
0100
0010
,
0100
0001
1000
0001
,
1000
0000
0001
0010
0100
0010
0001
1000
,
0001
0100
0010
1000
0100
0010
0001
1000
,
0010
2002
0000
0000
,
3003
0000
0000
0000
;

//---------------dance-single - ----------------
#NOTES:
     dance-single:
     :
     Medium:
     9:
     0.542,0.830,0.541,0.159,0.107:
0000
0000
0000
0000
,
0000
0000
0000
0000
,
0001
1000
0010
0100
,
0001
0100
0001
0100
0001
0100
0001
0100
,
0001
0100
0001
0100
0001
0100
0001
0100
,
0001
0001
0001
0001
,
0001
0100
0010
1000
,
0010
0000
0010
0100
0000
0100
0010
0000
,
0110
0010
0010
0010
,
0001
1000
0001
1000
0001
1000
0001
1000
,
0001
1000
0001
1000
0001
1000
0001
1000
,
1001
0110
1001
0110
,
1001
0000
0000
0000
,
0000
0000
0000
0000
,
0000
0000
0000
0000
,
0000
0000
0000
0000
,
1000
0100
1000
0000
,
0010
0001
0010
0000
,
0001
0100
0010
0100
,
0010
0010
0010
0000
,
0010
0100
0010
0000
,
0010
1000
0001
0000
,
1000
0100
1000
0000
,
1000
0000
0001
1000
0000
0001
0100
0000
,
0010
0000
0110
0000
,
0010
0100
0010
0000
,
1000
0000
1100
0000
,
1000
0001
0100
0000
,
0010
0000
0110
0000
,
0010
1000
0001
0000
,
2100
3100
1200
1300
,
1002
0103
0120
1030
,
1001
0000
0110
0000
,
0010
0100
0010
0000
,
1000
0000
1010
0000
,
1000
0001
0100
0000
,
0010
0000
1010
0000
,
0010
0100
0010
0000
,
1000
0000
1010
0000
,
0001
1000
0001
0100
,
0010
0000
0110
0000
,
0010
1000
0001
0000
,
1000
0000
1100
0000
,
1000
0001
0100
0000
,
0010
0000
0110
0000
,
0010
1000
0010
0000
,
1001
0000
0110
0000
0110
0110
0000
0000
,
1001
0110
0000
0110
,
0000
0010
0100
0010
,
0000
1000
0000
1001
,
0000
0001
1000
0100
,
0000
1000
0000
1100
,
0000
1000
0100
0010
,
0000
0001
0000
0011
,
0000
0001
0100
0010
,
0010
0100
0000
0110
,
0000
0010
1000
0001
,
0000
1000
0000
1001
,
0000
1000
0100
1000
,
0000
0010
0000
0001
,
0000
0100
0010
1000
,
0000
1002
0103
0120
,
1030
2100
3010
0102
,
0013
1001
0001
1000
,
0000
0101
0100
0001
,
0000
1010
1000
0010
,
0000
0110
0100
0010
,
0100
0010
0010
0100
,
0000
0010
1000
1010
,
0000
0001
0100
0101
,
0000
1100
0000
0011
,
0000
1001
0001
1001
,
0000
1000
1000
1000
,
0000
1001
0001
1001
,
0000
0110
0010
0110
,
0000
0010
0100
0010
,
0100
0010
1000
0010
,
1000
1010
0000
0011
,
0000
1100
0000
0011
,
0000
0000
0000
0000
1000
0001
0100
0010
0100
1000
0001
0010
0011
0000
0000
0001
,
0000
0100
0000
0010
0000
0000
1000
0000
1000
0000
1010
0000
0000
0000
0000
0010
,
0000
0010
0000
0010
0000
0000
0100
0000
1000
0000
0100
0000
1001
0000
0000
0010
,
0000
0010
0000
0010
0000
0000
0100
0000
0010
0000
1000
0000
1001
0000
0000
0001
,
0000
0100
0000
0010
0000
0000
0100
0000
0100
0000
0100
0000
1010
0000
0000
0000
,
0001
0000
1000
0000
0000
0001
0000
0000
0100
0000
0000
0000
0000
0000
0000
0000
,
0010
0000
0100
0000
0000
0010
0000
0000
1000
0000
0000
0000
0000
0000
0000
0000
,
1000
0000
0001
0000
0000
0100
0000
0000
0010
0000
0000
0000
0000
0000
0000
0000
,
0010
0000
0100
0000
0010
0000
1000
0000
0001
1000
0001
0000
1000
0000
0000
0000
,
0001
0000
0100
0000
0000
0001
0000
0000
0100
0000
0000
0000
0000
0000
0000
0000
,
0010
0000
0100
0000
0000
0010
0000
0000
0100
0000
0000
0000
0010
0000
0100
0000
,
0010
0100
0010
0100
0010
0100
0001
0100
,
0010
1000
0010
0000
1001
0000
0010
1000
,
0000
0010
0000
0000
1000
0000
0000
0000
0000
0000
0000
0000
0100
0000
1000
0000
,
0000
0100
0000
0000
1000
0000
0000
0000
0000
0000
0000
0000
0010
0000
0001
0000
,
0000
0010
0000
0000
0001
0000
0000
0000
0000
0000
0000
0000
0100
0000
0001
0000
,
0100
0100
0001
0000
0000
0000
0010
0100
,
0000
0010
0000
0000
0100
0000
0000
0000
0000
0000
0000
0000
0010
0000
1000
0000
,
0000
0010
0000
0000
1000
0000
0000
0000
0001
0000
0001
0000
1000
0000
1000
0000
,
0001
0001
1000
1000
0001
1000
0001
1000
,
1001
0001
0000
1000
,
0002
0000
0203
0000
,
0320
0000
0000
0100
,
0000
0230
0000
0020
,
0000
0330
0000
0000
,
0020
0000
1000
0000
,
1030
0000
0000
0001
,
0001
0000
0001
0001
,
0000
0001
0000
1000
,
0002
0000
0203
0000
,
0320
0000
0000
0100
,
0000
0100
0000
0230
,
0000
0310
0000
0010
,
0000
0110
0000
0010
,
0000
1100
0000
0011
,
0000
0110
0000
1010
,
0000
2002
0000
0000
,
3003
0000
0000
0000
;

//---------------dance-single - ----------------
#NOTES:
     dance-single:
     :
     Easy:
     6:
     0.457,0.692,0.588,0.151,0.000:
0000
0000
0000
0000
,
0000
0000
0000
0000
,
0001
0001
0001
0001
,
1001
0000
1001
0000
,
1001
0000
1001
0000
,
1000
1000
1000
1000
,
1010
0000
1010
0000
,
0101
0000
0101
0000
,
0001
0100
0010
1000
,
1010
0000
0110
0000
,
1001
0000
1100
0000
,
0001
1000
0001
2000
,
0200
0000
0000
0000
,
0000
0000
0000
0000
,
0000
0000
0000
0000
,
3300
0000
0000
0000
,
1100
0000
0100
0000
,
1000
0000
0100
0000
,
0010
0000
0001
0000
,
0100
0001
0100
0000
,
0010
0000
0110
0000
,
0010
0000
0110
0000
,
0100
0000
0110
0000
,
0010
1000
0001
1000
,
0001
0000
1001
0000
,
1000
0000
0100
0000
,
1000
0000
0100
0000
,
0010
0001
0100
0000
,
0010
0000
0110
0000
,
0010
0000
1010
0000
,
0001
1000
0001
1000
,
0001
1000
0001
1000
,
0001
0000
0101
0000
,
0010
0000
0110
0000
,
0010
0000
1010
0000
,
1000
0001
0100
0000
,
0010
0000
0110
0000
,
0010
0000
1010
0000
,
1000
0000
1100
0000
,
1000
0001
0100
0000
,
0010
0000
0011
0000
,
0001
0000
0011
0000
,
0001
0000
0100
0000
,
0010
1000
0001
0000
,
0100
0000
1100
0000
,
0010
0000
0110
0000
,
0001
0000
1000
0000
0001
1000
0000
0000
,
0010
0100
0000
0110
,
0000
0010
0000
1010
,
0000
0001
0000
0101
,
0000
0001
1000
0010
,
0000
0100
0000
0110
,
0000
0010
0000
1010
,
0000
0001
0000
0011
,
0000
0001
1000
0001
,
0100
0010
0000
0110
,
0000
0010
0000
0110
,
0000
0100
0000
1100
,
0000
0010
1000
0001
,
0000
0100
0000
0101
,
0000
0010
0000
1010
,
0000
1000
0001
1000
,
0001
0100
0010
0100
,
0010
0200
0000
0310
,
0000
2000
0000
3100
,
0000
0020
0000
0031
,
0000
0200
0000
0301
,
0000
0020
0000
0130
,
0000
2000
0000
3100
,
0000
0020
0000
0031
,
0000
0001
0100
0010
,
1000
0020
0000
0130
,
0000
2000
0000
3100
,
0000
0020
0000
0031
,
0000
0200
0000
0310
,
0000
0120
0000
1030
,
0000
0120
0000
1030
,
0000
1100
0000
0011
,
0000
0110
0000
1100
,
0000
2002
3003
1001
,
0001
0000
0100
0010
1000
0001
0101
0000
,
0001
0000
0001
0100
0010
1000
1100
0000
,
1000
0000
1000
0001
0100
0010
1010
0000
,
0110
0000
0000
1000
,
0001
0100
0010
1000
,
0010
0100
0010
1000
,
0001
0100
0001
0010
,
0001
0010
0100
1000
0100
0010
0001
0000
,
1001
0010
0110
1000
,
1100
0000
0010
0000
0011
0000
1000
0001
,
1000
0001
1000
0001
1000
0001
0001
1000
,
0001
1000
0001
0000
0001
0000
0101
0000
,
0010
0110
0010
1010
,
0010
0110
1000
1100
,
0100
0000
0110
0000
0001
0000
0010
0001
,
0010
0100
1000
0000
1000
0000
1100
0000
,
0010
0011
0001
0101
,
0010
0000
1010
0000
1000
0001
1000
0001
,
0100
0100
0001
0001
0001
0100
0010
0100
,
0010
0010
0000
0000
,
0100
0000
0010
0000
,
0100
0000
0000
0010
,
0000
0010
0000
0010
,
0000
0000
0000
0000
,
1000
0000
0001
0000
,
1000
0000
0000
0001
,
1000
0000
1000
0001
,
0000
1001
0000
0000
,
0001
0000
0100
0000
,
0010
0000
0000
0100
,
0000
0100
0000
0100
,
0000
0110
0000
0010
,
0000
0110
0000
0010
,
0000
1100
0000
0101
,
0000
1010
0000
0011
,
0000
2002
0000
0000
,
3003
0000
0000
0000
;

//---------------dance-single - ----------------
#NOTES:
     dance-single:
     :
     Beginner:
     3:
     0.145,0.321,0.119,0.000,0.000: // measure 1
0000
0000
0000
0000
,  // measure 2
0000
0000
0000
0000
,  // measure 3
0000
0000
0000
0000
,  // measure 4
0010
0000
0000
0000
,  // measure 5
0010
0000
0000
0000
,  // measure 6
0000
0000
0000
0000
,  // measure 7
1000
0000
1000
0000
,  // measure 8
1000
0000
0000
0000
,  // measure 9
1001
0000
0000
0000
,  // measure 10
0100
0000
0100
0000
,  // measure 11
0100
0000
0100
0000
,  // measure 12
0100
0000
0000
0000
,  // measure 13
0010
0000
0000
0000
,  // measure 14
0000
0000
0000
0000
,  // measure 15
0000
0000
0000
0000
,  // measure 16
0000
0000
0000
0000
,  // measure 17
1000
0000
0000
0000
,  // measure 18
1000
0000
0000
0000
,  // measure 19
1000
0000
0000
0000
,  // measure 20
1000
0000
1000
0000
,  // measure 21
0001
0000
0000
0000
,  // measure 22
0001
0000
0000
0000
,  // measure 23
0001
0000
0000
0000
,  // measure 24
1001
0000
0000
0000
,  // measure 25
0010
0000
0000
0000
,  // measure 26
0010
0000
0000
0000
,  // measure 27
0010
0000
0000
0000
,  // measure 28
0010
0000
0010
0000
,  // measure 29
0010
0000
0000
0000
,  // measure 30
0100
0000
0000
0000
,  // measure 31
0100
0000
0000
0000
,  // measure 32
0000
0000
0000
0000
,  // measure 33
0110
0000
0000
0000
,  // measure 34
0100
0000
0000
0000
,  // measure 35
0100
0000
0000
0000
,  // measure 36
0100
0000
0100
0000
,  // measure 37
0100
0000
0000
0000
,  // measure 38
0010
0000
0000
0000
,  // measure 39
1000
0000
0000
0000
,  // measure 40
1001
0000
0000
0000
,  // measure 41
0001
0000
0000
0000
,  // measure 42
0001
0000
0000
0000
,  // measure 43
0001
0000
0000
0000
,  // measure 44
1000
0000
0001
0000
,  // measure 45
0100
0000
0000
0000
,  // measure 46
0100
0000
0000
0000
,  // measure 47
0010
0000
0000
0000
,  // measure 48
0000
0010
0000
0000
,  // measure 49
0000
0010
0000
0000
,  // measure 50
0000
0010
0000
0000
,  // measure 51
0000
0010
0000
0010
,  // measure 52
0000
1000
0000
0000
,  // measure 53
0000
1000
0000
0000
,  // measure 54
0000
1000
0000
0000
,  // measure 55
0000
1001
0000
0000
,  // measure 56
0000
0001
0000
0000
,  // measure 57
0001
0000
0000
0000
,  // measure 58
0000
0001
0000
0000
,  // measure 59
0000
0001
0000
0001
,  // measure 60
0000
0100
0000
0000
,  // measure 61
0000
0100
0000
0000
,  // measure 62
0000
0100
0000
0000
,  // measure 63
0000
0010
0000
0000
,  // measure 64
0000
1000
0000
0000
,  // measure 65
0000
0000
0000
0000
,  // measure 66
0000
0001
0000
0000
,  // measure 67
0000
0000
0000
0000
,  // measure 68
0000
0100
0000
0000
,  // measure 69
0000
0000
0000
0000
,  // measure 70
0000
0010
0000
0000
,  // measure 71
0000
1000
0000
1000
,  // measure 72
0000
1001
0000
0000
,  // measure 73
0000
0000
0000
0000
,  // measure 74
0000
0010
0000
0000
,  // measure 75
0000
0000
0000
0000
,  // measure 76
0000
0100
0000
0000
,  // measure 77
0000
0100
0000
0000
,  // measure 78
0000
0110
0000
0110
,  // measure 79
0000
0110
0000
0110
,  // measure 80
0000
1001
0000
0010
,  // measure 81
0000
0000
0000
1000
,  // measure 82
0000
0000
0000
0001
,  // measure 83
0000
0000
0000
0100
,  // measure 84
0000
0000
0000
0010
,  // measure 85
0000
0000
0000
1000
,  // measure 86
0000
0000
0000
0001
,  // measure 87
0000
0000
0000
1000
,  // measure 88
0000
1000
0000
1000
,  // measure 89
0000
0000
0000
0001
,  // measure 90
0000
0000
0000
0010
,  // measure 91
0000
0000
0000
0000
,  // measure 92
0000
0000
0100
0000
,  // measure 93
0000
0000
0010
0000
,  // measure 94
0000
0000
1000
0000
,  // measure 95
0000
0000
0001
0000
,  // measure 96
0001
0000
1001
0000
,  // measure 97
0000
0000
1000
0000
,  // measure 98
0000
0000
0010
0000
,  // measure 99
0010
0000
0000
0000
,  // measure 100
0000
0100
0000
0000
,  // measure 101
0000
0000
0000
0000
,  // measure 102
0000
0010
0000
0000
,  // measure 103
0000
0000
0000
0000
,  // measure 104
0000
1000
0000
0000
,  // measure 105
0000
0000
0000
0000
,  // measure 106
0000
0001
0000
0000
,  // measure 107
0000
0000
0000
0000
,  // measure 108
0000
1001
0000
0000
,  // measure 109
0000
0000
0000
0000
,  // measure 110
0000
0010
0000
0000
,  // measure 111
0000
0000
0000
0000
,  // measure 112
0000
0110
0000
0000
,  // measure 113
0000
0010
0000
0000
,  // measure 114
0000
0100
0000
0100
,  // measure 115
0000
0100
0000
0100
,  // measure 116
0000
1001
0000
0000
;
