#TITLE:Fake Time;
#SUBTITLE:;
#ARTIST:dj Remo-con;
#TITLETRANSLIT:;
#SUBTITLETRANSLIT:;
#ARTISTTRANSLIT:;
#CREDIT:;
#BANNER:bn.PNG;
#BACKGROUND:bg.PNG;
#LYRICSPATH:;
#CDTITLE:Beatmania IIDX.png;
#MUSIC:Beatmania IIDX 11 - FAKE TIME.mp3;
#OFFSET:2.300;
#SAMPLESTART:28.880;
#SAMPLELENGTH:12.000;
#SELECTABLE:YES;
#BPMS:0.000=100.000,20.000=200.000,52.000=100.000,60.000=200.001,172.000=100.000,180.000=200.001,276.000=400.002,340.000=200.001;
#STOPS:;
#BGCHANGES:;

//---------------dance-single - ----------------
#NOTES:
     dance-single:
     :
     Hard:
     9:
     0.627,0.876,0.196,0.117,0.264: // measure 1
0000
0000
0000
0000
,  // measure 2
0000
0000
0000
0000
,  // measure 3
0000
0000
0000
0000
,  // measure 4
0001
1000
0010
1000
0001
1000
0000
0000
1000
0100
0010
0001
0010
0100
0000
0000
,  // measure 5
0010
0100
0001
1000
0010
0100
0000
0000
1000
0100
0010
0001
0010
0100
1000
0001
,  // measure 6
0010
0100
0001
1000
0010
0100
0000
0000
,  // measure 7
1000
0100
0010
0001
0010
0100
0000
0000
,  // measure 8
0001
0100
0001
0100
0001
1000
0000
0000
,  // measure 9
1000
0100
0010
0001
0010
0100
1000
0100
,  // measure 10
0001
1000
0001
1000
0001
1000
0000
0000
,  // measure 11
0010
1000
0001
1000
0010
0100
0000
0000
,  // measure 12
1100
0011
0110
1001
,  // measure 13
1100
0011
0110
1010
,  // measure 14
1001
0000
0000
0000
1000
0100
0010
0001
0010
0000
0000
0000
0000
0000
0000
0000
,  // measure 15
0000
0000
0000
0000
0000
0000
0000
0000
0002
0000
0000
0200
0000
0000
0303
0000
,  // measure 16
1000
0000
0100
0000
0010
0001
0010
0001
,  // measure 17
0010
0100
1000
0100
,  // measure 18
0010
0001
0100
1000
,  // measure 19
0002
0000
0000
2000
0000
0000
0000
3003
,  // measure 20
0100
0000
0110
0000
1000
0100
0010
0001
,  // measure 21
0010
0000
0100
0000
0001
0100
0001
0100
,  // measure 22
0001
0000
0100
0000
1000
0100
0010
0001
,  // measure 23
0020
0200
0000
0000
0000
0000
0330
0000
,  // measure 24
0001
0000
1001
0000
1000
0100
0010
0001
,  // measure 25
0010
0000
0100
0000
0001
0100
0001
0100
,  // measure 26
0001
0000
0100
0000
1000
0100
0010
0000
,  // measure 27
0002
2000
0000
0000
0000
0000
3003
0000
,  // measure 28
1000
0000
0100
0000
1000
0100
1000
0000
,  // measure 29
0010
0000
0100
0000
0001
0100
0001
0000
,  // measure 30
0010
0000
0001
0000
1000
0001
1000
0000
,  // measure 31
0100
0000
1000
0000
0010
1000
0010
0000
,  // measure 32
0100
0000
1100
0000
1000
0100
0010
0000
,  // measure 33
0001
0000
0100
0000
0001
0100
0001
0000
,  // measure 34
0010
0000
0001
0000
0010
0001
0010
0000
,  // measure 35
0100
1000
0100
0010
,  // measure 36
1000
0000
1000
0000
1000
0000
0000
0001
,  // measure 37
0001
0000
0001
0000
0001
0000
0000
0010
,  // measure 38
0010
0000
0010
0000
0010
0000
0000
0100
,  // measure 39
0100
0000
0100
0000
0100
0000
0000
1000
,  // measure 40
0100
0000
1000
0000
1100
0000
0000
0010
,  // measure 41
0001
0000
0010
0000
0011
0000
0000
0100
,  // measure 42
0001
0000
0100
0000
0101
0000
0000
0010
,  // measure 43
1000
0010
1010
0000
,  // measure 44
1000
0000
0100
0000
1000
0100
0000
0010
0000
0001
0000
0001
0100
0001
0100
0000
,  // measure 45
0000
0000
0010
0000
1000
0000
0000
0000
1001
0000
0000
0110
0000
0000
0001
0000
,  // measure 46
1000
0000
0100
0000
1000
0100
0000
0010
,  // measure 47
0000
0001
0000
0100
0001
0100
0001
0000
,  // measure 48
0100
0000
1000
0000
0100
0010
0000
1000
,  // measure 49
0000
0001
0000
1000
0100
0010
0001
0010
,  // measure 50
0000
0100
2000
0000
0000
0000
0000
0000
,  // measure 51
3100
0000
1000
0000
0100
1000
0100
0000
,  // measure 52
0010
0100
0001
0100
,  // measure 53
1000
0100
0010
0001
0000
0010
0100
2000
,  // measure 54
0000
0000
0000
0000
0000
3001
0100
0001
,  // measure 55
0000
1000
0100
1000
0000
0010
0100
0010
,  // measure 56
0000
0001
1000
0001
0000
0010
1000
0010
,  // measure 57
0000
0100
0000
1000
0000
0100
0000
1000
,  // measure 58
0100
0000
0000
0010
0002
0000
0000
0000
,  // measure 59
0000
0000
0000
0000
1003
0001
1000
0001
,  // measure 60
0000
0100
1000
0100
,  // measure 61
0010
0010
0100
1000
,  // measure 62
1000
1100
0010
0011
,  // measure 63
0001
0010
0100
1000
0000
1000
0100
0010
,  // measure 64
0000
0001
0010
0100
0000
0001
1000
0001
,  // measure 65
0000
0010
1000
0010
1000
0010
1000
0010
,  // measure 66
1000
0000
0100
0000
1000
0100
1000
0000
,  // measure 67
0010
0000
0100
0000
0001
0100
0001
0000
,  // measure 68
0100
1000
0000
0100
0000
0010
0000
0001
,  // measure 69
0000
0100
0001
1000
0000
0100
1000
0000
,  // measure 70
0001
1000
0100
0010
,  // measure 71
0001
0010
0100
1000
,  // measure 72
0100
0010
0001
0010
,  // measure 73
0100
1000
0100
0010
,  // measure 74
0001
1000
0001
1000
,  // measure 75
0010
1000
0010
1000
,  // measure 76
0001
0100
0001
0100
,  // measure 77
0001
0100
1000
0100
,  // measure 78
1000
0000
0100
0000
0010
0000
0001
0000
0010
0000
0100
0000
,  // measure 79
1000
0000
0001
0000
1000
0000
0100
0000
0010
0000
0100
0000
,  // measure 80
0010
0000
1000
0000
0100
0000
0010
0000
0001
0000
1000
0000
,  // measure 81
0001
0000
0010
0000
0100
0000
0001
0000
1000
0000
0100
0000
,  // measure 82
0010
0000
0001
0000
1000
0000
0001
0000
0010
0000
1000
0000
,  // measure 83
0001
0000
0100
0000
0010
0000
1000
0000
0001
0000
0100
0000
,  // measure 84
1000
0000
0100
0000
0010
0000
0001
0000
1000
0000
0001
0000
,  // measure 85
0100
0000
0010
0000
1000
0000
0100
0000
0001
0000
0010
0000
,  // measure 86
2000
3000
0000
0000
;

//---------------dance-single - ----------------
#NOTES:
     dance-single:
     :
     Medium:
     7:
     0.472,0.625,0.382,0.049,0.000: // measure 1
0000
0000
0000
0000
,  // measure 2
0000
0000
0000
0000
,  // measure 3
0000
0000
0000
0000
,  // measure 4
1000
0000
0000
0001
0001
0000
0000
0000
,  // measure 5
0010
0000
0100
1000
,  // measure 6
0001
0000
1000
0000
0001
1000
0001
0000
,  // measure 7
0010
0000
0100
0000
0010
0100
0010
0000
,  // measure 8
1000
0000
0100
0000
1000
0100
1000
0000
,  // measure 9
1000
0100
1000
0000
0001
0100
0001
0000
,  // measure 10
0010
0000
0100
0000
0001
0100
0001
0000
,  // measure 11
0100
0000
1000
0000
0001
1000
0001
0000
,  // measure 12
1100
0011
0110
1001
,  // measure 13
1010
0101
1100
0011
,  // measure 14
1002
0000
1000
1000
1003
0000
0000
0000
,  // measure 15
0000
0000
1100
0000
,  // measure 16
0011
0000
0000
0000
0001
0010
0100
1000
,  // measure 17
0100
0000
0000
0000
,  // measure 18
0000
0000
0000
0000
,  // measure 19
0002
0000
0000
0100
0000
0000
0000
0000
,  // measure 20
1003
0000
0001
0000
1000
0100
1000
0000
,  // measure 21
0100
0000
0010
0000
0001
0010
0001
0000
,  // measure 22
0010
0000
0100
0000
0001
0100
0001
0000
,  // measure 23
0010
1000
0010
0000
1000
0000
0100
0000
,  // measure 24
0010
0000
0001
0000
0001
1000
0001
0000
,  // measure 25
0100
0000
1000
0000
0100
1000
0100
0000
,  // measure 26
1000
0000
0100
0000
0010
0001
0010
0000
,  // measure 27
0100
1000
0100
0000
0010
0000
1000
0000
,  // measure 28
1000
0000
0000
0100
0000
0000
0010
0000
,  // measure 29
0000
0001
0000
0000
0010
0000
0100
0000
,  // measure 30
1000
0000
0000
0001
0000
0000
0100
0000
,  // measure 31
0000
0010
0000
0000
0110
0000
0100
0000
,  // measure 32
0100
0000
0000
1000
0000
0000
0001
0000
,  // measure 33
0000
0100
0000
0000
1000
0000
0100
0000
,  // measure 34
0010
0000
0000
0001
0000
0000
0010
0000
,  // measure 35
0000
0100
0000
0000
1000
0000
0000
0000
,  // measure 36
0001
0000
0001
0000
0001
0000
0000
1000
,  // measure 37
0100
0000
1000
0000
0100
0000
0000
0010
,  // measure 38
0001
0000
0010
0000
0001
0000
0000
0100
,  // measure 39
0001
0000
0100
0000
0001
0000
0000
0010
,  // measure 40
1000
0000
0010
0000
1000
0000
0000
0001
,  // measure 41
1000
0000
0001
0000
1000
0000
0000
0010
,  // measure 42
0100
0000
0010
0000
0100
0000
0000
1000
,  // measure 43
0100
0000
0010
0000
0001
0000
0000
0001
,  // measure 44
0010
0000
0000
0000
,  // measure 45
0000
0000
0101
0000
,  // measure 46
1000
0100
0010
0001
,  // measure 47
0010
0000
0100
0000
1000
0001
1000
0000
,  // measure 48
0100
1000
0100
0010
,  // measure 49
0001
0000
0100
0000
0001
0100
0001
0000
,  // measure 50
0100
0001
0100
0010
,  // measure 51
1000
0000
0010
0000
0010
0100
0001
0000
,  // measure 52
1000
0100
0010
1000
,  // measure 53
0001
0000
0100
0000
1000
0000
0100
1000
,  // measure 54
0100
0000
0010
0000
0100
0000
0001
0100
,  // measure 55
0001
0000
0010
0000
1000
0000
0001
1000
,  // measure 56
0001
0000
0100
0000
1000
0000
0100
1000
,  // measure 57
0100
0010
1000
0010
,  // measure 58
0110
0000
1001
0000
,  // measure 59
0000
0000
0000
0000
0001
0100
0001
0000
,  // measure 60
0100
1000
0100
0001
,  // measure 61
0100
1000
0100
0010
,  // measure 62
0120
0100
0100
0130
,  // measure 63
1000
0100
1000
0000
0010
0000
0001
0000
,  // measure 64
0100
0001
0100
0001
,  // measure 65
1000
0000
0010
0000
0010
1000
0010
1000
,  // measure 66
0010
0000
1000
0000
0100
0000
0010
0001
,  // measure 67
0010
0100
1000
0100
,  // measure 68
0001
1000
0000
0100
1000
0000
0000
0000
,  // measure 69
0100
1000
0100
0000
0000
0010
0001
0000
,  // measure 70
1000
0000
1100
0000
,  // measure 71
0010
0000
0011
0000
,  // measure 72
0100
0000
0110
0000
,  // measure 73
0100
0000
0110
0000
,  // measure 74
1000
0000
1100
0000
,  // measure 75
0010
0000
0011
0000
,  // measure 76
0100
0000
0110
0000
,  // measure 77
0001
0001
1000
0000
,  // measure 78
1000
0000
1100
0000
,  // measure 79
0011
0000
0110
0000
,  // measure 80
1001
0000
1010
0000
,  // measure 81
0011
0000
1100
0000
,  // measure 82
0110
0000
1100
0000
,  // measure 83
0011
0000
0110
0000
,  // measure 84
1010
0000
0011
0000
,  // measure 85
1100
0000
0101
0000
,  // measure 86
2002
3003
0000
0000
;

//---------------dance-single - ----------------
#NOTES:
     dance-single:
     :
     Easy:
     5:
     0.300,0.582,0.157,0.137,0.000: // measure 1
0000
0000
0000
0000
,  // measure 2
0000
0000
0000
0000
,  // measure 3
0000
0000
0000
0000
,  // measure 4
0001
0000
0000
0000
,  // measure 5
0000
0000
0000
0000
,  // measure 6
1000
0100
1000
0000
,  // measure 7
0001
0100
0001
0000
,  // measure 8
0010
0001
0010
0000
,  // measure 9
2000
0000
0000
0000
,  // measure 10
3100
1000
0100
0000
,  // measure 11
0010
1000
0010
0000
,  // measure 12
0001
0001
1000
1000
,  // measure 13
0100
0100
0010
0010
,  // measure 14
2002
3003
0000
0000
,  // measure 15
0000
0000
0000
0000
,  // measure 16
0001
0000
1000
1000
,  // measure 17
1000
0000
0000
0000
,  // measure 18
0000
0000
0000
0000
,  // measure 19
0010
0000
0000
0010
0000
0000
0000
0000
,  // measure 20
0001
0010
0100
1000
,  // measure 21
0001
0000
1000
0001
,  // measure 22
1000
0000
0100
0010
,  // measure 23
0001
0000
0000
0000
,  // measure 24
1001
0000
1000
1000
,  // measure 25
1000
0000
0001
0001
,  // measure 26
0001
0000
0010
0100
,  // measure 27
1000
0000
0000
0000
,  // measure 28
0001
0000
1000
0000
,  // measure 29
0100
0000
0010
0001
,  // measure 30
0010
0000
0100
0000
,  // measure 31
1000
0000
0001
0100
,  // measure 32
0010
0000
1000
0000
,  // measure 33
0001
0000
1000
0001
,  // measure 34
0100
0000
0010
0000
,  // measure 35
1000
0000
0001
0000
,  // measure 36
1000
1000
1000
0000
,  // measure 37
0001
0001
0001
0000
,  // measure 38
0010
0010
0010
0000
,  // measure 39
0100
0100
0100
0000
,  // measure 40
1100
1100
1100
0000
,  // measure 41
0101
0101
0101
0000
,  // measure 42
0011
0011
0011
0000
,  // measure 43
1010
1010
1010
0000
,  // measure 44
1001
0000
0000
0000
,  // measure 45
0000
0000
0000
0000
,  // measure 46
0002
0000
0000
0000
,  // measure 47
0000
0000
0000
0003
,  // measure 48
0000
1000
0001
1000
,  // measure 49
0001
0100
0001
0100
,  // measure 50
0001
0100
0000
0000
,  // measure 51
0000
1000
0100
0010
,  // measure 52
0001
0010
0001
0100
,  // measure 53
0001
0010
1000
0010
,  // measure 54
2000
0000
0000
3001
,  // measure 55
0000
1000
0000
0001
,  // measure 56
0000
0100
0000
0010
,  // measure 57
0000
1000
0000
0000
,  // measure 58
0002
0000
2000
0000
,  // measure 59
3003
0000
0010
0001
,  // measure 60
0010
0001
0100
1000
,  // measure 61
0100
0010
0001
2000
,  // measure 62
0002
0000
0000
3003
,  // measure 63
0010
0001
0010
0100
,  // measure 64
1000
0001
1000
0001
,  // measure 65
0100
0001
0002
0100
,  // measure 66
0200
0000
0000
0300
,  // measure 67
0020
0000
0000
0033
,  // measure 68
1000
0001
0100
0010
,  // measure 69
1000
0100
0010
0001
,  // measure 70
2000
0000
0000
0000
,  // measure 71
0000
0000
0000
0000
,  // measure 72
0001
0000
0001
0000
,  // measure 73
3001
0000
0000
0000
,  // measure 74
0002
0000
0000
0000
,  // measure 75
0000
0000
0000
0000
,  // measure 76
1000
0000
1000
0000
,  // measure 77
1003
0000
0000
0000
,  // measure 78
1000
0000
0001
0000
,  // measure 79
0100
0000
0010
0000
,  // measure 80
1000
0000
0100
0000
,  // measure 81
0010
0000
0001
0000
,  // measure 82
0010
0000
0100
0000
,  // measure 83
1000
0000
0001
0000
,  // measure 84
0100
0000
1000
0000
,  // measure 85
0010
0000
0001
0000
,  // measure 86
1001
0000
0000
0000
;

//---------------dance-single - ----------------
#NOTES:
     dance-single:
     :
     Beginner:
     2:
     0.127,0.249,0.108,0.000,0.000: // measure 1
0000
0000
0000
0000
,  // measure 2
0000
0000
0000
0000
,  // measure 3
0000
0000
0000
0000
,  // measure 4
0000
0000
0000
0000
,  // measure 5
0000
0000
0000
0000
,  // measure 6
0010
0000
0000
0000
,  // measure 7
0010
0000
0000
0000
,  // measure 8
0010
0000
0000
0000
,  // measure 9
0000
0000
0000
0000
,  // measure 10
0100
0000
0000
0000
,  // measure 11
0100
0000
0000
0000
,  // measure 12
0100
0000
0000
0000
,  // measure 13
0000
0000
0000
0000
,  // measure 14
1001
0000
0000
0000
,  // measure 15
0000
0000
0000
0000
,  // measure 16
0001
0000
0000
0000
,  // measure 17
0000
0000
0000
0000
,  // measure 18
0000
0000
0000
0000
,  // measure 19
1000
0000
0000
0000
,  // measure 20
0010
0000
0100
0100
,  // measure 21
0100
0000
0000
0000
,  // measure 22
0000
0000
1000
0000
,  // measure 23
0001
0000
0000
0000
,  // measure 24
0000
0000
0010
0010
,  // measure 25
0010
0000
0000
0000
,  // measure 26
0000
0000
0001
0000
,  // measure 27
1000
0000
0000
0000
,  // measure 28
1000
0000
0000
0000
,  // measure 29
0000
0000
0000
0001
,  // measure 30
0001
0000
0000
0000
,  // measure 31
0000
0000
0000
0010
,  // measure 32
0010
0000
0000
0000
,  // measure 33
0000
0000
0000
0100
,  // measure 34
0100
0000
0000
0000
,  // measure 35
0000
0000
0000
0000
,  // measure 36
1000
0000
0000
0000
,  // measure 37
1000
0000
0000
0000
,  // measure 38
1000
0000
0000
0000
,  // measure 39
1000
0000
0000
0000
,  // measure 40
0001
0000
0000
0000
,  // measure 41
0001
0000
0000
0000
,  // measure 42
0001
0000
0000
0000
,  // measure 43
0001
0000
0000
0000
,  // measure 44
0010
0000
0000
0000
,  // measure 45
0000
0000
0100
0000
,  // measure 46
1000
0000
0000
0000
,  // measure 47
0000
0000
0000
0000
,  // measure 48
0000
0001
0000
0000
,  // measure 49
0000
0000
0000
0000
,  // measure 50
1000
0000
0000
0000
,  // measure 51
0000
0000
0010
0000
,  // measure 52
0010
0000
0010
0000
,  // measure 53
0100
0000
0000
0000
,  // measure 54
0001
0000
0000
0000
,  // measure 55
1000
0000
0000
0000
,  // measure 56
1000
0000
0000
0000
,  // measure 57
1000
0000
0000
0000
,  // measure 58
0001
0000
1000
0000
,  // measure 59
0001
0000
0100
0000
,  // measure 60
0000
0000
0000
0000
,  // measure 61
0010
0000
0000
0000
,  // measure 62
1001
0000
0000
0000
,  // measure 63
1000
0000
0000
0000
,  // measure 64
0001
0000
0000
0000
,  // measure 65
1000
0000
0100
0100
,  // measure 66
0100
0000
0000
0000
,  // measure 67
0010
0000
0000
0000
,  // measure 68
0001
0000
0000
0000
,  // measure 69
1000
0000
0000
0000
,  // measure 70
0001
0000
0000
0000
,  // measure 71
0000
0000
0000
0000
,  // measure 72
1000
0000
0001
0000
,  // measure 73
1000
0000
0000
0000
,  // measure 74
0010
0000
0000
0000
,  // measure 75
0000
0000
0000
0000
,  // measure 76
0100
0000
0010
0000
,  // measure 77
0100
0000
0000
0000
,  // measure 78
1001
0000
0000
0000
,  // measure 79
1001
0000
0000
0000
,  // measure 80
0110
0000
0000
0000
,  // measure 81
0110
0000
0000
0000
,  // measure 82
1001
0000
0000
0000
,  // measure 83
0110
0000
0000
0000
,  // measure 84
0110
0000
0000
0000
,  // measure 85
1001
0000
0000
0000
,  // measure 86
0110
0000
0000
0000
;
