#TITLE:Fairy Reflection;
#SUBTITLE:;
#ARTIST:Ryu;
#TITLETRANSLIT:;
#SUBTITLETRANSLIT:;
#ARTISTTRANSLIT:;
#CREDIT:;
#BANNER:bn.PNG;
#BACKGROUND:bg.PNG;
#LYRICSPATH:;
#CDTITLE:ps.png;
#MUSIC:Fairy Reflection.mp3;
#OFFSET:-6.105;
#SAMPLESTART:63.790;
#SAMPLELENGTH:12.000;
#SELECTABLE:YES;
#DISPLAYBPM:158.000;
#BPMS:0.000=158.000;
#STOPS:;
#BGCHANGES:;

//---------------dance-single - ----------------
#NOTES:
     dance-single:
     :
     Hard:
     7:
     0.488,0.534,0.201,0.441,0.056:
0001
0100
0010
1000
0001
1000
0010
0000
,
1000
0100
0010
0001
0010
1000
0001
0000
,
0001
1000
0010
1000
0010
0100
0010
1000
,
0002
0000
0000
0000
1003
0001
0100
0010
,
0100
0000
0001
1000
0010
0000
0120
0000
,
0130
0000
1000
0100
0010
0000
0102
0000
,
1003
0000
1000
0100
0010
0000
0120
0000
,
0130
0000
1000
0100
0010
0000
0001
1000
,
0020
0000
0130
0000
1000
0000
0100
1000
,
0200
0000
1300
0000
0100
0000
0010
1000
,
0002
0000
0000
0000
0013
0100
1000
0010
,
0101
1100
0000
0000
0000
0000
0001
0000
,
1001
0000
0000
0000
0000
0000
0010
0000
0100
0000
0000
0010
0000
0000
1000
0000
,
0100
0000
0000
0000
0000
0000
1000
0000
0100
0000
0000
1000
0000
0000
0100
0000
,
0010
0000
0000
0000
0000
0000
0001
0000
0100
0000
0000
0010
0000
0000
0100
0000
,
0001
1000
0010
1000
0001
0010
1000
0100
,
0010
0000
0000
0000
0000
0000
0001
0000
0100
0000
0000
0010
0000
0000
1000
0000
,
0001
0000
0000
0000
0000
0000
1000
0000
0100
0000
0000
0010
0000
0000
0001
0000
,
0010
0000
0000
0000
0000
0000
0100
0000
1000
0000
0000
0100
0000
0000
0010
0000
,
1000
0010
1000
0001
1000
0010
0000
0000
,
1100
0000
0000
0000
0010
1000
0001
0200
,
0002
0000
0000
0000
0000
0000
0303
1000
,
1000
0002
0000
0100
0000
1000
0000
0103
,
0000
1000
0000
0100
0000
0010
0001
0000
,
0020
0000
0130
0020
0000
1030
0002
0000
,
1003
0002
0000
0103
0010
0000
0110
0000
,
1000
0100
1000
0000
0020
0000
0130
0000
,
0001
0100
0002
0000
0103
0000
0010
0000
,
0100
1000
0010
0001
,
0001
0100
0010
1000
0100
0001
1000
0100
,
1002
0000
1003
0000
1000
0100
0010
1000
,
0020
1000
1000
1030
,
1000
0200
1000
0000
1300
0000
0010
0000
,
0100
0001
0200
0000
0010
0000
0310
0000
,
0001
0200
0000
1000
0000
0010
0000
0001
,
0000
0010
0000
1000
0000
0010
0000
0002
,
0000
0000
0000
0303
,
0001
0010
0100
1000
0020
0000
0030
0000
,
2000
3100
0020
0031
,
0002
0000
0103
0000
0020
0000
0130
0010
,
2000
0000
0000
0000
0000
0100
0000
0010
,
0000
0001
0000
0001
3000
0001
0100
0002
,
0000
0100
0000
1000
0000
0100
0000
2003
,
0000
3002
0000
0203
0000
0320
0000
2030
,
0000
3000
0001
0100
0001
0000
0010
1000
,
0010
1000
0001
1000
0010
0000
1000
0000
,
1002
1003
2001
3001
,
0120
0130
0210
0310
,
1020
1030
0102
0103
,
2100
3100
0120
0130
,
1000
0200
0000
1000
0000
0010
0000
0001
,
0000
0010
0000
1000
0000
0010
0000
0002
,
0000
0000
0000
0303
,
0001
0001
1000
0001
0100
0000
0000
0000
,
0010
1000
0010
0000
1000
0000
0200
1000
,
0000
1000
0000
1000
0000
1000
0000
2000
,
0000
3300
0000
0000
0010
0000
0010
0200
,
0000
0001
0000
0001
0000
0001
0000
0002
,
0000
0303
0000
0000
0001
0010
0100
2000
,
0000
0100
0000
0010
0000
0001
0000
0010
,
0000
0002
0000
0000
0000
0000
3003
0000
,
1001
0000
0000
0000
0010
0000
0100
0000
1100
0000
0000
0110
0000
0000
0011
0000
,
0000
1100
0000
0000
0000
0000
0000
0010
,
0010
0000
1000
0000
0000
0001
0000
0000
0100
0000
0000
0000
0000
0000
0000
0000
,
0001
0000
0000
0000
0000
0000
1000
0000
0100
0000
0000
1000
0000
0000
0100
0000
,
2000
0000
0000
0000
0000
0000
3010
0000
0100
0000
0000
0010
0000
0000
0100
0000
,
0020
0000
0000
0000
0000
0000
0130
0000
0010
0000
0000
1000
0000
0000
0001
0000
,
1000
0100
0010
0001
0010
0100
1000
0001
,
2000
0000
0000
0000
0000
0000
3001
0000
0100
0000
0000
0010
0000
0000
0100
0000
,
0110
0000
0000
0000
0000
0000
0010
0000
1000
0000
0000
0001
0000
0000
0100
0000
,
1100
0000
0000
0000
0000
0000
0010
0000
0100
0000
0000
0010
0000
0000
1000
0000
,
0100
0010
0001
0010
0100
0010
0000
0000
,
1001
0000
0000
0000
1000
0100
0010
0002
,
0200
0000
0000
0000
,
0303
0000
0000
0000
;

//---------------dance-single - ----------------
#NOTES:
     dance-single:
     :
     Medium:
     5:
     0.350,0.386,0.040,0.361,0.008:
1000
1000
1000
2000
,
3001
0001
0001
0002
,
0103
0100
0100
0100
,
0200
0000
0010
0010
,
0310
1000
0010
2000
,
3001
0100
0001
0200
,
0310
1000
0001
2000
,
3001
0000
0100
0000
0010
0000
1000
0100
,
1000
0000
0100
0000
0010
0000
0001
0010
,
0100
0000
0001
0000
1000
0000
0001
1000
,
0020
0000
0100
0130
,
0001
0001
0000
0000
0000
0000
0000
0000
,
1000
0000
0002
0100
,
1003
0001
0200
0010
,
0310
1000
0200
1300
,
1000
0100
1000
0000
0010
0000
0001
1000
,
0001
0000
0010
0200
,
0310
0000
0010
1000
,
0002
0003
0001
1000
,
0001
0000
0100
0000
0010
1000
0000
0000
,
0001
0000
0000
0000
1000
0100
0010
0002
,
0020
0000
0000
0000
0000
0033
0000
0001
,
0100
0001
0000
0100
0000
1000
0000
0100
,
0000
0000
0000
0010
,
0002
0000
0000
0100
0000
0000
2000
0000
,
0000
0000
3003
0000
0000
0000
0000
0010
,
0100
0010
0000
0100
0000
0010
0000
1000
,
0000
0001
0000
0000
0000
0000
1000
0000
,
0100
0010
0000
0001
,
0001
0100
0001
0100
0001
0100
0001
0000
,
0110
0000
0000
0010
0100
0000
0010
0100
,
0000
0000
0000
0000
0000
0000
0000
1000
,
0100
0000
1000
0000
0100
0000
0010
0002
,
0000
0003
0000
0000
0000
0000
0000
0001
,
0100
0001
0000
0100
0000
1000
0000
0100
,
0000
0001
0000
0100
0000
1000
0000
0020
,
0000
0000
0000
0030
0000
0000
0000
0000
,
1000
0001
1000
0001
1000
0000
0000
0000
,
0020
0130
2000
3100
,
0020
0031
0200
0301
,
0020
0000
0130
0000
2000
0100
0000
3100
,
0000
0000
0000
0000
0000
0010
0100
0010
,
0000
0110
0000
0010
0000
1000
0000
0100
,
0000
0010
0000
0001
0000
0010
0000
0100
,
0000
0002
0000
0000
,
2003
0000
3001
0000
,
0002
0103
0020
0130
,
0020
0130
2000
3001
,
0200
0000
0000
0000
0000
1000
0000
0310
,
0000
0000
0000
0000
,
0001
1000
0000
0100
0000
0010
0000
0001
,
0010
0000
0000
0001
0000
0100
0000
2000
,
0000
0000
0000
3000
,
0001
1000
0001
1000
0001
0000
0000
0000
,
0110
0000
0000
0000
0010
0000
0010
0200
,
0000
0010
0000
0010
0000
0010
0000
0310
,
0000
0000
0000
0000
0001
0000
0001
1000
,
0000
0100
0000
0010
0000
0002
0000
0013
,
0000
0000
0000
0000
0001
0100
0001
0200
,
0000
0010
0000
0010
0000
0010
0000
0010
,
0000
0310
0000
0000
0000
0000
0000
0000
,
1001
0000
0000
0000
0000
0000
0000
0000
1000
0000
0000
0001
0000
0000
0200
0000
,
0000
0300
0000
0000
0000
0000
0000
1000
,
0001
0000
0100
0000
0000
0100
0000
0000
0100
0000
0000
0000
0000
0000
0000
0000
,
0020
0000
0130
0010
,
2000
0000
3001
0100
,
2000
0000
0100
3100
,
0010
1000
0010
1000
0010
0000
0100
0000
,
0002
0003
1000
0001
,
0200
0300
0010
1000
,
0002
0003
1000
0100
,
0020
0001
0031
0000
,
0101
0000
0000
0000
0001
0010
0100
2000
,
0200
0000
0000
0000
,
3300
0000
0000
0000
;

//---------------dance-single - ----------------
#NOTES:
     dance-single:
     :
     Easy:
     3:
     0.280,0.297,0.088,0.177,0.000:
0001
0001
0001
0001
,
1000
1000
1000
1000
,
0100
0100
0100
0100
,
0200
0000
0010
0000
,
0310
0010
0010
0010
,
0100
0100
0100
0100
,
0001
0001
0001
0001
,
1000
1000
1000
1000
,
1001
0000
0000
0001
,
1001
0000
0000
1000
,
1001
0000
0001
1000
,
0100
0010
0000
0000
0000
0000
0000
0000
,
0010
0000
1000
0100
,
2000
3000
0001
0100
,
0002
0003
0100
0001
,
0010
1000
0100
0010
,
0002
0003
1000
0001
,
0200
0300
0010
1000
,
0002
0003
1000
0001
,
0100
0010
1000
0000
,
1001
0000
1000
1000
,
2000
0000
3000
0000
,
0001
1000
0100
0010
,
0001
0010
0100
1000
,
0002
0000
0000
1000
0000
0000
2000
0000
,
3003
0000
0000
0000
,
0010
0100
0010
1000
,
0100
0010
0001
0010
,
0100
1000
0000
0100
,
1000
1000
1000
1000
,
1001
0000
0001
1000
,
0000
0000
0000
0000
,
0010
0100
0010
1000
,
0000
0000
0000
0000
,
0001
1000
0100
0010
,
0001
0100
1000
0100
,
0010
0010
0100
0100
,
0001
1000
0002
0003
,
2000
0000
3100
0000
,
0020
0000
0031
0000
,
0002
0000
0000
0000
0000
0100
0000
0103
,
0000
0000
0000
0000
0000
0000
0000
0010
,
0000
0100
0000
0010
0000
1000
0000
0001
,
0000
1000
0000
0001
0000
0200
0000
0010
,
0300
0000
0000
0000
,
0000
0000
0000
0000
,
2002
3003
0001
0000
,
1000
0000
0100
0000
,
0020
0000
0000
0000
0000
0001
0000
0031
,
0000
0000
0000
0000
,
0001
0100
0000
0100
0000
0100
0000
0100
,
0000
0100
0000
0100
0000
0100
0000
0100
,
0000
0000
0000
0000
,
0000
0000
0000
0000
,
1001
0000
0001
1000
,
0001
0100
0010
1000
,
0001
0100
0010
1000
,
0001
1000
0100
0010
,
0001
0010
0100
1000
,
0100
0010
0001
1000
,
0001
0100
0010
1000
,
1001
0000
0010
0100
,
0010
0000
0000
0000
0000
0000
0000
0010
,
1000
0010
0000
0000
0000
0000
0000
0000
,
1001
0000
0001
0100
,
0002
0003
1000
0001
,
2000
3000
0010
0100
,
0010
0010
0010
2000
,
3100
0000
0010
0001
,
0110
0000
0010
1000
,
1001
0000
0001
0100
,
0010
1000
0100
0000
,
0001
0000
1000
0002
,
0200
0000
0000
0000
,
0303
0000
0000
0000
;

//---------------dance-single - ----------------
#NOTES:
     dance-single:
     :
     Beginner:
     1:
     0.070,0.117,0.016,0.000,0.000: // measure 1
1000
0000
0000
0000
,  // measure 2
1000
0000
0000
0000
,  // measure 3
1000
0000
0000
0000
,  // measure 4
0100
0000
0000
0000
,  // measure 5
0001
0000
0000
0000
,  // measure 6
0001
0000
0000
0000
,  // measure 7
0001
0000
0000
0000
,  // measure 8
0001
0000
0000
0000
,  // measure 9
0100
0000
0000
0000
,  // measure 10
0100
0000
0000
0000
,  // measure 11
0100
0000
0000
0000
,  // measure 12
0000
0000
0000
0000
,  // measure 13
0100
0000
0000
0000
,  // measure 14
0000
0000
0000
0000
,  // measure 15
1000
0000
0000
0000
,  // measure 16
0001
0000
0000
0000
,  // measure 17
0001
0000
0000
0000
,  // measure 18
0100
0000
0000
0000
,  // measure 19
0010
0000
0000
0000
,  // measure 20
1000
0000
0000
0000
,  // measure 21
1001
0000
0000
0000
,  // measure 22
0000
0000
0000
0000
,  // measure 23
0100
0000
0000
0000
,  // measure 24
0000
0000
0000
0000
,  // measure 25
0010
0000
0000
0000
,  // measure 26
0000
0000
0000
0000
,  // measure 27
1000
0000
0000
0000
,  // measure 28
0000
0000
0000
0000
,  // measure 29
0001
0000
0000
0000
,  // measure 30
0100
0000
0000
0000
,  // measure 31
0100
0000
0000
0000
,  // measure 32
0000
0000
0000
0000
,  // measure 33
1000
0000
0000
0000
,  // measure 34
0000
0000
0000
0000
,  // measure 35
0010
0000
0000
0000
,  // measure 36
0000
0000
0000
0000
,  // measure 37
0001
0000
1000
0000
,  // measure 38
0001
0000
0000
0000
,  // measure 39
0100
0000
0000
0000
,  // measure 40
0100
0000
0000
0000
,  // measure 41
0100
0000
0000
0000
,  // measure 42
0000
0000
0000
0000
,  // measure 43
0010
0000
0000
0000
,  // measure 44
0000
0000
0000
0000
,  // measure 45
0000
0100
0000
0000
,  // measure 46
0000
0000
0000
0000
,  // measure 47
1000
0000
0000
0000
,  // measure 48
0001
0000
0000
0000
,  // measure 49
0100
0000
0000
0000
,  // measure 50
0000
0000
0000
0000
,  // measure 51
0010
0000
0000
0000
,  // measure 52
0100
0000
0000
0000
,  // measure 53
0010
0000
1000
0000
,  // measure 54
0001
0000
0000
0000
,  // measure 55
0000
0000
1000
0000
,  // measure 56
0000
0000
0000
0000
,  // measure 57
0000
0000
0001
0000
,  // measure 58
0000
0000
0000
0000
,  // measure 59
0000
0000
0100
0000
,  // measure 60
0000
0000
0000
0000
,  // measure 61
0000
0000
0000
0000
,  // measure 62
0000
0000
0110
0000
,  // measure 63
0000
0000
0000
0000
,  // measure 64
0000
0000
0000
0000
,  // measure 65
0001
0000
0000
0000
,  // measure 66
1000
0000
0000
0000
,  // measure 67
0001
0000
0000
0000
,  // measure 68
1000
0000
0000
0000
,  // measure 69
0100
0000
0000
0000
,  // measure 70
0010
0000
0000
0000
,  // measure 71
0100
0000
0000
0000
,  // measure 72
0010
0000
0000
0000
,  // measure 73
1000
0000
0001
0001
,  // measure 74
0001
0000
0000
0000
;
