#TITLE:FLUTE MAN;
#SUBTITLE:;
#ARTIST:SPARKER;
#TITLETRANSLIT:;
#SUBTITLETRANSLIT:;
#ARTISTTRANSLIT:;
#CREDIT:;
#BANNER:bn.PNG;
#BACKGROUND:bg.PNG;
#LYRICSPATH:;
#CDTITLE:;
#MUSIC:29.FLUTE MAN.mp3;
#OFFSET:-2.234;
#SAMPLESTART:22.910;
#SAMPLELENGTH:12.000;
#SELECTABLE:YES;
#DISPLAYBPM:130.000;
#BPMS:0.000=130.000;
#STOPS:;
#BGCHANGES:;

//---------------dance-single - ----------------
#NOTES:
     dance-single:
     :
     Hard:
     8:
     0.451,0.648,0.249,0.173,0.494:
0000
0000
0000
0000
,
0000
0000
0000
0000
,
0000
0000
0000
0000
,
1000
0100
0010
0001
,
0010
0100
1001
1001
,
1001
0010
1100
1100
,
1100
0010
0011
0011
,
0011
0000
1100
0000
0010
0001
0010
0001
,
0100
1000
0100
1000
0100
1000
0100
0010
,
0000
0000
0000
0000
0001
0000
0000
0000
0100
0000
0000
0000
0010
0000
0000
0000
1000
0000
0000
0000
0001
0000
0000
0000
0100
0000
0000
0000
0010
0000
0000
0000
1000
0000
0000
0000
0001
0000
0000
0000
0100
0000
0000
0000
0000
0010
0000
0000
,
1000
0000
0000
0001
0010
0000
0000
1000
0100
0000
0000
0010
0100
0000
0000
0000
,
1001
0000
0000
0000
0000
0000
0000
0000
0000
0000
0000
0000
0010
0100
0000
0010
,
0000
1000
0000
0001
0000
0000
0000
0000
0200
0000
0000
0000
0300
0000
0000
0000
,
2000
0000
0000
0000
3000
0000
0000
0000
0000
0000
0000
0000
0010
0100
0000
1000
,
0000
0001
0000
0100
0000
0000
0000
0000
2000
0000
0000
0000
3000
0000
0000
0000
,
0002
0000
0000
0000
0003
0000
0000
0000
0000
0000
0000
0000
0010
0001
0000
0010
,
0000
0100
0000
1000
0000
0000
0000
0000
0002
0000
0000
0000
0003
0000
0000
0000
,
0200
0000
0000
0000
0300
0000
0000
0000
0000
0000
0000
0000
0010
0100
0000
1000
,
0000
0001
0000
0010
0000
0000
0000
0000
2000
0000
0000
0000
3000
0000
0000
0000
,
1001
0000
0000
0000
1100
0000
0000
0000
0010
0000
0000
0000
0001
0100
0000
0010
,
0000
1000
0000
0000
0100
0000
1000
0000
0100
0000
1000
0000
0100
0000
0010
0000
,
0002
0000
0000
0000
0103
0000
0000
0000
0010
0000
0000
0000
1000
0100
0000
0010
,
0000
1000
0000
0001
0000
0000
0200
0000
0010
0300
1000
0000
0010
0000
0200
0000
,
0010
0300
1000
0000
0001
0000
1000
0000
0100
0000
0001
0000
0010
0100
0000
0010
,
0000
1000
0000
0001
0000
0000
0020
0000
1030
0000
0001
0000
0010
0000
0200
0000
,
1300
0000
0000
0000
1100
0000
0000
0000
0010
0000
0000
0000
0001
0100
0000
0010
,
0000
1000
0000
0100
0000
0000
0000
0000
0020
0000
0000
0000
0000
0000
0000
0000
,
0130
0000
0010
0100
0010
0100
0010
0100
,
0010
1000
0010
1000
0001
0100
0001
0010
,
0000
0000
0000
0000
1000
0000
0000
0000
0100
0000
0000
0000
0010
0000
0000
0000
0001
0000
0000
0000
0010
0000
0000
0000
0100
0000
0000
0000
1000
0000
0000
0000
0100
0000
0000
0000
0010
0000
0000
0000
0001
0000
0000
0000
0000
0100
0000
0000
,
1000
0000
0000
0010
0001
0000
0000
0010
0100
0000
0000
1000
0200
0000
0000
0000
,
0300
0000
0000
0000
0000
0000
0000
0000
0000
0000
0000
0000
0001
1000
0000
0010
,
0000
0100
0000
0001
0000
0000
0000
0000
0100
0000
0000
0000
0000
0000
0000
0000
,
0010
0000
0000
0000
0110
0000
0000
0000
1000
0000
0000
0000
1000
0100
0000
0010
,
0000
0001
0000
0010
0000
0000
0000
0000
1100
0000
0000
0000
0010
0000
0000
0000
,
0011
0000
0000
0000
0010
0000
0000
0000
0100
0000
0000
0000
1000
0100
0000
0010
,
0000
1000
0000
0001
0000
0000
0000
0000
1100
0000
0000
0000
0010
0000
0000
0000
,
0011
0000
0000
0000
0010
0000
0000
0000
0100
0000
0000
0000
1000
0100
0000
0010
,
0000
1000
0000
0001
0000
0000
0000
0000
0220
0000
0000
0000
0000
0000
0000
0330
,
1000
0000
0000
1000
0100
0000
0000
0000
0010
0000
0000
0010
0100
0000
0000
0000
,
0001
0000
0000
0001
0100
0000
0000
0000
0010
0000
0000
0010
1000
0000
0000
0000
,
1000
0000
0000
1000
0100
0000
0000
0000
0010
0000
0000
0010
0100
0000
0000
0000
,
0001
0000
0000
0001
0100
0000
0000
0000
0010
0000
0000
0100
0001
0000
0000
0000
,
1000
0100
0010
0001
,
0101
0010
1100
1100
,
1100
0000
1100
0000
0010
1000
0001
0100
,
0010
1000
0010
0100
0001
1000
0010
0100
,
0000
0010
1000
0001
0100
0010
1000
0100
0010
0001
0010
0100
,
0000
0010
1000
0001
0100
0010
1000
0010
0100
0001
1000
0010
,
0000
0000
0001
1000
0100
0010
0001
0100
0010
1000
0001
0010
0100
0010
0001
1000
,
0100
0000
0000
0010
0100
0000
0000
0010
1000
0000
0000
0001
0100
0000
0000
0000
,
2002
0000
0000
0000
,
3003
0000
0000
0000
;

//---------------dance-single - ----------------
#NOTES:
     dance-single:
     :
     Medium:
     5:
     0.360,0.374,0.518,0.182,0.000:
0000
0000
0000
0000
,
0000
0000
0000
0000
,
0000
0000
0000
0000
,
1000
0001
0101
0101
,
0101
0001
0101
0101
,
0100
1000
1100
1100
,
1100
1000
1001
1001
,
1001
1000
0001
0100
,
0001
0100
1000
0010
,
2000
3100
0002
0103
,
0101
0011
1100
1010
,
2002
3003
0000
1000
,
0001
0000
0100
0000
0001
0000
1000
0100
,
1000
0001
1000
0100
,
0001
0000
0100
0000
1000
0000
0001
1000
,
0001
0000
0100
0000
0010
0000
1000
0100
,
1000
0000
0001
0000
0101
0000
0001
0100
,
0001
0000
0010
0000
0001
0000
0100
1000
,
0100
1000
0002
0003
,
1000
0000
0100
0000
0010
0001
0010
0000
,
0100
0001
2000
3002
,
1003
0000
0001
0000
0100
0000
0010
0100
,
0010
0100
2000
0000
,
3001
0000
0000
0000
0000
0000
0100
0001
,
0100
0001
0100
1000
,
0100
0000
0010
0000
0001
0000
1000
0001
,
1000
0001
0101
0000
,
1000
0100
0011
1100
,
1010
0100
0101
1100
,
2000
3001
0200
0301
,
0011
1100
1010
0101
,
0002
0000
0000
0003
0000
0000
2000
0000
,
0000
0000
3100
0000
,
0100
0001
0100
1000
,
0100
0001
0101
1000
,
1100
0000
0010
0000
1000
0000
0100
1000
,
0100
0100
0101
1100
,
0101
0000
1000
0000
0010
0000
0001
1000
,
0100
0001
2000
0000
,
3001
1000
0101
1000
,
0001
0011
0001
1000
,
0100
1100
0010
1000
,
0100
0101
1000
0010
,
1001
0000
1100
0011
,
1010
0000
0101
1100
,
0011
0000
0110
1100
,
0101
0011
1010
1100
,
0002
1003
2000
3100
,
0020
0031
0200
1300
,
1000
0100
1000
0000
0001
0100
0001
0000
,
0011
1100
1010
0101
,
2002
0000
0000
0000
,
3003
0000
0000
0000
;

//---------------dance-single - ----------------
#NOTES:
     dance-single:
     :
     Easy:
     3:
     0.269,0.299,0.316,0.115,0.000:
0000
0000
0000
0000
,
0000
0000
0000
0000
,
0000
0000
0000
0000
,
1000
0000
0001
0001
,
0001
0000
1100
1100
,
1100
0000
0010
0010
,
0010
0000
0101
0101
,
0101
0000
0001
0001
,
0001
0000
1100
1100
,
1100
0000
0010
0000
,
0001
0100
1000
0100
,
0011
0000
0000
1000
,
0001
0100
0001
0100
,
1000
0000
0000
1000
,
0100
0010
0001
0100
,
1001
0000
0000
0010
,
0001
0100
1000
0100
,
1100
0000
0000
1000
,
0001
0100
0002
0003
,
1000
0001
1000
0100
,
0001
0010
2000
0100
,
3010
0000
0000
0001
,
1000
0001
0200
0302
,
0013
0000
0000
0001
,
1000
0100
0020
0031
,
0100
0000
0000
0001
,
1000
0001
0100
0000
,
1000
0100
0101
0101
,
0101
0001
1010
1010
,
2000
0000
3002
0000
,
0103
0101
1000
1100
,
0001
0000
0000
0000
,
0000
0000
0000
0000
,
0100
0100
0001
0001
,
1000
1000
0200
1300
,
0001
1000
0100
0010
,
0001
0100
0002
1003
,
0001
1000
0100
0010
,
0001
0100
2000
0000
,
3100
0001
0100
1000
,
0100
0001
0100
1000
,
0010
0001
0010
1000
,
0010
0001
0010
1000
,
0001
0000
1100
0011
,
1100
0000
0001
1001
,
1001
0000
0100
0001
,
0010
0000
1100
0011
,
0110
0000
0001
0000
,
1001
0000
1000
0000
,
1000
0100
0010
0001
,
0011
1100
1010
0101
,
2002
0000
0000
0000
,
3003
0000
0000
0000
;

//---------------dance-single - ----------------
#NOTES:
     dance-single:
     :
     Beginner:
     1:
     0.073,0.122,0.010,0.000,0.000: // measure 1
0000
0000
0000
0000
,  // measure 2
0000
0000
0000
0000
,  // measure 3
0000
0000
0000
0000
,  // measure 4
1000
0000
0000
0000
,  // measure 5
0000
0000
0000
0000
,  // measure 6
0001
0000
0000
0000
,  // measure 7
0000
0000
0000
0000
,  // measure 8
0010
0000
0000
0000
,  // measure 9
0000
0000
0000
0000
,  // measure 10
0100
0000
0000
0000
,  // measure 11
1000
0000
0001
0000
,  // measure 12
1001
0000
0000
0000
,  // measure 13
0000
0000
0010
0000
,  // measure 14
0010
0000
0000
0000
,  // measure 15
0000
0000
0100
0000
,  // measure 16
0100
0000
0000
0000
,  // measure 17
0000
0000
1000
0000
,  // measure 18
1000
0000
0000
0000
,  // measure 19
0000
0000
0001
0000
,  // measure 20
0100
0000
0000
0000
,  // measure 21
0000
0000
0010
0000
,  // measure 22
1000
0000
0000
0000
,  // measure 23
0000
0000
0001
0000
,  // measure 24
1000
0000
0000
0000
,  // measure 25
0000
0000
0010
0000
,  // measure 26
0100
0000
0000
0000
,  // measure 27
0000
0000
0001
0000
,  // measure 28
1000
0000
0000
0000
,  // measure 29
0000
0000
0000
0000
,  // measure 30
0000
0000
0000
0000
,  // measure 31
0001
0001
1000
1000
,  // measure 32
0000
0000
0000
0000
,  // measure 33
0000
0000
0000
0000
,  // measure 34
0010
0000
0000
0000
,  // measure 35
0000
0000
0100
0000
,  // measure 36
0100
0000
0000
0000
,  // measure 37
0000
0000
1000
0000
,  // measure 38
0001
0000
0000
0000
,  // measure 39
0000
0000
0010
0000
,  // measure 40
0010
0000
0000
0000
,  // measure 41
0010
0000
0000
0000
,  // measure 42
0100
0000
0000
0000
,  // measure 43
0100
0000
0000
0000
,  // measure 44
1000
0000
0000
0000
,  // measure 45
0001
0000
1000
1000
,  // measure 46
1000
0000
0000
0000
,  // measure 47
0001
0000
0100
0000
,  // measure 48
0100
0000
0000
0000
,  // measure 49
0010
0000
0000
0000
,  // measure 50
1000
0000
0000
0000
,  // measure 51
0001
0001
0001
0001
,  // measure 52
1000
0000
0000
0000
;
